osu file format v5

[General]
AudioFilename: Barrel Roll Song EDITTED.mp3
AudioLeadIn: 3000
PreviewTime: 0
Countdown: 3
SampleSet: Normal
StackLeniency: 0.7
Mode: 0
LetterboxInBreaks: 1
EditorBookmarks: 30

[Metadata]
Title:Do a Barrel Roll!
Artist:
Creator:Remco32
Version:Easy
Source:StarFox 64
Tags:Starfox Star fox Nintendo 64 N64

[Difficulty]
HPDrainRate:1
CircleSize:3
OverallDifficulty:2
SliderMultiplier:1.4
SliderTickRate:2

[Events]
//Background and Video events
0,0,"barrelroll.jpg"
//Break Periods
//Storyboard Layer 0 (Background)
//Storyboard Layer 1 (Failing)
//Storyboard Layer 2 (Passing)
//Storyboard Layer 3 (Foreground)
//Storyboard Sound Samples
//Background Colour Transformations
3,100,0,0,0

[TimingPoints]
78,426.287744227353,4,1,1,75,1
13693,388.349514563107,4,1,1,80,1
26064,356.612184249629,4,1,1,85,1
37437,327.868852459016,4,1,1,90,1

[Colours]
Combo1 : 250,4,18
Combo2 : 57,126,187
Combo3 : 4,250,5
Combo4 : 192,164,64

[HitObjects]
96,64,77,5,0
256,64,930,1,0
416,64,1783,2,0,B|416:352,1,280
336,320,3062,1,2
256,336,3488,6,0,B|256:48,1,280
176,96,4767,1,2
256,192,5193,12,4,6472
64,288,6898,5,2
64,128,7751,1,2
224,80,8603,2,0,B|381:62|478:63|480:336,1,420
400,320,10308,2,0,B|243:338|146:337|144:64,1,420
224,64,12014,6,8,B|384:64,3,140
336,128,13693,5,0
336,288,14469,1,2
160,288,15246,2,2,B|32:224|32:96|160:32|256:32|256:160|272:144,1,420
272,232,16799,1,2
352,232,17188,1,2
432,232,17576,2,2,B|432:56,1,140
256,192,18353,12,4,19518
256,64,19906,5,2
288,224,20683,2,2,B|112:224,1,140
64,256,21459,2,2,B|96:320|128:352|448:352|464:272,1,420
384,224,23013,5,8
384,136,23401,1,8
304,120,23790,2,2,B|128:120,1,140
256,192,24566,12,2,25343
208,304,26064,5,2
368,304,26777,1,2
208,144,27490,2,4,B|208:272|272:336|336:336|400:272|400:128,1,420
304,160,28916,5,4
304,240,29273,1,4
304,320,29630,2,4,B|144:320,1,140
168,232,30343,2,2,B|168:104|232:40|360:40|392:40|456:168|456:184,1,420
376,208,31769,5,0
208,208,32483,1,0
40,208,33196,2,0,B|5:83|159:29|222:134|296:144|296:240|376:192,1,420
344,288,34622,5,0
424,288,34979,2,2,B|424:192,4,70
256,192,36049,12,2,36762
160,96,37437,5,2
320,96,38092,2,2,B|400:96,2,70
368,160,38748,2,2,B|352:304|160:320,1,280,10|2
80,320,39732,1,4
96,224,40059,6,2,B|336:224,2,210,2|2|2
256,192,41371,12,2,42027
416,288,42682,6,2,B|416:96,1,140,2|10
320,64,43338,2,2,B|320:240,1,140,2|12
240,224,43994,6,8,B|288:128|208:88|112:88|80:120|80:184|80:216|129:255|168:262|192:176,1,420,0|12
256,192,45305,12,2,46289
256,192,46453,12,6,47600
