osu file format v9

[General]
AudioFilename: Devils Devel Concept OP - _The Divinity_ by Barbarian on the Groove feat_ Kahiena.mp3
AudioLeadIn: 0
PreviewTime: 48011
Countdown: 0
SampleSet: Normal
StackLeniency: 0.7
Mode: 0
LetterboxInBreaks: 1

[Editor]
DistanceSpacing: 0.8
BeatDivisor: 4
GridSize: 8

[Metadata]
Title:The Divinity
Artist:Barbarian On The Groove feat.Kahina
Creator:PSPDS Eddie
Version:Normal
Source:Devils Devel Concept
Tags:

[Difficulty]
HPDrainRate:3
CircleSize:3
OverallDifficulty:3
ApproachRate:3
SliderMultiplier:0.8
SliderTickRate:1

[Events]
//Background and Video events
0,0,"BG.png"
//Break Periods
2,37341,43613
2,105912,109548
2,166572,173504
//Storyboard Layer 0 (Background)
//Storyboard Layer 1 (Fail)
//Storyboard Layer 2 (Pass)
//Storyboard Layer 3 (Foreground)
//Storyboard Sound Samples
//Background Colour Transformations
3,100,163,162,255

[TimingPoints]
5493.55469296239,329.67032967033,4,1,0,60,1,0
25263,-100,4,1,2,60,0,0
26252,-100,4,1,0,60,0,0
35734,-100,4,1,2,60,0,0
36229,-100,4,1,0,60,0,0
68701,-133.333333333333,4,1,0,60,0,0
79004,-100,4,1,0,60,0,0
79174,-100,4,1,0,60,0,1
79257,-100,4,1,0,60,0,0
85850,-100,4,1,2,60,0,0
87169,-100,4,1,0,60,0,0
89724,-100,4,1,0,60,0,1
89806,-100,4,1,0,60,0,0
93845,-100,4,1,2,60,0,0
94669,-100,4,1,0,60,0,0
97306,-100,4,1,2,60,0,0
97636,-100,4,1,2,60,0,0
100273,-100,4,1,0,60,0,0
132004,-133.333333333333,4,1,0,60,0,0
142224,-100,4,1,0,60,0,0
142471,-100,4,1,0,60,0,1
142553,-100,4,1,0,60,0,0
149147,-100,4,1,2,60,0,0
150466,-100,4,1,0,60,0,0
153021,-100,4,1,0,60,0,1
153103,-100,4,1,0,60,0,0
157141,-100,4,1,2,60,0,0
157966,-100,4,1,0,60,0,0
160603,-100,4,1,2,60,0,0
160933,-100,4,1,0,60,0,0
162251,-100,4,1,2,60,0,0
164147,-100,4,1,0,60,0,0
174779,-200,4,1,0,30,0,0
176427,-100,4,1,0,60,0,0
180053,-200,4,1,0,30,0,0
181372,-100,4,1,0,60,0,0
195218,-100,4,1,0,60,0,1
195301,-100,4,1,0,60,0,0
201894,-100,4,1,2,60,0,0
203213,-100,4,1,0,60,0,0
205768,-100,4,1,0,60,0,1
205850,-100,4,1,0,60,0,0
209889,-100,4,1,2,60,0,0
210713,-100,4,1,0,60,0,0
213350,-100,4,1,2,60,0,0
213680,-100,4,1,0,60,0,0
214999,-100,4,1,2,60,0,0
218955,-100,4,1,2,60,0,1
219037,-100,4,1,2,60,0,0

[Colours]
Combo1 : 255,150,0
Combo2 : 5,240,5
Combo3 : 5,5,240
Combo4 : 192,192,192

[HitObjects]
192,88,5493,6,0,B|240:88,1,40
296,88,5988,2,0,B|296:136,1,40
296,192,6482,2,0,B|296:240,1,40
296,296,6977,2,0,B|240:296,1,40
192,296,7471,2,0,B|136:288|112:248,1,80,0|4
152,200,8130,6,0,B|120:120|152:32,1,160
208,72,9119,2,0,B|288:96|376:72,1,160
408,120,10108,1,4
408,120,10438,1,4
440,176,10768,6,0,B|408:264|320:296,1,160
272,312,11757,2,0,B|184:336|112:288,1,160
80,240,12746,1,0
80,240,13075,1,4
40,192,13405,2,0,B|8:112|40:32,4,160,0|0|0|0|4
104,192,16372,6,0,B|184:208|272:192,1,160
264,64,17691,2,0,B|304:56|360:64,2,80
352,152,19010,2,0,B|368:192|352:232,2,80
264,64,20328,2,0,B|208:56|168:64,2,80
256,192,21647,5,0
192,192,21977,1,0
128,192,22306,1,0
256,192,22966,1,0
256,256,23295,1,0
256,320,23625,1,0
256,192,24284,5,0
320,192,24614,1,0
384,192,24944,1,0
384,96,25438,2,4,B|336:96,1,40,0|4
280,96,25933,2,4,B|224:96,1,40
144,96,26592,6,0,B|64:136|64:232,2,160
224,192,28570,1,0
224,192,28900,1,0
224,192,29229,6,0,B|224:280|136:312,2,160,4|0|0
352,192,31207,1,0
352,192,31537,1,0
352,192,31867,6,0,B|512:192,2,160,4|0|0
256,104,33845,1,0
256,104,34174,1,0
256,104,34504,6,0,B|168:72|96:112,1,160,4|0
100,237,35823,2,4,B|100:293,2,40
164,237,36482,1,0
228,237,36812,1,0
291,237,37141,1,4
256,192,45053,12,4,46867
256,192,48021,6,0,B|168:192,2,80
256,128,49010,2,0,B|328:96,1,80
360,152,49669,2,0,B|440:168,1,80
456,232,50328,6,0,B|424:320|328:336,1,160
216,336,51647,2,0,B|112:304|104:224,1,160
104,168,52636,1,0
104,104,52966,6,0,B|192:96|272:48,1,160,4|0
352,112,54284,1,0
376,168,54614,1,0
360,232,54944,2,0,B|376:288|352:312,1,80
320,312,55438,6,0,B|200:312,2,120,4|0|0
320,248,56757,2,0,B|256:240|208:192,1,120
152,184,57581,2,0,B|112:128|160:64,1,120,0|4
256,112,58570,6,0,B|344:112,2,80
256,176,59559,2,0,B|304:248,1,80
264,296,60218,2,0,B|192:336,1,80
136,304,60877,6,0,B|48:272|32:176,1,160
160,184,62196,2,0,B|176:80|272:72,1,160
320,72,63185,1,0
376,96,63515,6,0,B|440:144,1,80,4|0
384,176,64174,2,0,B|416:248,1,80
392,312,64833,1,0
328,328,65163,1,0
264,336,65493,2,0,B|216:328|176:344,1,80
152,344,65988,6,0,B|80:336|32:296,2,120
152,280,67306,2,0,B|152:208|112:168,1,120
72,112,68130,1,0
72,112,68460,1,0
136,112,68790,6,4,B|376:112,1,239.999992847443
376,304,71427,2,4,B|136:304,1,239.999992847443
136,111,74064,2,0,B|256:111,1,119.999996423721,4|0
256,208,75383,2,0,B|384:208,1,119.999996423721
392,304,76702,2,0,B|496:304,2,104.999996870756,4|0|4
256,304,78845,5,0
256,304,79174,2,0,B|120:304,1,120,4|0
72,288,79999,2,0,B|40:216,1,80
40,152,80658,2,0,B|96:72,1,80
152,64,81317,1,0
152,64,81647,1,0
208,88,81977,2,0,B|280:120|368:88,2,160,0|0|4
128,192,83955,6,0,B|216:192,2,80,0|0|4
128,320,85273,1,0
256,320,85933,2,0,B|296:328|344:320,1,80,0|4
400,304,86592,2,0,B|448:280|472:248,1,80,0|4
488,200,87251,6,0,B|480:144|464:112,1,80,0|0
440,104,87746,2,0,B|352:104,2,80,0|0|4
272,192,89394,5,0
272,192,89724,2,0,B|136:192,1,120,4|0
144,256,90549,2,0,B|152:328|232:352,1,120
256,256,91537,1,0
312,288,91867,2,0,B|384:296|424:344,2,120
312,224,93185,2,0,B|328:152|304:96,1,120
312,40,94010,6,4,B|264:40,1,40
208,40,94504,1,4
208,104,94834,1,0
256,136,95163,6,0,B|312:136,1,40
256,192,95658,2,0,B|208:192,1,40
256,248,96152,2,0,B|304:248,1,40
256,304,96647,2,0,B|200:304,1,40
160,336,97141,2,0,B|112:328|96:280,1,80,0|4
152,240,97801,6,0,B|120:152|160:72,1,160
256,160,99119,1,4
296,112,99449,1,4
360,96,99779,1,4
416,120,100108,1,4
464,168,100438,6,0,B|432:256|344:288,1,160,4|0
304,312,101427,2,0,B|216:336|128:304,1,160
88,288,102416,1,0
88,288,102745,1,4
48,240,103075,2,0,B|16:160|48:80,4,160,0|0|0|0|4
256,192,110988,5,0
256,192,111318,2,0,B|168:192,2,80
256,128,112307,2,0,B|328:96,1,80
360,152,112966,2,0,B|440:168,1,80
456,232,113625,6,0,B|424:320|328:336,1,160
216,344,114944,2,0,B|112:312|104:232,1,160
72,184,115933,1,0
104,128,116263,2,0,B|192:120|256:64,1,160,4|0
376,64,117581,1,0
384,192,118240,2,0,B|416:232|416:272,1,80
392,288,118735,6,0,B|320:312|272:296,1,120,4|0
232,248,119559,1,0
168,272,119889,1,0
112,248,120219,2,0,B|64:232|48:200,1,80
48,136,120878,2,0,B|96:88|152:64,1,120,0|4
200,144,121867,6,0,B|288:144,2,80
200,208,122856,2,0,B|216:248|248:280,1,80
304,304,123515,2,0,B|272:336|232:344,1,80
168,336,124174,6,0,B|80:304|64:208,1,160
192,192,125493,2,0,B|208:88|304:80,1,160
416,104,126812,2,0,B|480:152,1,80,4|0
432,200,127471,2,0,B|464:272,1,80
416,312,128130,1,0
352,304,128460,6,0,B|304:224,2,80
296,328,129449,2,0,B|248:304|216:304,3,80,4|0|0|0
168,264,130768,2,0,B|200:224|208:176,3,80,4|0|0|0
224,152,132086,6,4,B|464:152,1,239.999992847443
288,224,134723,2,4,B|48:224,1,239.999992847443
168,80,137360,2,0,B|48:80,1,119.999996423721,4|0
48,176,138679,2,0,B|176:176,1,119.999996423721
256,216,139998,2,0,B|360:216,2,104.999996870756,4|0|4
256,80,142141,5,0
256,80,142470,2,0,B|392:80,1,120,4|0
440,96,143295,2,0,B|472:168,1,80
472,232,143954,2,0,B|416:312,1,80
360,320,144613,1,0
360,320,144943,1,0
304,296,145273,2,0,B|232:264|144:296,2,160
384,192,147251,6,0,B|296:192,2,80,0|0|4
384,64,148569,1,0
256,64,149229,2,0,B|216:56|168:64,1,80,0|4
112,80,149888,2,0,B|64:104|40:136,1,80,0|4
24,184,150547,6,0,B|16:232|40:264,1,80
56,288,151043,2,0,B|152:288|200:360,1,160,0|4
192,192,152690,5,0
192,192,153020,2,0,B|328:192,1,120,4|0
352,144,153845,2,0,B|304:128|288:96,1,80
232,72,154504,1,0
176,112,154834,1,0
112,120,155163,6,0,B|72:56|0:48,2,120
56,152,156481,2,0,B|40:224|88:280,1,120,0|4
120,312,157306,2,4,B|168:312,1,40
224,312,157800,1,4
288,312,158130,1,0
256,256,158460,6,0,B|168:216|152:128,1,160
152,80,159448,2,0,B|208:80,1,40
256,80,159943,2,0,B|312:80,1,40
352,48,160437,2,0,B|400:56|416:104,1,80,0|4
360,144,161097,6,0,B|392:232|352:312,1,160
256,224,162415,1,4
192,224,162745,1,4
192,160,163075,1,4
256,160,163404,1,4
256,192,163735,12,4,166372
256,152,174944,6,0,B|256:232,2,80
176,96,176757,6,0,B|120:144|64:152,1,120,0|4
40,208,177581,2,0,B|56:248|80:280,1,80,0|4
136,304,178240,2,0,B|176:312|224:304,3,80
280,288,179559,2,4,B|312:256|320:200,1,80
256,192,180218,6,0,B|256:112,2,80,0|0|0
256,288,182032,6,0,B|328:272|368:224,1,120,0|4
408,192,182856,2,0,B|424:232|448:264,1,80,0|4
440,328,183515,2,0,B|400:344|352:328,3,80
304,352,184834,2,4,B|264:360|216:352,1,80
160,336,185493,2,0,B|72:304|32:224,2,160
216,264,187306,6,0,B|288:272|336:240,1,120
331,178,188130,2,0,B|331:90,1,80
266,98,188790,2,0,B|178:98,3,80
176,160,190108,5,0
224,208,190438,1,0
288,208,190768,1,4
288,144,191097,1,0
344,176,191427,1,0
344,240,191757,1,4
400,208,192086,6,0,B|472:152|448:48,1,160
392,32,193075,1,0
328,40,193405,2,0,B|264:16|208:48,1,120,0|4
176,96,194229,2,0,B|264:136|280:224,1,160,0|4
248,264,195218,6,0,B|200:304|136:312,1,120
104,256,196043,2,0,B|96:216|72:184,1,80
48,120,196702,2,0,B|72:72|104:40,1,80
152,80,197361,5,0
216,56,197691,1,0
192,120,198021,2,0,B|264:152|352:120,2,160,0|0|4
88,192,199999,6,0,B|176:192,2,80,0|0|4
32,72,201317,1,0
160,72,201977,2,0,B|200:80|248:72,1,80,0|4
304,64,202636,2,0,B|360:56|400:72,1,80,0|4
440,88,203295,6,0,B|480:120|488:168,1,80
488,184,203790,2,0,B|496:224|480:264,2,80,0|0|4
256,280,205438,5,0
256,280,205768,2,0,B|120:280,1,120
120,216,206593,2,0,B|72:184|64:152,1,80
128,136,207252,2,0,B|168:144|216:128,1,80
232,192,207911,6,0,B|296:208|336:272,2,120
264,136,209229,2,0,B|280:64|232:16,1,120
192,64,210053,1,0
192,64,210218,1,4
192,128,210548,1,4
192,192,210878,1,0
256,192,211207,6,0,B|352:192|416:256,1,160
432,304,212196,2,0,B|392:344,1,40
344,360,212691,2,0,B|288:360,1,40
240,360,213185,2,0,B|192:352|176:304,1,80,0|4
136,272,213845,6,0,B|104:184|144:104,1,160
216,216,215163,1,4
280,216,215493,1,4
248,160,215823,1,4
312,160,216152,1,4
256,192,216482,12,4,218955
