osu file format v9

[General]
AudioFilename: Devils Devel Concept OP - _The Divinity_ by Barbarian on the Groove feat_ Kahiena.mp3
AudioLeadIn: 0
PreviewTime: 48011
Countdown: 0
SampleSet: Normal
StackLeniency: 0.7
Mode: 0
LetterboxInBreaks: 1

[Editor]
DistanceSpacing: 2
BeatDivisor: 4
GridSize: 8

[Metadata]
Title:The Divinity
Artist:Barbarian On The Groove feat.Kahina
Creator:PSPDS Eddie
Version:Insane
Source:Devils Devel Concept
Tags:

[Difficulty]
HPDrainRate:7
CircleSize:4
OverallDifficulty:6
ApproachRate:8
SliderMultiplier:1.8
SliderTickRate:1

[Events]
//Background and Video events
0,0,"BG.png"
//Break Periods
2,37341,44303
2,103275,107600
2,171188,173534
//Storyboard Layer 0 (Background)
//Storyboard Layer 1 (Fail)
//Storyboard Layer 2 (Pass)
//Storyboard Layer 3 (Foreground)
//Storyboard Sound Samples
//Background Colour Transformations
3,100,163,162,255

[TimingPoints]
5493.55469296239,329.67032967033,4,1,0,60,1,0
25263,-100,4,1,2,60,0,0
26252,-100,4,1,0,60,0,0
35734,-100,4,1,2,60,0,0
36229,-100,4,1,0,60,0,0
37059,-100,4,1,2,60,0,0
37224,-100,4,1,0,60,0,0
68701,-133.333333333333,4,1,0,60,0,0
79004,-100,4,1,0,60,0,0
79174,-100,4,1,0,60,0,1
79257,-100,4,1,0,60,0,0
85850,-100,4,1,2,60,0,0
87169,-100,4,1,0,60,0,0
89724,-100,4,1,0,60,0,1
89806,-100,4,1,0,60,0,0
93845,-100,4,1,2,60,0,0
94669,-100,4,1,0,60,0,0
97306,-100,4,1,2,60,0,0
97636,-100,4,1,2,60,0,0
107691,-100,4,1,0,60,0,0
132004,-133.333333333333,4,1,0,60,0,0
142224,-100,4,1,0,60,0,0
142471,-100,4,1,0,60,0,1
142553,-100,4,1,0,60,0,0
149147,-100,4,1,2,60,0,0
150466,-100,4,1,0,60,0,0
153021,-100,4,1,0,60,0,1
153103,-100,4,1,0,60,0,0
157141,-100,4,1,2,60,0,0
157966,-100,4,1,0,60,0,0
160603,-100,4,1,2,60,0,0
160933,-100,4,1,0,60,0,0
162251,-100,4,1,2,60,0,0
163735,-100,4,1,2,60,0,1
163817,-100,4,1,2,60,0,0
164147,-100,4,1,0,60,0,0
174779,-200,4,1,0,30,0,0
176097,-100,4,1,0,60,0,0
180053,-200,4,1,0,30,0,0
181372,-100,4,1,0,60,0,0
195218,-100,4,1,0,60,0,1
195301,-100,4,1,0,60,0,0
201894,-100,4,1,2,60,0,0
203213,-100,4,1,0,60,0,0
205768,-100,4,1,0,60,0,1
205850,-100,4,1,0,60,0,0
209889,-100,4,1,2,60,0,0
210713,-100,4,1,0,60,0,0
213350,-100,4,1,2,60,0,0
213680,-100,4,1,0,60,0,0
214999,-100,4,1,2,60,0,0
218955,-100,4,1,2,60,0,1
219037,-100,4,1,2,60,0,0

[Colours]
Combo1 : 255,150,0
Combo2 : 5,240,5
Combo3 : 5,5,240
Combo4 : 192,192,192

[HitObjects]
96,192,5493,1,0
96,192,5658,1,0
256,104,5988,2,0,B|360:104,2,90
256,192,6482,5,0
256,192,6647,1,0
256,376,6977,2,0,B|368:376,2,90
152,352,7471,1,0
64,288,7636,1,0
16,192,7801,1,4
144,72,8130,5,0
144,72,8295,1,0
256,208,8625,2,0,B|152:208,2,90
256,120,9119,5,0
256,120,9284,1,0
424,192,9614,2,0,B|424:88,2,90
488,256,10108,5,0
464,288,10191,1,0
432,304,10273,1,0
400,312,10356,1,0
368,312,10438,1,4
336,304,10521,1,0
304,288,10603,1,0
280,264,10685,1,0
264,232,10768,6,0,B|160:232,2,90,4|0|0
344,192,11262,1,0
400,120,11427,1,0
320,80,11592,1,0
264,152,11757,6,0,B|168:152,2,90
320,80,12251,1,0
240,40,12416,1,0
152,64,12581,1,0
88,128,12746,2,0,B|64:176|88:232,2,90,0|0|4
256,192,13405,6,0,B|360:192,2,90
184,136,13900,1,0
168,224,14064,1,0
96,168,14229,1,0
184,136,14394,6,0,B|264:80,2,90
168,224,14889,1,0
96,272,15053,1,0
176,312,15218,1,0
256,344,15383,2,0,B|360:344,1,90,4|0
288,272,15713,2,0,B|376:232,1,90,4|0
448,192,16043,6,0,B|424:88|304:56,1,180
264,120,16537,1,0
176,128,16702,2,0,B|176:56|232:40,2,90
264,120,17196,2,0,B|288:232|200:288,1,180
128,320,17691,1,0
40,288,17856,1,0
64,200,18021,2,0,B|40:152|64:88,2,90
232,144,18680,6,0,B|256:248|376:280,1,180
400,200,19174,1,0
488,192,19339,2,0,B|488:264|432:280,2,90
488,104,19834,2,0,B|392:120|304:56,1,180
232,32,20328,1,0
152,72,20493,1,0
72,112,20658,2,0,B|88:160|72:224,1,90
72,288,20988,2,0,B|120:336|168:344,1,90
232,360,21317,5,4
232,360,21482,1,0
320,344,21647,1,0
320,344,21812,1,0
392,288,21977,2,0,B|352:256|328:192,1,90
256,192,22306,2,0,B|192:200|153:189,1,90
168,280,22636,1,0
88,232,22801,1,0
88,144,22966,1,0
168,104,23130,1,0
168,192,23295,5,0
168,192,23378,1,0
168,192,23460,1,0
168,192,23625,1,4
344,192,23955,6,0,B|448:192,2,90
344,192,24449,1,0
256,192,24614,1,0
256,192,24696,1,0
256,192,24779,1,0
256,192,24944,1,4
168,192,25108,1,0
256,32,25438,5,4
256,32,25603,1,4
256,352,25933,5,4
256,352,26097,1,4
192,104,26592,6,0,B|304:104,2,90
168,192,27086,2,0,B|280:192,2,90
184,280,27581,2,0,B|272:280,2,90
168,192,28075,2,0,B|56:192,2,90
256,192,28570,1,0
256,192,28735,1,0
256,192,28900,1,4
320,104,29229,6,0,B|208:104,2,90
344,192,29724,2,0,B|232:192,2,90
328,280,30218,2,0,B|240:280,2,90
344,192,30713,2,0,B|456:192,2,90
256,192,31207,1,0
256,192,31372,1,0
256,192,31537,1,4
88,120,31867,6,0,B|88:24,2,90
176,136,32361,2,0,B|176:24,2,90
120,208,32856,2,0,B|120:312,2,90
208,240,33350,2,0,B|208:344,2,90
288,288,33845,1,0
352,352,34010,1,0
440,360,34174,1,4
424,120,34504,6,0,B|424:24,2,90
336,136,34999,2,0,B|336:24,2,90
256,104,35493,1,0
256,192,35658,1,0
264,288,35823,5,0
264,288,35988,1,4
264,288,36152,1,4
72,192,36482,1,4
440,192,36812,1,4
256,104,37141,1,4
160,120,45053,5,0
352,120,45383,1,4
256,272,45713,1,0
256,272,45878,1,0
256,272,46043,1,4
256,96,46372,5,0
256,120,46455,1,0
256,144,46537,1,0
256,168,46619,1,0
256,192,46702,1,0
256,272,46867,2,0,B|256:328,8,45,0|0|0|0|0|0|0|0|4
88,56,48021,5,0
160,112,48185,1,0
176,24,48350,2,0,B|256:64|360:32,1,180
440,32,48845,2,0,B|488:136|408:224,1,180
344,168,49339,1,0
360,256,49504,1,0
304,320,49669,2,0,B|256:304|208:304,1,90
160,232,49999,2,0,B|112:200|88:176,1,90
168,128,50328,6,0,B|256:80|360:136,1,180
408,192,50823,1,0
344,256,50988,2,0,B|256:304|152:248,1,180
232,192,51482,1,0
144,192,51647,2,0,B|40:192,2,90
96,272,52141,1,0
160,336,52306,1,0
248,352,52471,1,0
336,352,52636,1,0
336,352,52801,1,4
416,320,52966,6,0,B|384:224|416:112,1,180
432,56,53460,1,0
344,72,53625,2,0,B|240:40,1,90
320,112,53955,2,0,B|232:128,1,90
168,64,54284,1,0
80,88,54449,1,0
48,176,54614,1,0
64,264,54779,5,0
64,264,54861,1,0
64,264,54944,2,0,B|120:344|232:360,1,180
304,360,55438,2,0,B|416:344|448:256,1,180,4|0
456,176,55933,2,0,B|456:72,2,90
376,216,56427,1,0
296,168,56592,1,0
256,248,56757,2,0,B|160:296|80:240,1,180,4|0
40,168,57251,2,0,B|72:64|192:40,1,180
256,32,57746,5,0
256,352,58075,1,4
256,32,58405,5,0
256,32,58570,2,0,B|320:96|432:72,1,180
424,160,59064,1,0
472,240,59229,1,0
456,328,59394,2,0,B|360:280|264:328,1,180
192,328,59889,1,0
112,296,60053,1,0
64,216,60218,2,0,B|120:208|152:192,1,90
136,104,60548,2,0,B|192:120|224:160,1,90
232,240,60878,6,0,B|328:272|432:232,1,180
320,152,61372,1,0
232,64,61537,2,0,B|328:32|432:72,1,180
320,152,62032,1,0
232,240,62196,6,0,B|328:272|432:232,1,180
320,152,62691,1,0
232,64,62856,2,0,B|352:64,2,90
168,120,63350,1,0
104,64,63515,2,0,B|32:128|56:240,1,180,4|0
88,312,64010,2,0,B|176:368|280:344,1,180
352,336,64504,1,0
416,272,64669,1,0
416,184,64834,2,0,B|416:88,2,90
320,184,65328,5,0
320,184,65411,1,0
320,184,65493,2,0,B|232:232|120:208,1,180
56,184,65988,2,0,B|72:80|168:32,1,180,4|0
232,88,66482,5,0
352,136,66647,1,0
432,40,66812,1,0
352,136,66977,1,0
480,144,67141,1,0
352,136,67306,2,0,B|432:200|400:320,1,180
328,344,67801,2,0,B|224:368|128:320,1,180
72,296,68295,1,0
24,224,68460,1,0
32,136,68625,1,0
64,56,68790,6,0,B|136:80|216:48,1,134.999995976687,4|0
256,24,69284,1,0
320,48,69449,2,0,B|400:56|456:112,1,134.999995976687
448,168,69944,2,0,B|472:240|448:312,1,134.999995976687
320,304,70603,1,0
320,304,70768,1,0
184,304,71097,5,0
184,304,71262,1,0
184,304,71427,2,0,B|136:240|72:224,1,134.999995976687,4|0
48,168,71922,1,0
48,104,72086,2,0,B|128:80|208:112,1,134.999995976687
216,160,72581,2,0,B|296:184|368:160,1,134.999995976687
448,80,73240,1,0
448,80,73405,1,0
472,216,73735,5,0
464,280,73900,1,0
416,328,74064,2,0,B|344:344|256:320,1,134.999995976687,4|0
288,256,74559,2,0,B|216:240|128:256,1,134.999995976687
136,320,75053,1,0
88,272,75218,1,0
96,208,75383,2,0,B|80:136|120:64,1,134.999995976687,4|0
160,120,75878,2,0,B|232:136|320:96,1,134.999995976687
352,80,76372,1,0
392,136,76537,1,0
432,192,76702,5,4
432,192,76867,1,0
256,304,77196,1,0
256,304,77361,1,0
88,192,77691,1,0
88,192,77856,1,0
256,80,78185,5,0
256,80,78350,1,0
256,80,78515,1,0
256,80,78680,1,0
256,80,78845,1,4
432,64,79174,6,0,B|496:136|480:248,1,180
472,328,79669,2,0,B|400:368|288:360,1,180
208,352,80163,1,0
136,296,80328,1,0
224,264,80493,2,0,B|352:288|416:240,1,180
432,168,80988,2,0,B|384:72|280:40,1,180
232,104,81482,5,0
144,112,81647,1,0
80,56,81812,1,0
168,32,81977,2,0,B|184:136|120:208,1,180
72,272,82471,1,0
160,304,82636,2,0,B|224:232|352:240,1,180
408,256,83130,1,0
376,80,83460,6,0,B|432:104|488:80,2,90
288,48,83955,1,0
264,40,84037,1,0
240,32,84119,1,0
216,32,84202,1,0
192,32,84284,1,0
168,40,84367,1,0
144,56,84449,1,0
128,80,84532,1,0
112,104,84614,6,0,B|64:192|128:296,1,180,4|0
184,336,85108,1,0
256,280,85273,1,0
256,280,85438,1,0
328,336,85603,1,0
328,336,85768,1,0
344,248,85933,6,4,B|376:200|352:152,1,90,4|0
168,136,86262,2,4,B|136:184|160:232,1,90,4|0
256,72,86592,2,4,B|312:83|329:134,1,90,4|0
256,312,86922,2,4,B|199:300|182:249,1,90,4|0
256,192,87251,6,0,B|312:272|448:272,1,180
480,216,87746,1,0
480,128,87911,2,0,B|480:32,2,90
400,96,88405,2,0,B|304:96|224:40,1,180,4|0
208,128,88900,2,0,B|184:224|88:272,1,180
40,192,89394,1,4
208,128,89723,6,0,B|184:248|256:312,1,180,4|0
160,328,90218,2,0,B|240:280|344:296,1,180
408,344,90712,1,0
456,264,90877,1,0
384,208,91042,2,0,B|344:104|432:32,1,180
464,120,91537,2,0,B|368:152|280:88,1,180
216,48,92031,5,0
136,88,92196,1,0
208,144,92361,2,0,B|224:248|160:320,1,180
88,264,92855,1,0
32,192,93021,1,0
88,120,93185,2,0,B|88:24,2,90
144,192,93680,1,0
256,192,94010,5,4
256,192,94174,1,4
256,192,94504,1,4
256,192,94834,1,0
256,48,95163,5,4
256,48,95328,1,0
440,192,95658,1,0
440,192,95823,1,0
256,336,96152,1,0
256,336,96317,1,0
72,192,96647,5,0
72,192,96812,1,0
72,192,96977,1,0
72,192,97141,1,0
256,192,97471,1,4
256,192,97801,6,0,B|344:224|440:192,1,180
408,104,98295,1,0
320,112,98460,2,0,B|320:56,2,45
232,88,98790,1,0
40,128,99119,5,4
40,128,99284,1,0
80,248,99449,1,4
80,248,99614,1,0
192,192,99779,2,0,B|248:192,4,45,4|0|0|0|4
256,192,100438,12,4,103075
160,120,108350,5,0
352,120,108680,1,0
256,272,109010,1,0
256,272,109175,1,0
256,272,109340,1,0
256,88,109669,5,0
256,112,109752,1,0
256,136,109834,1,0
256,160,109916,1,0
256,184,109999,1,0
256,272,110163,2,0,B|256:328,6,45
256,88,110988,1,0
80,328,111318,5,0
144,272,111482,1,0
56,240,111647,2,0,B|24:152|72:64,1,180
160,88,112142,2,0,B|240:32|344:56,1,180
344,144,112636,1,0
424,104,112801,1,0
424,104,112883,1,0
424,104,112966,2,0,B|464:136|464:184,1,90
464,272,113296,2,0,B|416:272|368:280,1,90
288,288,113625,5,0
200,296,113790,2,0,B|104:304,2,90
288,288,114284,1,0
272,200,114449,2,0,B|256:112,2,90
360,184,114944,2,0,B|456:160,2,90
272,200,115438,5,0
152,232,115603,1,0
272,200,115768,1,0
352,104,115933,1,0
272,200,116098,1,4
192,152,116263,6,0,B|216:64|304:16,1,180
392,32,116757,1,0
352,104,116922,2,0,B|456:136,1,90
368,184,117252,2,0,B|432:248,1,90
384,328,117581,1,0
304,296,117746,1,0
224,336,117911,1,0
144,304,118076,5,0
144,304,118158,1,0
144,304,118241,2,0,B|64:248|48:136,1,180
144,160,118735,2,0,B|176:64|272:32,1,180,4|0
328,104,119230,2,0,B|432:104,2,90
328,192,119724,1,0
240,192,119889,1,0
152,192,120054,6,0,B|160:296|240:352,1,180,4|0
320,360,120548,2,0,B|416:344|464:248,1,180
400,192,121043,5,0
112,192,121372,1,4
256,32,121702,5,0
256,32,121867,2,0,B|352:96|432:72,1,180
392,160,122361,1,0
304,152,122526,1,0
224,104,122691,2,0,B|128:72|32:144,1,180
32,216,123186,1,0
64,296,123350,1,0
128,360,123515,2,0,B|184:352|216:336,1,90
216,248,123845,2,0,B|272:264|304:304,1,90
368,336,124175,6,0,B|400:240|360:136,1,180
280,160,124669,1,0
280,72,124834,1,0
192,48,124999,1,0
104,72,125163,1,0
104,160,125329,1,0
104,248,125493,6,0,B|200:280|304:240,1,180
280,160,125988,1,0
280,72,126153,2,0,B|400:72,2,90
192,96,126647,1,0
112,56,126812,2,0,B|40:136|64:232,1,180,4|0
80,312,127307,2,0,B|168:368|272:344,1,180
344,336,127801,1,0
408,272,127966,5,0
464,160,128130,1,0
488,32,128295,1,0
368,80,128460,1,0
320,192,128625,5,0
320,192,128707,1,0
320,192,128790,2,0,B|232:240|120:216,1,180
56,200,129285,2,0,B|72:96|168:48,1,180,4|0
240,88,129779,5,0
352,136,129944,1,0
416,24,130109,1,0
352,136,130274,1,0
472,184,130438,1,0
352,136,130603,2,0,B|432:200|400:320,1,180,4|0
328,248,131098,2,0,B|248:208|128:240,1,180
152,320,131592,1,0
72,272,131757,1,0
72,184,131922,1,0
152,144,132086,6,0,B|232:176|304:136,1,134.999995976687,4|0
256,80,132580,1,0
288,16,132745,2,0,B|368:24|424:72,1,134.999995976687
448,120,133240,2,0,B|472:192|448:264,2,134.999995976687
384,120,134064,2,0,B|384:168|344:200,1,67.4999979883433
320,232,134393,5,0
264,264,134558,1,0
200,288,134723,2,0,B|144:232|72:232,1,134.999995976687,4|0
80,168,135218,1,0
80,104,135382,2,0,B|152:72|240:104,1,134.999995976687
264,136,135877,2,0,B|344:160|416:136,1,134.999995976687
400,280,136536,5,0
336,280,136701,1,0
296,224,136867,1,0
256,280,137031,1,0
192,280,137196,1,0
136,320,137360,2,0,B|88:264|96:192,1,134.999995976687,4|0
40,160,137855,2,0,B|64:88|152:72,1,134.999995976687
168,136,138349,1,0
168,136,138514,1,0
200,80,138679,2,0,B|272:64|344:88,1,134.999995976687,4|0
304,144,139174,2,0,B|376:160|464:120,1,134.999995976687
488,88,139668,1,0
496,152,139833,1,0
440,192,139998,5,4
440,192,140163,1,0
256,304,140492,1,0
256,304,140657,1,0
256,304,140823,1,0
88,192,141152,1,0
256,80,141481,5,0
256,80,141646,1,0
256,80,141811,1,0
256,80,141976,1,0
256,80,142141,1,4
80,320,142471,6,0,B|24:240|32:136,1,180,4|0
112,192,142966,2,0,B|216:224|296:160,1,180
224,104,143460,1,0
288,40,143625,1,0
352,104,143790,2,0,B|440:168|432:288,1,180
344,256,144285,2,0,B|288:344|176:360,1,180
120,320,144779,1,0
48,216,144944,1,0
168,248,145109,1,0
48,216,145274,6,0,B|32:112|96:40,1,180
160,104,145768,1,0
232,48,145933,2,0,B|288:120|264:248,1,180
268,219,146427,1,0
128,328,146757,6,0,B|80:328|16:312,2,90
216,312,147252,1,0
240,312,147334,1,0
264,312,147416,1,0
288,312,147499,1,0
312,320,147581,1,0
336,328,147664,1,0
360,336,147746,1,0
384,344,147829,1,0
408,352,147911,6,0,B|464:272|440:168,1,180,4|0
424,96,148405,1,0
336,96,148570,1,0
336,184,148735,1,0
256,144,148900,1,0
256,56,149065,1,0
184,104,149230,6,4,B|152:152|88:128,1,90,4|0
328,280,149559,2,4,B|360:232|424:256,1,90,4|0
184,280,149889,2,4,B|128:269|111:218,1,90,4|0
328,104,150218,2,4,B|384:115|401:166,1,90,4|0
256,192,150548,6,0,B|160:184|96:104,1,180
64,192,151043,1,0
64,280,151208,2,0,B|64:376,2,90
152,280,151702,2,0,B|248:280|328:336,1,180,4|0
336,240,152197,2,0,B|360:144|456:96,1,180
472,192,152691,1,4
360,48,153020,6,0,B|240:8|176:96,1,180
272,120,153515,2,0,B|216:200|104:176,1,180
112,88,154009,1,0
24,176,154174,1,0
112,272,154339,2,0,B|192:336|288:320,1,180
368,312,154834,2,0,B|448:256|432:136,1,180
312,184,155328,5,0
248,72,155493,1,0
368,104,155658,2,0,B|264:144|176:136,1,180
88,64,156152,1,0
40,184,156318,1,0
152,248,156482,2,0,B|152:304|160:352,2,90
152,248,156977,1,0
256,192,157306,6,0,B|360:192,2,90,4|4|0
256,336,157801,2,0,B|192:320|176:264,1,90,4|0
256,48,158130,2,0,B|320:64|336:120,1,90
400,192,158460,5,4
400,192,158625,1,0
256,192,158955,1,0
256,192,159120,1,0
256,48,159449,1,0
256,48,159614,1,0
256,192,159944,5,0
256,192,160109,1,0
256,192,160274,1,0
256,192,160438,1,0
256,192,160768,1,4
256,192,161098,6,0,B|168:160|72:192,1,180
24,304,161592,1,0
136,360,161757,1,0
136,360,161839,1,0
136,360,161922,1,0
248,304,162087,1,0
424,328,162416,6,0,B|464:240,1,90,4|0
424,56,162746,2,0,B|464:144,1,90,4|0
392,192,163076,1,4
368,192,163158,1,0
344,192,163241,1,0
320,192,163323,1,0
296,192,163405,1,4
272,192,163488,1,0
248,192,163570,1,0
224,192,163652,1,0
200,192,163735,6,0,B|88:192,2,90,4|0|0
152,112,164229,2,0,B|40:112,2,90
152,272,164724,2,0,B|40:272,2,90
200,192,165218,2,0,B|320:192,2,90
152,72,165713,1,0
104,192,165878,1,0
152,312,166043,1,0
312,192,166372,6,0,B|424:192,2,90
360,272,166866,2,0,B|472:272,2,90
360,112,167361,2,0,B|472:112,2,90
312,192,167855,2,0,B|192:192,2,90
360,312,168350,1,0
408,192,168515,1,0
360,72,168680,1,0
256,192,169010,12,4,170988
256,192,174284,5,0
256,192,174449,1,0
300,336,174944,2,0,B|196:336,1,90
212,48,175603,2,0,B|316:48,1,90
432,192,176262,1,0
432,192,176427,1,0
296,312,176757,6,0,B|216:368|96:320,1,180,4|0
56,272,177251,1,0
112,200,177416,1,0
72,120,177581,2,0,B|72:32,2,90
72,120,178075,1,0
160,120,178240,6,0,B|272:120,2,90,0|0|0
216,192,178735,1,0
160,264,178900,2,0,B|256:264,2,90
216,192,179394,1,0
304,192,179559,1,4
304,192,179724,1,4
304,192,179889,1,4
408,232,180218,6,0,B|408:144,1,90
96,152,180878,2,0,B|96:240,1,90
256,344,181537,1,0
256,344,181702,1,0
424,280,182032,6,0,B|464:192|416:88,1,180,4|0
344,144,182526,1,0
264,104,182691,1,0
200,168,182856,2,0,B|120:120,1,90
112,208,183185,2,0,B|48:288,1,90
184,256,183515,5,0
208,264,183597,1,0
232,272,183680,1,0
256,280,183762,1,0
280,288,183845,1,0
304,296,183927,1,0
328,304,184010,1,0
352,312,184092,1,0
376,320,184174,2,0,B|440:344,6,45
424,240,184834,6,0,B|464:208|472:144,2,90
344,80,185493,2,0,B|296:56|272:16,1,90
368,168,185823,2,0,B|320:160|272:200,1,90
112,240,186317,1,0
176,176,186482,1,0
112,112,186647,1,0
176,48,186812,2,0,B|136:8|72:32,2,90
256,80,187306,6,0,B|344:120|464:88,1,180,4|0
392,176,187801,1,0
392,176,187966,1,0
400,264,188130,2,0,B|296:336,1,90
264,248,188460,2,0,B|160:256,1,90
104,192,188790,5,0
256,96,189119,1,0
408,192,189449,1,0
256,296,189779,1,0
104,192,190108,6,0,B|104:288,4,90,0|0|0|0|4
408,192,191097,2,0,B|408:80,4,90,0|0|0|0|4
256,104,192086,5,0
168,192,192251,1,0
256,280,192416,1,0
344,192,192581,1,0
256,104,192746,5,0
256,280,192911,1,0
424,336,193240,5,0
380,194,193405,1,0
336,336,193570,1,0
452,250,193735,1,0
308,250,193900,1,4
96,192,194229,5,0
96,192,194394,1,0
96,192,194559,1,0
96,192,194724,1,0
96,192,194889,1,4
216,312,195219,6,0,B|296:368|400:360,1,180
328,288,195714,2,0,B|440:304|512:256,1,180
440,160,196208,1,0
328,216,196373,1,0
384,112,196538,2,0,B|320:48|184:56,1,180
232,144,197033,2,0,B|176:232|64:248,1,180
16,144,197527,5,0
80,32,197692,1,0
152,136,197857,1,0
90,244,198022,2,0,B|194:260|264:336,1,180
336,344,198516,1,0
424,352,198681,2,0,B|480:280|456:152,1,180
460,180,199174,1,0
312,80,199505,6,0,B|360:80|424:64,2,90
240,32,200000,1,0
216,40,200082,1,0
200,56,200164,1,0
184,80,200247,1,0
176,104,200329,1,0
176,128,200412,1,0
184,152,200494,1,0
200,176,200575,1,0
224,192,200659,6,0,B|240:304|176:360,1,180,4|0
64,312,201153,1,0
64,184,201318,1,0
64,184,201483,1,0
168,248,201648,1,0
168,248,201813,1,0
168,248,201977,6,4,B|168:344,1,90,4|0
344,136,202306,2,4,B|344:40,1,90,4|0
344,248,202636,2,4,B|440:248,1,90,4|0
168,144,202966,2,4,B|64:144,1,90,4|0
256,192,203296,6,0,B|352:184|416:104,1,180
456,192,203791,1,0
456,280,203956,2,0,B|456:376,2,90
368,280,204450,2,0,B|272:280|192:336,1,180,4|0
112,344,204945,2,0,B|32:288|24:176,1,180
25,192,205438,1,4
144,56,205768,6,0,B|264:16|328:104,1,180
232,128,206263,2,0,B|288:208|400:184,1,180
392,96,206757,1,0
480,184,206922,1,0
392,280,207087,2,0,B|312:344|216:328,1,180
136,320,207582,2,0,B|56:264|72:144,1,180
184,192,208076,5,0
104,104,208241,1,0
224,136,208406,2,0,B|328:176|416:168,1,180
400,80,208900,1,0
496,168,209064,1,0
400,264,209230,2,0,B|392:320|400:368,2,90
400,264,209725,1,0
256,192,210053,5,4
256,192,210219,1,4
440,192,210549,1,4
72,192,210879,1,0
256,336,211208,5,4
256,336,211373,1,0
256,48,211703,1,0
256,48,211868,1,0
72,192,212197,1,0
72,192,212362,1,0
440,192,212692,5,0
440,192,212857,1,0
440,192,213022,1,0
440,192,213186,1,0
256,192,213516,1,4
72,192,213846,6,0,B|48:288|120:368,1,180
192,320,214340,1,0
256,256,214505,1,0
256,232,214587,1,0
256,208,214670,1,0
256,184,214751,1,0
256,160,214834,2,0,B|256:32,1,90
336,192,215164,6,0,B|448:192,1,90,4|0
176,192,215493,2,0,B|80:192,1,90,4|0
256,256,215823,2,0,B|256:312,8,45,4|0|0|0|4|0|0|0|4
256,192,216647,12,4,218955
