osu file format v9

[General]
AudioFilename: Devils Devel Concept OP - _The Divinity_ by Barbarian on the Groove feat_ Kahiena.mp3
AudioLeadIn: 0
PreviewTime: 48011
Countdown: 0
SampleSet: Normal
StackLeniency: 0.7
Mode: 0
LetterboxInBreaks: 1

[Editor]
DistanceSpacing: 0.8
BeatDivisor: 4
GridSize: 8

[Metadata]
Title:The Divinity
Artist:Barbarian On The Groove feat.Kahina
Creator:PSPDS Eddie
Version:Hard
Source:Devils Devel Concept
Tags:

[Difficulty]
HPDrainRate:5
CircleSize:4
OverallDifficulty:5
ApproachRate:7
SliderMultiplier:1.4
SliderTickRate:1

[Events]
//Background and Video events
0,0,"BG.png"
//Break Periods
2,37341,44153
2,103275,107449
2,171188,173384
//Storyboard Layer 0 (Background)
//Storyboard Layer 1 (Fail)
//Storyboard Layer 2 (Pass)
//Storyboard Layer 3 (Foreground)
//Storyboard Sound Samples
//Background Colour Transformations
3,100,163,162,255

[TimingPoints]
5493.55469296239,329.67032967033,4,1,0,60,1,0
25263,-100,4,1,2,60,0,0
26252,-100,4,1,0,60,0,0
35734,-100,4,1,2,60,0,0
36229,-100,4,1,0,60,0,0
37059,-100,4,1,2,60,0,0
37224,-100,4,1,0,60,0,0
68701,-133.333333333333,4,1,0,60,0,0
79004,-100,4,1,0,60,0,0
79174,-100,4,1,0,60,0,1
79257,-100,4,1,0,60,0,0
85850,-100,4,1,2,60,0,0
87169,-100,4,1,0,60,0,0
89724,-100,4,1,0,60,0,1
89806,-100,4,1,0,60,0,0
93845,-100,4,1,2,60,0,0
94669,-100,4,1,0,60,0,0
97306,-100,4,1,2,60,0,0
97636,-100,4,1,2,60,0,0
108021,-100,4,1,0,60,0,0
132004,-133.333333333333,4,1,0,60,0,0
142224,-100,4,1,0,60,0,0
142471,-100,4,1,0,60,0,1
142553,-100,4,1,0,60,0,0
149147,-100,4,1,2,60,0,0
150466,-100,4,1,0,60,0,0
153021,-100,4,1,0,60,0,1
153103,-100,4,1,0,60,0,0
157141,-100,4,1,2,60,0,0
157966,-100,4,1,0,60,0,0
160603,-100,4,1,2,60,0,0
160933,-100,4,1,0,60,0,0
162251,-100,4,1,2,60,0,0
163735,-100,4,1,2,60,0,1
163817,-100,4,1,2,60,0,0
164147,-100,4,1,0,60,0,0
174779,-200,4,1,0,30,0,0
176097,-100,4,1,0,60,0,0
180053,-200,4,1,0,30,0,0
181372,-100,4,1,0,60,0,0
195218,-100,4,1,0,60,0,1
195301,-100,4,1,0,60,0,0
201894,-100,4,1,2,60,0,0
203213,-100,4,1,0,60,0,0
205768,-100,4,1,0,60,0,1
205850,-100,4,1,0,60,0,0
209889,-100,4,1,2,60,0,0
210713,-100,4,1,0,60,0,0
213350,-100,4,1,2,60,0,0
213680,-100,4,1,0,60,0,0
214999,-100,4,1,2,60,0,0
218955,-100,4,1,2,60,0,1
219037,-100,4,1,2,60,0,0

[Colours]
Combo1 : 255,150,0
Combo2 : 5,240,5
Combo3 : 5,5,240
Combo4 : 192,192,192

[HitObjects]
256,64,5493,1,0
256,64,5658,1,0
256,192,5988,2,0,B|168:192,1,70
256,64,6482,5,0
256,64,6647,1,0
256,192,6977,2,0,B|336:192,1,70
256,320,7471,1,0
256,320,7636,1,0
256,320,7801,1,4
128,320,8130,5,0
128,320,8295,1,0
128,192,8625,2,0,B|128:120,1,70
256,192,9119,5,0
256,192,9284,1,0
384,192,9614,6,0,B|384:112,2,70
400,256,10108,1,0
376,312,10273,1,0
320,336,10438,1,4
296,336,10521,1,0
272,336,10603,1,0
248,336,10685,1,0
224,336,10768,6,0,B|128:336,2,70,4|0|0
192,280,11262,1,0
256,280,11427,1,0
352,192,11757,6,0,B|272:192,2,70
384,136,12251,1,0
320,136,12416,1,0
192,136,12746,2,0,B|168:176|208:224,2,70,0|0|4
256,320,13405,6,0,B|336:320,2,70
192,328,13900,1,0
128,320,14064,1,0
128,192,14394,6,0,B|128:112,2,70
192,200,14889,1,0
248,224,15053,1,0
280,280,15218,1,0
312,336,15383,2,0,B|400:336,1,70,4|0
376,272,15713,2,0,B|440:224,1,70,4|0
480,192,16043,6,0,B|464:112|368:80,1,140
360,136,16537,1,0
360,192,16702,2,0,B|304:184|296:136,2,70
256,256,17361,5,0
216,304,17526,1,0
152,320,17691,1,0
88,304,17856,1,0
40,256,18021,2,0,B|8:216|16:160,2,70
152,192,18680,6,0,B|168:104|248:88,1,140
240,144,19174,1,0
240,200,19339,2,0,B|296:208|312:144,2,70
448,192,19999,5,0
440,256,20163,1,0
400,304,20328,1,0
344,336,20493,1,0
280,344,20658,2,0,B|232:352|184:352,1,70
152,344,20988,2,0,B|104:328|72:296,1,70
56,264,21317,6,0,B|16:192|64:112,1,140
88,88,21812,1,0
144,96,21977,2,0,B|176:56|208:48,2,70
256,256,22636,5,0
200,224,22801,1,0
200,160,22966,1,0
256,128,23130,1,0
256,192,23295,2,0,B|336:192,2,70
256,360,23955,6,0,B|344:360,2,70
256,360,24449,1,0
256,296,24614,2,0,B|168:296,2,70
256,296,25108,1,0
160,192,25438,5,4
160,192,25603,1,4
352,192,25933,1,4
352,192,26097,1,4
160,192,26592,6,0,B|232:192,2,70
160,128,27086,2,0,B|160:56,2,70
96,128,27581,2,0,B|24:128,2,70
96,192,28075,2,0,B|96:272,2,70
160,192,28570,1,0
256,280,28900,1,4
344,192,29229,6,0,B|272:192,2,70
344,256,29723,2,0,B|344:336,2,70
408,256,30218,2,0,B|480:256,2,70
408,192,30712,2,0,B|408:104,2,70
344,192,31207,1,0
256,96,31537,1,4
168,192,31867,6,0,B|168:112,2,70
104,192,32361,2,0,B|32:192,2,70
104,256,32856,2,0,B|104:344,2,70
168,256,33350,2,0,B|168:344,2,70
168,192,33845,1,0
256,288,34174,1,4
344,192,34504,6,0,B|416:192,2,70
344,128,34999,2,0,B|424:128,2,70
288,160,35493,1,0
224,160,35658,1,0
256,216,35823,6,4,B|256:288,2,70,0|4|4
128,192,36482,1,4
384,192,36812,1,4
256,80,37141,1,4
160,120,45053,5,0
352,120,45383,1,4
256,272,45713,1,0
256,144,46043,1,4
256,272,46372,6,0,B|176:296|96:264,1,140
120,216,46867,2,0,B|192:192|264:216,2,140,0|0|4
256,104,48021,5,0
192,88,48185,1,0
240,40,48350,2,0,B|320:16|400:72,1,140
424,88,48845,2,0,B|464:160|448:232,1,140
416,272,49339,2,0,B|376:296|328:288,1,70
336,232,49669,2,0,B|296:216|248:216,1,70
232,264,49999,2,0,B|184:264|144:224,1,70
136,192,50328,6,0,B|184:120|288:136,1,140
304,232,50988,2,0,B|264:296|176:288,1,140
136,192,51647,2,0,B|136:112,2,70
136,304,52306,5,0
176,344,52471,1,0
232,360,52636,1,0
288,360,52801,1,4
344,352,52966,6,0,B|400:296|392:208,1,140
376,112,53625,2,0,B|328:112|288:88,1,70
264,128,53955,2,0,B|232:152|184:136,1,70
184,88,54284,1,0
128,72,54449,1,0
72,88,54614,1,0
40,136,54779,5,0
40,136,54944,2,0,B|16:216|64:288,1,140
88,320,55438,2,0,B|160:296|248:320,1,140
226,314,55933,1,0
376,240,56262,5,0
416,192,56427,1,0
376,144,56592,1,0
336,192,56757,2,0,B|280:248|184:240,1,140
152,240,57251,2,0,B|144:144|216:96,1,140
256,80,57746,5,0
256,304,58075,1,4
256,80,58405,5,0
256,80,58570,2,0,B|320:136|408:128,1,140
432,160,59064,1,0
456,208,59229,1,0
328,320,59559,6,0,B|416:320,2,70
272,320,60053,1,0
216,304,60218,2,0,B|208:256|176:224,1,70
136,232,60548,2,0,B|136:176|152:144,1,70
159,108,60878,6,0,B|247:76|319:124,1,140
224,200,61537,2,0,B|312:240|368:192,1,140
295,109,62196,2,0,B|223:69|134:120,1,140
176,216,62856,6,0,B|216:256|256:240,2,70
144,168,63350,1,0
112,120,63515,2,0,B|48:176|72:272,1,140,4|0
88,296,64010,2,0,B|128:360|232:360,1,140
264,352,64504,1,0
320,336,64669,1,0
368,304,64834,2,0,B|408:280|424:232,2,70
320,272,65328,5,0
320,272,65493,2,0,B|248:288|176:256,1,140
136,224,65988,2,0,B|64:192|64:80,1,140,4|0
65,111,66482,1,0
256,72,66812,5,0
328,112,66977,1,0
336,32,67141,1,0
328,112,67306,2,0,B|408:152|424:240,1,140
424,272,67801,2,0,B|368:336|272:328,1,140
248,328,68295,1,0
192,312,68460,1,0
72,168,68790,6,0,B|144:192|192:160,1,104.999996870756,4|0
208,144,69284,1,0
240,112,69449,2,0,B|304:96|360:136,1,104.999996870756
376,144,69944,2,0,B|408:200|384:264,1,104.999996870756
360,328,70603,1,0
360,328,70768,1,0
280,328,71097,5,0
280,328,71262,1,0
280,328,71427,2,0,B|248:272|176:272,1,104.999996870756,4|0
112,272,72086,2,0,B|80:208|120:160,1,104.999996870756
152,176,72581,2,0,B|208:208|264:168,1,104.999996870756
312,120,73240,1,0
312,120,73405,1,0
376,192,73735,5,0
392,240,73900,1,0
384,288,74064,2,0,B|336:328|272:336,1,104.999996870756,4|0
288,248,74724,2,0,B|288:184,2,52.4999984353781
160,248,75383,6,0,B|112:216|112:144,1,104.999996870756,4|0
152,136,75878,2,0,B|216:128|248:80,1,104.999996870756
256,48,76372,1,0
424,192,76702,6,0,B|368:192,1,52.4999984353781,4|0
256,304,77196,2,0,B|256:248,1,52.4999984353781
88,192,77691,2,0,B|160:192,1,52.4999984353781
256,80,78185,2,0,B|256:136,3,52.4999984353781
256,192,78845,1,4
368,80,79174,6,0,B|448:120|448:216,1,140,4|0
448,248,79669,2,0,B|424:320|328:344,1,140
296,352,80163,1,0
240,336,80328,1,0
240,224,80658,5,0
296,240,80823,1,0
344,216,80988,2,0,B|376:128|304:64,1,140
280,112,81482,5,0
224,104,81647,1,0
176,72,81812,1,0
120,64,81977,2,0,B|128:144|72:208,1,140
72,248,82471,1,0
88,304,82636,2,0,B|160:264|256:288,1,140
223,281,83130,1,0
352,192,83460,6,0,B|392:216|448:200,2,70
312,168,83955,2,0,B|272:128,3,35
256,120,84284,2,0,B|208:96,3,35
200,88,84614,6,0,B|128:112|112:200,1,140,4|0
112,248,85108,1,0
144,296,85273,2,0,B|232:320,1,70
240,264,85603,2,0,B|320:240,1,70
320,192,85933,6,0,B|416:192,1,70,4|0
192,192,86262,2,0,B|104:192,1,70,4|0
256,128,86592,2,0,B|256:56,1,70,4|0
256,256,86922,2,0,B|256:336,1,70,4|0
256,192,87251,6,0,B|312:272|400:264,1,140
424,264,87746,1,0
456,224,87911,2,0,B|472:184|464:136,2,70
456,224,88405,1,4
416,104,88735,1,0
416,104,88900,2,0,B|352:64|256:56,1,140
284,59,89394,1,4
120,80,89723,6,0,B|56:128|56:224,1,140,4|0
64,256,90218,2,0,B|144:248|208:296,1,140
248,312,90712,1,0
304,304,90877,1,0
328,192,91207,1,0
296,152,91372,1,0
352,144,91537,2,0,B|416:112,2,70
296,152,92031,5,0
248,128,92196,1,0
200,152,92361,2,0,B|224:240|144:304,1,140
112,280,92855,1,0
64,248,93021,1,0
64,192,93185,2,0,B|64:112,2,70
64,192,93680,1,0
256,192,94010,5,4
256,192,94174,1,4
256,192,94504,1,4
256,48,95163,6,0,B|256:128,1,70
440,192,95658,2,0,B|360:192,1,70
256,336,96152,2,0,B|256:256,1,70
72,192,96647,2,0,B|144:192,1,70
200,192,96977,2,0,B|296:192,1,70
384,192,97471,1,4
384,192,97801,6,0,B|424:120|376:48,1,140
270,58,98460,2,0,B|190:58,2,70
112,112,99119,6,0,B|40:160,1,70,4|0
56,232,99449,2,0,B|120:280,1,70,4|0
136,192,99779,2,0,B|176:192,4,35,4|0|0|0|4
256,192,100438,12,4,103075
352,120,108349,5,0
160,120,108679,1,4
256,272,109009,1,0
256,144,109339,1,4
256,192,109669,12,0,110988
480,256,111318,5,0
400,336,111647,2,0,B|320:368|240:352,1,140
208,344,112142,2,0,B|120:320|96:240,1,140
88,208,112636,1,0
104,152,112801,1,0
136,104,112966,2,0,B|176:144|216:152,1,70
216,96,113296,2,0,B|264:80|312:96,1,70
344,104,113625,5,0
400,264,113955,1,0
272,152,114284,1,0
328,312,114614,1,0
176,240,114944,2,0,B|96:256|16:240,2,140
224,208,115768,1,0
240,152,115933,1,0
200,112,116098,1,4
176,64,116263,6,0,B|240:16|328:32,1,140,4|0
360,40,116757,1,0
368,96,116922,2,0,B|432:144,2,70
312,192,117581,5,0
312,248,117746,1,0
296,304,117911,1,0
256,336,118076,1,0
256,336,118241,2,0,B|176:328|120:256,1,140
96,232,118735,2,0,B|80:152|168:96,1,140,4|0
200,104,119230,2,0,B|280:104,2,70
200,216,119889,5,0
200,216,120054,2,0,B|192:296|272:352,1,140
304,360,120548,2,0,B|392:352|440:280,1,140
384,264,121043,5,0
216,168,121372,1,4
224,56,121702,5,0
224,56,121867,2,0,B|280:112|376:104,1,140
392,136,122361,1,0
408,192,122526,1,0
384,240,122691,2,0,B|320:288|240:272,1,140
200,272,123185,2,0,B|152:272|104:248,1,70
96,216,123515,6,0,B|104:176|96:128,1,70
152,144,123845,2,0,B|208:152|224:184,1,70
208,224,124175,2,0,B|280:256|360:200,1,140
336,96,124834,2,0,B|280:32|200:56,1,140
128,128,125493,2,0,B|64:192|104:288,1,140
208,264,126153,6,0,B|208:344,2,70
208,208,126647,1,0
208,152,126812,2,0,B|288:144|352:200,1,140,4|0
368,240,127307,2,0,B|424:192|408:104,1,140
409,112,127801,1,0
312,56,128130,5,0
272,96,128295,1,0
312,136,128460,1,0
272,176,128625,1,0
304,224,128790,2,0,B|256:296|160:296,1,140
128,288,129285,2,0,B|72:224|104:136,1,140,4|0
97,157,129779,1,0
216,40,130109,5,0
256,80,130274,1,0
296,40,130438,1,0
256,80,130603,2,0,B|280:160|376:176,1,140
352,224,131098,2,0,B|272:224|216:288,1,140
184,312,131592,1,0
128,296,131757,1,0
104,248,131922,1,0
96,208,132086,6,0,B|160:184|168:128,1,104.999996870756,4|0
176,96,132580,1,0
184,56,132745,2,0,B|248:40|296:80,1,104.999996870756
280,112,133240,2,0,B|296:168|352:192,1,104.999996870756
432,192,133899,1,0
432,192,134064,1,0
376,304,134393,5,0
336,320,134558,1,0
296,328,134723,2,0,B|232:320|192:288,1,104.999996870756,4|0
128,248,135382,2,0,B|96:192|136:136,1,104.999996870756
152,112,135877,2,0,B|208:88|272:112,1,104.999996870756
256,192,136536,1,0
256,192,136701,1,0
256,280,137031,5,0
296,296,137196,1,0
336,312,137360,2,0,B|392:288|416:216,1,104.999996870756,4|0
408,200,137855,2,0,B|384:144|312:128,1,104.999996870756
331,133,138349,1,0
256,168,138679,6,0,B|200:192|136:160,1,104.999996870756,4|0
152,128,139174,2,0,B|88:112|40:144,1,104.999996870756
50,137,139668,1,0
64,224,139999,6,0,B|112:192,1,52.4999984353781,4|0
256,304,140493,2,0,B|256:232,2,52.4999984353781
448,224,141152,1,0
256,80,141482,2,0,B|256:152,3,52.4999984353781
256,176,142141,1,0
256,176,142471,6,0,B|176:152|152:72,1,140,4|0
104,64,142966,2,0,B|48:120|56:200,1,140
64,248,143460,1,0
112,272,143625,1,0
160,176,143955,5,0
216,160,144120,1,0
272,176,144285,2,0,B|304:264|232:328,1,140
192,288,144779,5,0
200,344,144944,1,0
256,360,145109,1,0
304,336,145274,2,0,B|360:272|344:200,1,140
392,168,145768,1,0
424,120,145933,2,0,B|360:88|280:96,1,140
287,95,146427,1,0
184,136,146757,6,0,B|144:112|88:128,2,70
192,192,147252,2,0,B|232:232,3,35
240,240,147581,2,0,B|280:272,3,35
288,280,147911,6,0,B|360:256|392:184,1,140,4|0
392,136,148405,1,0
368,88,148570,2,0,B|280:64,1,70
272,120,148900,2,0,B|192:144,1,70
192,192,149230,6,0,B|96:192,1,70,4|0
320,192,149559,2,0,B|408:192,1,70,4|0
256,256,149889,2,0,B|256:328,1,70,4|0
256,128,150219,2,0,B|256:48,1,70,4|0
256,192,150548,6,0,B|200:112|112:120,1,140
88,120,151043,1,0
56,160,151208,2,0,B|40:200|48:248,2,70
56,160,151702,1,4
96,280,152032,1,0
96,280,152197,2,0,B|160:320|256:328,1,140
228,325,152691,1,4
392,304,153021,6,0,B|456:256|456:160,1,140
448,128,153516,2,0,B|368:136|304:88,1,140
264,72,154010,1,0
208,80,154175,1,0
184,192,154505,1,0
216,232,154670,1,0
160,240,154835,2,0,B|96:272,2,70
216,232,155329,5,0
264,256,155494,1,0
312,232,155659,2,0,B|288:144|368:80,1,140
400,104,156153,1,0
448,136,156317,1,0
448,192,156483,2,0,B|448:272,2,70
448,192,156978,1,0
256,192,157306,5,4
256,192,157472,1,4
256,192,157802,1,4
256,336,158461,6,0,B|256:256,1,70
72,192,158956,2,0,B|152:192,1,70
256,48,159450,2,0,B|256:128,1,70
440,192,159945,2,0,B|368:192,1,70
312,192,160273,2,0,B|216:192,1,70
128,192,160768,1,4
128,192,161098,6,0,B|88:264|136:336,1,140
242,326,161757,2,0,B|322:326,2,70
400,272,162416,6,0,B|472:224,1,70,4|0
456,152,162746,2,0,B|392:104,1,70,4|0
384,192,163076,2,0,B|344:192,3,35,4|0|0|0
320,192,163405,2,0,B|264:192,3,35,4|0|0|0
256,192,163735,6,0,B|184:192,2,70
256,256,164229,2,0,B|256:328,2,70
320,256,164724,2,0,B|392:256,2,70
320,192,165218,2,0,B|320:112,2,70
256,192,165713,1,0
256,80,166043,1,4
256,192,166372,6,0,B|256:280,2,70
200,192,166866,2,0,B|104:192,2,70
200,136,167361,2,0,B|200:48,2,70
256,136,167855,2,0,B|344:136,2,70
256,192,168350,1,0
256,192,168680,1,4
256,192,169010,12,4,170988
256,192,174284,5,0
256,192,174449,1,0
256,280,174944,2,0,B|180:280,1,70
256,104,175603,2,0,B|332:104,1,70
256,192,176262,5,0
256,192,176427,1,0
144,192,176757,2,0,B|88:248|16:240,1,140
17,240,177251,1,0
16,136,177581,2,0,B|16:64,2,70
128,136,178240,6,0,B|216:136,2,70
128,192,178735,1,0
128,248,178900,2,0,B|208:248,2,70
256,192,179559,5,4
256,192,179724,1,4
256,192,179889,1,4
256,192,180218,6,0,B|256:272,1,70
256,192,180878,2,0,B|256:112,1,70
256,328,181537,5,0
256,328,181702,1,0
368,328,182032,2,0,B|416:264|400:192,1,140
400,196,182526,1,0
296,152,182856,6,0,B|232:104,1,70
208,160,183185,2,0,B|136:160,1,70
80,160,183515,2,0,B|80:120,6,35
80,216,184174,2,0,B|96:288|192:320,1,140
288,328,184834,1,4
336,264,184999,1,0
384,328,185163,1,0
440,232,185493,6,0,B|408:160|328:144,1,140
175,145,186152,2,0,B|104:160|72:232,1,140
256,264,186812,1,0
256,264,186977,1,0
256,80,187306,6,0,B|320:128|392:112,1,140
387,112,187801,1,0
360,224,188130,2,0,B|280:272,1,70
280,208,188460,2,0,B|200:232,1,70
168,192,188790,5,0
256,120,189119,1,0
344,192,189449,1,0
256,264,189779,1,0
168,192,190108,6,0,B|168:272,4,70,0|0|0|0|4
344,192,191097,2,0,B|344:96,4,70,0|0|0|0|4
256,120,192086,6,0,B|256:40,4,70
256,176,192911,1,0
104,192,193240,2,0,B|184:192,1,70
408,192,193735,2,0,B|328:192,1,70
256,50,194229,6,0,B|256:120,3,70
256,176,194889,1,0
160,232,195218,6,0,B|248:248|296:312,1,140,4|0
336,320,195713,2,0,B|376:248|448:232,1,140
480,192,196207,1,0
440,152,196372,1,0
336,192,196702,1,0
288,224,196867,1,0
240,192,197032,1,0
312,96,197361,5,0
288,48,197526,1,0
240,24,197691,1,0
184,24,197856,1,0
128,40,198021,2,0,B|72:104|88:176,1,140
120,216,198515,1,0
88,264,198680,2,0,B|152:296|232:288,1,140
225,289,199174,1,0
336,288,199504,6,0,B|376:312|432:296,2,70
336,232,199999,2,0,B|336:184,3,35
336,168,200328,2,0,B|336:112,3,35
336,104,200658,6,0,B|264:128|192:104,1,140,4|0
136,200,201317,2,0,B|224:224,1,70
240,264,201647,2,0,B|320:240,1,70
320,192,201977,6,0,B|416:192,1,70,4|0
256,128,202306,2,0,B|256:48,1,70,4|0
120,192,202636,2,0,B|200:192,1,70,4|0
256,328,202966,2,0,B|256:240,1,70,4|0
256,192,203295,6,0,B|312:272|400:264,1,140
424,264,203790,1,0
456,224,203955,2,0,B|472:184|464:136,2,70
456,224,204449,1,4
416,104,204779,1,0
416,104,204944,2,0,B|352:64|256:56,1,140
284,59,205438,1,4
120,80,205768,6,0,B|56:128|56:224,1,140
64,256,206263,2,0,B|144:248|208:296,1,140
248,312,206757,1,0
304,304,206922,1,0
328,192,207252,1,0
301,142,207417,1,0
357,142,207581,1,0
256,88,207911,5,0
208,120,208076,1,0
152,128,208241,1,0
96,112,208406,2,0,B|120:200|40:264,1,140
104,280,208900,1,0
152,304,209064,1,0
208,296,209230,2,0,B|208:216,2,70
208,296,209725,1,0
256,192,210053,5,4
256,192,210219,1,4
256,192,210549,1,4
256,48,211208,6,0,B|256:128,1,70
440,192,211703,2,0,B|360:192,1,70
256,336,212197,2,0,B|256:256,1,70
72,192,212692,2,0,B|144:192,1,70
200,192,213022,2,0,B|296:192,1,70
384,192,213515,1,4
384,192,213845,6,0,B|424:120|376:48,1,140
270,58,214504,2,0,B|190:58,2,70
112,112,215163,6,0,B|136:192,1,70,4|0
144,232,215493,2,0,B|216:272,1,70,4|0
256,296,215823,2,0,B|296:296,8,35,4|0|0|0|4|0|0|0|4
256,192,216564,12,4,218955
