osu file format v9

[General]
AudioFilename: Everywhere With You.mp3
AudioLeadIn: 2000
PreviewTime: 47018
Countdown: 0
SampleSet: Soft
StackLeniency: 0.5
Mode: 0
LetterboxInBreaks: 0

[Editor]
DistanceSpacing: 0.5
BeatDivisor: 4
GridSize: 4

[Metadata]
Title:Everywhere With You
Artist:Barbarian On The Groove feat. Shimotsuki Haruka
Creator:R a r e
Version:Insane
Source:W.L.O Sekai Renai Kikou
Tags:akabei soft2 xbox 360 Kusaka Aina bassy World Love Organization Takos

[Difficulty]
HPDrainRate:6
CircleSize:4
OverallDifficulty:8
ApproachRate:8
SliderMultiplier:1.7
SliderTickRate:1

[Events]
//Background and Video events
0,0,"aina.jpg"
//Break Periods
//Storyboard Layer 0 (Background)
//Storyboard Layer 1 (Fail)
//Storyboard Layer 2 (Pass)
//Storyboard Layer 3 (Foreground)
//Storyboard Sound Samples
//Background Colour Transformations
3,100,163,162,255

[TimingPoints]
310,344.827586206897,4,2,0,55,1,0
11344,-100,4,2,1,60,0,0
26861,-100,4,2,1,40,0,0
27206,-100,4,2,1,50,0,0
27551,-100,4,2,1,55,0,0
27896,-100,4,2,1,60,0,0
32896,-100,4,2,1,50,0,0
33068,-100,4,2,1,60,0,0
47206,-100,4,2,1,70,0,1
78068,-100,4,1,1,50,0,1
78585,-100,4,1,1,70,0,1
79275,-100,4,2,1,70,0,1
80310,-100,4,2,1,55,0,0
93930,-100,4,2,1,10,0,0
94388,344.827586206897,4,1,1,25,1,0
94732,344.827586206897,4,1,1,25,1,0
94990,-100,4,1,1,30,0,0
96500,344.827586206897,4,1,1,50,1,0
100637,-100,4,2,1,5,0,0

[Colours]
Combo1 : 255,128,64
Combo2 : 255,255,128
Combo3 : 255,128,255

[HitObjects]
124,80,137,1,2
124,80,223,1,0
124,80,310,2,0,B|148:116|148:164,1,85,4|0
64,332,654,2,0,B|40:296|40:248,1,85,8|0
68,172,999,1,0
124,236,1172,1,0
204,216,1344,1,8
236,136,1516,6,0,B|281:152|309:192,1,85
340,360,1861,2,0,B|320:316|328:268,1,85,0|8
388,216,2206,2,0,B|432:188|444:136|432:80|392:56,1,170
328,36,2723,2,0,B|244:52,1,85,8|0
32,168,3068,6,0,B|200:128,2,170,0|8|0
12,252,3930,1,0
116,148,4103,2,0,B|95:102|58:87,1,85,8|0
88,224,4447,2,0,B|116:320|224:308,1,170,0|8
292,268,4965,1,0
407,143,5137,2,0,B|368:166|348:204,1,85,0|0
396,348,5482,2,0,B|418:309|417:266,1,85,8|0
280,72,5827,6,0,B|257:110|258:153,1,85
128,340,6172,2,0,B|184:271|171:169,1,170,8|0
152,96,6689,1,0
96,32,6861,1,8
240,112,7034,6,0,B|280:120|328:96,1,85
480,52,7378,2,0,B|440:44|392:68,1,85,0|8
271,167,7723,2,0,B|309:154|339:110,1,85
448,0,8068,2,0,B|410:9|380:53,1,85,0|8
412,132,8413,1,0
392,216,8585,6,0,B|380:308,1,85
308,348,8930,2,0,B|290:370|232:370|184:348|166:299,1,170,8|0
132,224,9447,1,0
284,188,9620,2,0,B|280:235|248:273,1,85,8|0
200,140,9965,6,0,B|204:111|253:82|306:78|347:111,1,170,0|8
320,192,10482,1,0
273,120,10654,2,0,B|240:88|240:40,1,85,0|0
416,184,10999,2,0,B|416:229|382:263,1,85,8|0
252,360,11344,6,0,B|222:357|191:310|184:257|213:216,1,170,4|8
268,152,11861,1,0
343,304,12034,2,0,B|308:274|300:232,1,85,0|0
268,152,12378,1,8
320,84,12551,2,0,B|323:54|370:23|423:16|464:45,1,170,0|0
440,180,13068,2,0,B|407:147|402:105,1,85,8|0
364,212,13413,2,0,B|388:240|400:292|364:344|323:355,1,170,0|8
288,268,13930,1,0
212,324,14103,2,0,B|188:296|176:244|212:192|253:181,1,170,0|8
316,124,14620,5,0
148,176,14792,2,0,B|64:192,1,85
8,128,15137,1,8
228,192,15310,2,0,B|400:156,1,170
468,116,15827,2,0,B|444:76|400:72,1,85,8|0
404,248,16172,2,0,B|415:202|387:168,1,85
264,296,16516,2,0,B|303:272|308:227,1,85,8|0
44,256,16861,6,0,B|140:272|204:220,1,170,0|8
440,36,17551,2,0,B|344:20|280:72,1,170,0|8
304,152,18068,2,0,B|340:232|300:324,1,170
173,318,18585,2,0,B|214:305|236:264,1,85,8|0
232,184,18930,1,0
116,84,19103,1,0
148,164,19275,6,0,B|156:212|148:248,1,85,8|0
8,340,19620,2,0,B|0:292|8:256,1,85,2|0
60,108,19965,1,8
99,183,20137,1,0
184,176,20310,2,0,B|176:87|176:6,1,170,2|8
288,232,20827,2,0,B|296:276|296:320,2,85,2|0|0
252,128,21344,2,0,B|244:84|244:40,1,85,10|0
328,156,21689,5,2
376,28,21861,1,0
480,232,22034,1,8
408,116,22206,1,2
404,160,22292,1,0
396,200,22378,6,0,B|408:244|400:288,1,85,4|0
224,352,22723,2,0,B|212:308|220:264,1,85,8|0
192,188,23068,2,0,B|224:96|184:20,1,170,0|8
136,260,23585,2,0,B|128:304|140:348,1,85
220,368,23930,1,0
256,292,24103,1,8
336,264,24275,1,0
416,288,24447,2,0,B|468:224|444:120,1,170,0|8
376,72,24965,1,0
236,136,25137,1,0
236,136,25482,6,0,B|152:132|64:88,2,170,8|0|8
292,200,26344,1,0
368,236,26516,2,0,B|412:236|452:260,1,85,0|0
300,280,26861,6,0,B|256:280|216:256,1,85,10|0
368,180,27206,2,0,B|412:180|452:204,1,85,2|0
292,336,27551,2,0,B|248:336|208:312,1,85,10|0
376,124,27896,2,0,B|420:124|460:148,1,85,2|0
432,228,28241,5,8
348,248,28413,1,0
276,204,28585,2,0,B|228:124|124:144,1,170,2|8
44,164,29103,1,2
60,328,29275,2,0,B|56:284|68:244,1,85
128,184,29620,2,0,B|144:140|140:92,1,85,8|0
208,52,29965,2,0,B|240:84|284:92,1,85
464,92,30310,2,0,B|432:60|388:52,1,85,8|0
352,128,30654,6,0,B|356:212,1,85
148,296,30999,2,0,B|144:212,1,85,8|0
240,68,31344,2,0,B|244:152,1,85
36,236,31689,2,0,B|32:152,1,85,8|0
31,151,32206,5,0
112,184,32378,2,0,B|124:228|124:272,1,85,8|0
84,344,32723,2,0,B|40:360|-4:356,1,85,0|8
172,120,33068,2,0,B|216:104|260:108,1,85,8|0
300,180,33413,6,0,B|388:216|468:164,1,170,4|2
376,64,33930,1,0
232,228,34103,1,8
232,228,34275,2,0,B|224:272|232:312,1,85,2|0
192,156,34620,6,0,B|184:100|112:64|48:88,1,170,4|0
20,240,35137,2,0,B|44:200|48:160,1,85
164,48,35482,2,0,B|140:88|136:128,1,85,8|0
180,200,35827,2,0,B|208:236|252:240,1,85,0|2
292,256,36085,1,0
336,256,36172,6,0,B|396:172|336:88,1,170,4|0
272,48,36689,1,8
180,160,36861,2,0,B|225:168|263:149,1,85,2|2
344,124,37206,1,8
392,53,37378,6,0,B|472:100|452:200,1,170,4|0
384,244,37896,1,0
324,304,38068,1,0
404,320,38241,5,8
244,328,38413,1,0
308,384,38585,1,8
264,248,38758,1,8
324,188,38930,6,0,B|344:148|340:100,1,85,4|2
300,32,39275,1,2
288,272,39447,2,0,B|332:280|372:260,1,85,2|8
496,180,39792,2,0,B|452:172|412:192,1,85,2|8
208,288,40137,2,0,B|216:344|288:380|352:356,1,170,4|8
428,372,40654,6,0,B|440:328|428:284,1,85,0|0
289,187,40999,2,0,B|277:231|288:272,1,85,8|0
208,124,41344,2,0,B|220:80|209:39,1,85,8|8
132,76,41689,6,0,B|53:128|68:240,1,170,4|0
220,296,42378,2,0,B|298:243|283:131,1,170,8|0
364,116,42896,1,0
444,140,43068,2,0,B|468:104|464:56,1,85,0|8
312,364,43585,1,0
260,296,43758,2,0,B|207:217|95:232,1,170,8|0
48,284,44275,1,0
40,176,44447,5,8
116,96,44620,2,0,B|156:116|176:164,1,85,8|0
264,284,44965,2,0,B|239:246|246:195,1,85,8|0
248,116,45310,2,0,B|283:89|292:45,1,85,8|0
376,28,45654,5,8
465,230,45999,1,8
246,198,46344,1,8
184,144,46516,2,0,B|144:128|96:132,1,85,8|0
31,181,46861,1,10
22,200,46947,1,0
18,220,47034,1,2
19,241,47120,1,0
25,261,47206,6,0,B|53:297|105:301,1,85,4|0
256,300,47551,2,0,B|228:264|176:260,1,85,8|0
184,340,47896,2,0,B|211:389|291:397|342:351,1,170,2|8
400,304,48413,1,0
467,161,48585,6,0,B|428:176|408:220,1,85,0|0
509,328,48930,2,0,B|514:280|488:248,1,85,8|0
360,148,49275,2,0,B|308:173|233:143|220:88,1,170,0|8
316,52,49792,1,0
188,192,49965,6,0,B|168:276,1,85,2|0
96,320,50310,1,8
172,360,50482,2,0,B|214:396|300:384|324:316,1,170,0|0
384,276,50999,5,8
420,108,51172,1,0
404,192,51344,5,0
340,136,51516,1,0
304,296,51689,5,8
304,212,51861,1,0
216,248,52034,5,2
152,304,52206,1,2
84,352,52378,2,0,B|35:360|-5:332,1,85,8|2
152,304,52723,2,0,B|240:260|324:308,1,170,4|8
500,216,53241,2,0,B|412:260|328:212,1,170,0|0
260,176,53758,6,0,B|274:133|310:108,1,85,8|0
236,276,54103,2,0,B|244:319|225:360,1,85
149,218,54447,2,0,B|106:203|81:167,1,85,8|0
120,12,54792,6,0,B|163:27|188:63,1,85,2|2
124,212,55137,2,0,B|104:170|111:127,1,85,8|2
264,28,55482,2,0,B|284:70|277:113,1,85,2|0
260,192,55827,5,8
200,252,55999,1,0
124,292,56172,2,0,B|88:312|40:304,1,85,0|2
384,324,56516,6,0,B|420:304|468:312,1,85,8|8
484,316,57034,1,8
496,328,57378,1,8
488,228,57551,2,0,B|488:120|386:92,1,170,8|8
316,64,58068,5,2
316,64,58154,1,0
316,64,58241,2,0,B|327:106|310:150,1,85,4|0
272,224,58585,1,8
208,284,58758,1,0
132,324,58930,6,0,B|96:344|48:348,1,85,0|0
0,208,59275,2,0,B|36:188|84:184,1,85,8|0
176,344,59620,2,0,B|135:350|88:337,1,85,2|0
12,160,59965,2,0,B|52:153|99:166,1,85,8|0
216,368,60310,2,0,B|175:360|136:332,1,85
32,116,60654,2,0,B|72:123|111:151,1,85,10|0
172,208,60999,6,0,B|272:208|316:120,1,170,0|8
352,52,61516,1,0
328,228,61689,2,0,B|332:316,1,85
476,360,62034,2,0,B|472:272,1,85,8|0
464,192,62378,1,0
424,108,62551,1,0
336,84,62723,2,0,B|314:120|312:168,1,85,8|0
224,204,63068,5,2
130,345,63241,1,2
55,191,63413,1,8
224,204,63585,1,2
224,204,63672,1,0
224,204,63758,6,0,B|268:192|308:196,1,85,4|0
392,216,64103,1,8
444,364,64275,2,0,B|395:375|352:368|318:299|328:272,1,170
240,93,64792,2,0,B|280:108|308:144,1,85,8|0
224,288,65137,2,0,B|238:248|274:220,1,85
380,52,65482,2,0,B|397:89|392:135,1,85,8|0
356,212,65827,5,2
292,268,65999,2,0,B|248:284|200:276,1,85,2|8
128,308,66344,1,2
48,276,66516,2,0,B|-8:200|16:108,1,170,2|8
72,52,67034,2,0,B|96:92|88:136,1,85,2|0
216,228,67378,2,0,B|181:203|169:158,1,85,2|8
252,132,67723,6,0,B|324:84|420:104,1,170,8|8
414,102,68413,1,8
484,256,68585,1,8
28,128,68930,1,8
96,180,69103,5,2
96,180,69189,1,0
96,180,69275,2,0,B|104:224|96:264,1,85,4|0
128,344,69620,2,0,B|176:356|216:336,1,85,8|0
264,272,69965,1,0
411,210,70137,2,0,B|363:198|328:216,1,85,0|8
252,180,70482,6,0,B|184:104|240:8,1,170,4|0
177,214,70999,2,0,B|197:253|193:301,1,85,8|0
24,380,71344,2,0,B|4:341|8:293,1,85,0|0
68,144,71689,2,0,B|87:182|83:230,1,85,8|0
152,280,72034,6,0,B|240:320|324:252,1,170,0|8
360,192,72551,1,0
288,148,72723,2,0,B|241:139|206:161,1,85
256,232,73068,1,8
312,72,73241,2,0,B|224:48|144:104,1,170,4|0
96,164,73758,6,0,B|132:192|180:184,1,85,8|0
328,92,74103,2,0,B|282:97|254:137,1,85
236,300,74447,2,0,B|264:264|256:216,1,85,8|0
332,180,74792,6,0,B|408:124|504:156,2,170,0|8|0
256,224,75654,1,0
208,296,75827,1,8
0,292,75999,6,0,B|48:360|144:352,1,170,4|0
228,372,76516,2,0,B|276:356|288:304,1,85,8|0
348,260,76861,2,0,B|388:240|440:248,1,85
512,348,77206,2,0,B|472:368|429:361,1,85,8|0
364,308,77551,6,0,B|332:216|224:212,1,170,0|8
152,200,78068,1,0
152,200,78154,1,0
152,200,78241,2,0,B|144:100,1,85,0|0
139,30,78585,5,0
348,76,78758,1,0
348,76,79275,6,0,B|408:144|372:248,1,170,4|0
184,336,79792,2,0,B|124:268|160:164,1,170,8|8
164,164,80223,1,2
172,152,80310,5,4
232,92,80482,1,0
300,44,80654,2,0,B|324:84|316:132,1,85,8|0
232,92,80999,5,8
252,176,81172,1,0
332,204,81344,2,0,B|332:250|301:288,1,85,8|0
252,176,81689,5,8
320,124,81861,1,0
400,152,82034,2,0,B|420:192|410:240,1,85,8|0
332,204,82378,5,8
328,296,82551,1,0
246,337,82723,2,0,B|236:293|260:256,1,85,8|0
216,188,83068,6,0,B|216:144|188:108,1,85,8|0
0,200,83413,2,0,B|0:244|28:280,1,85,8|0
211,225,83758,6,0,B|226:183|212:140,1,85,8|0
4,162,84103,2,0,B|-10:204|3:247,1,85,8|0
52,324,84447,2,0,B|128:384|216:336,1,170,8|8
268,276,84965,1,0
328,216,85137,2,0,B|364:192|420:196,1,85,8|0
268,360,85482,2,0,B|232:384|176:380,1,85,8|0
144,304,85827,5,8
104,228,85999,1,0
84,144,86172,2,0,B|80:96|116:64,1,85,8|0
306,122,86516,5,8
256,192,86689,1,0
189,246,86861,2,0,B|147:270|103:252,1,85,8|0
176,164,87206,5,8
256,192,87378,1,0
305,123,87551,2,0,B|340:84|393:81|446:103|463:146,1,170,8|8
484,212,88068,1,0
428,276,88241,2,0,B|408:316|420:360,1,85,8|0
484,212,88585,6,0,B|424:128|312:176,1,170,8|8
264,216,89103,1,0
196,264,89275,2,0,B|152:276|112:268,1,85,8|0
4,104,89620,2,0,B|48:92|88:100,1,85,8|0
76,184,89965,1,8
32,256,90137,1,0
44,340,90310,6,0,B|84:360|140:348,1,85,8|0
264,348,90654,2,0,B|258:303|216:263,1,85,8|0
144,164,90999,2,0,B|123:204|136:260,1,85,8|0
160,328,91344,5,10
226,273,91516,2,0,B|298:221|402:245,1,170,10|10
452,184,92034,2,0,B|485:216|480:264,1,85,2|10
309,120,92378,2,0,B|309:75|340:43,1,85,0|10
264,194,92723,6,0,B|219:194|188:162,1,85,0|10
16,120,93068,2,0,B|47:88|92:92,1,85,0|10
80,172,93413,2,0,B|72:260,1,85,10|0
172,120,93758,2,0,B|164:35,1,85,10|0
425,352,94388,6,0,B|467:345,1,42.5
396,240,94732,2,0,B|420:205,1,42.5
368,112,94990,1,0
284,180,95249,2,0,B|263:217,2,42.5
256,84,95594,2,0,B|222:57,1,42.5
256,192,96500,5,4
256,192,96586,12,0,100637
