osu file format v9

[General]
AudioFilename: pure.mp3
AudioLeadIn: 1000
PreviewTime: 54381
Countdown: 0
SampleSet: Soft
StackLeniency: 0.7
Mode: 0
LetterboxInBreaks: 0

[Editor]
DistanceSpacing: 1
BeatDivisor: 4
GridSize: 8

[Metadata]
Title:Dream Catcher
Artist:Barbarian On The Groove feat. Kahina
Creator:Aenna
Version:Insane
Source:Koikishi Purely*Kiss
Tags:effordomsoft

[Difficulty]
HPDrainRate:7
CircleSize:4
OverallDifficulty:8
ApproachRate:9
SliderMultiplier:1.8
SliderTickRate:2

[Events]
//Background and Video events
Video,-1243,"videoplayback.avi"
0,0,"koikishi.jpg"
//Break Periods
//Storyboard Layer 0 (Background)
//Storyboard Layer 1 (Fail)
//Storyboard Layer 2 (Pass)
//Storyboard Layer 3 (Foreground)
//Storyboard Sound Samples
//Background Colour Transformations
3,100,163,162,255

[TimingPoints]
574,312.5,4,1,1,50,1,0
730,-133.333333333333,4,2,1,70,0,0
11199,-100,4,1,1,70,0,0
11667,-100,4,2,1,70,0,0
20417,-200,4,2,1,70,0,0
20886,-100,4,2,1,70,0,0
22370,-133.333333333333,4,2,1,70,0,0
41980,-100,4,2,1,70,0,0
54324,-100,4,2,1,85,0,1
74324,-133.333333333333,4,2,1,70,0,0
92839,-100,4,2,1,70,0,0
102995,-100,4,1,0,50,0,0

[Colours]
Combo1 : 255,172,89
Combo2 : 66,255,255
Combo3 : 255,125,190

[HitObjects]
104,240,574,1,0
264,336,886,2,0,B|296:320|328:320,2,67.4999979883433,2|0|0
208,272,1355,1,0
208,272,1511,1,2
248,200,1667,1,0
248,200,1824,1,0
328,192,1980,2,0,B|360:176|400:184,1,67.4999979883433,0|2
464,136,2292,2,0,B|448:64|376:40,1,134.999995976687
304,64,2761,1,2
224,88,2917,1,0
152,48,3074,5,4
56,216,3386,1,2
136,200,3542,2,0,B|152:240|144:280,1,67.4999979883433
192,336,3855,2,0,B|224:352|256:352,1,67.4999979883433,0|2
336,344,4167,6,0,B|368:272|448:256,1,134.999995976687
392,192,4636,1,2
472,184,4792,2,0,B|480:104|424:56,1,134.999995976687
352,32,5261,1,2
288,80,5417,1,0
320,152,5574,5,4
368,336,5886,2,0,B|336:320|296:320,1,67.4999979883433,2|0
224,344,6199,1,0
144,328,6355,2,0,B|128:296|136:256,1,67.4999979883433,0|2
72,208,6667,2,0,B|48:136|96:72,1,134.999995976687,0|0
152,24,7136,1,2
232,48,7292,2,0,B|272:56|304:48,1,67.4999979883433
376,72,7605,5,0
464,136,7761,1,0
408,224,7917,2,0,B|376:216|336:224,1,67.4999979883433,4|0
264,256,8230,5,0
344,328,8386,1,2
208,352,8542,2,0,B|176:360|136:344,1,67.4999979883433,4|0
104,248,8855,5,0
152,152,9011,1,2
256,168,9167,1,4
256,192,9324,12,0,11356
256,192,11511,5,0
48,312,11824,6,0,B|120:376|224:336,1,180,4|8
344,184,12292,2,0,B|272:120|168:160,1,180,0|0
80,200,12761,2,0,B|64:160|72:104,1,90,8|0
208,56,13074,2,0,B|224:96|216:152,1,90
192,240,13386,1,8
280,288,13542,2,0,B|384:312|448:240,1,180
480,152,14011,1,8
480,152,14167,1,0
416,72,14324,6,0,B|328:88,1,90
272,168,14636,1,8
296,264,14792,2,0,B|192:256,1,90
128,192,15105,1,0
64,264,15261,6,0,B|48:304|56:352,1,90,8|4
200,320,15574,2,0,B|216:280|208:232,1,90
168,112,15886,1,8
176,104,15964,1,0
184,96,16042,1,4
272,128,16199,1,8
280,128,16277,1,0
288,128,16355,1,0
296,128,16433,1,0
304,128,16511,1,8
312,128,16589,1,0
320,128,16667,1,0
328,128,16745,1,0
336,128,16824,6,0,B|432:128,1,90,4|0
480,200,17136,1,8
408,256,17292,2,0,B|384:296|392:344,1,90
304,368,17605,1,0
304,368,17761,1,8
216,344,17917,2,0,B|176:328|112:336,1,90,4|0
48,304,18230,1,0
88,224,18386,6,0,B|112:184|112:136,1,90,8|4
104,48,18699,1,0
192,64,18855,2,0,B|232:40|280:40,1,90,0|8
368,56,19167,1,0
304,120,19324,5,4
456,176,19480,1,0
296,208,19636,1,0
216,168,19792,5,4
232,328,19949,1,0
128,208,20105,1,4
128,208,20183,1,0
128,208,20261,1,0
232,328,20417,6,0,B|376:328,1,135,4|2
367,328,20964,1,0
367,328,21042,1,0
456,264,21199,1,2
456,256,21277,1,0
456,248,21355,1,0
368,184,21511,1,10
368,176,21589,1,0
368,168,21667,1,0
368,160,21745,1,0
368,152,21824,6,0,B|352:104|304:80,1,90,4|0
272,168,22136,1,8
272,168,22292,1,0
192,136,22449,2,0,B|120:136,1,67.4999979883433
48,176,22761,2,0,B|32:208|40:248,1,67.4999979883433,8|0
96,312,23074,2,0,B|152:360|240:336,1,134.999995976687,0|8
304,304,23542,1,0
392,320,23699,2,0,B|440:264,1,67.4999979883433,0|0
392,160,24011,1,8
440,56,24167,1,0
392,160,24324,6,0,B|336:208|248:184,1,134.999995976687,4|8
216,112,24792,1,0
152,168,24949,2,0,B|104:120|24:136,1,134.999995976687,4|8
48,224,25417,1,0
112,280,25574,6,0,B|184:272,1,67.4999979883433,4|0
224,344,25886,2,0,B|296:336,1,67.4999979883433,8|0
376,320,26199,2,0,B|416:264|400:184,1,134.999995976687,4|8
304,48,26824,2,0,B|224:40,2,67.4999979883433,4|0|8
96,104,27449,6,0,B|112:136|104:176,1,67.4999979883433
48,240,27761,2,0,B|41:273|57:305,1,67.4999979883433,8|0
136,352,28074,2,0,B|208:352|208:320|288:320,1,134.999995976687,0|8
352,336,28542,1,0
400,264,28699,2,0,B|368:192,1,67.4999979883433
304,144,29011,1,8
304,144,29089,1,0
304,144,29167,1,0
232,200,29324,6,0,B|176:248|88:208,2,134.999995976687,4|8|0
208,112,30105,1,0
272,48,30261,1,8
280,48,30339,1,0
288,48,30417,1,0
296,48,30495,1,0
304,48,30574,6,0,B|384:48,1,67.4999979883433,4|0
448,96,30886,1,8
408,176,31042,1,0
368,256,31199,1,4
360,256,31277,1,0
352,256,31355,1,0
344,256,31433,1,0
336,256,31511,1,8
328,256,31589,1,0
320,256,31667,1,0
312,256,31745,1,0
304,256,31824,6,0,B|272:232|216:232,1,67.4999979883433,4|0
240,320,32136,1,8
240,320,32292,1,0
152,296,32449,2,0,B|96:248|24:272,2,134.999995976687,0|8|0
216,232,33230,1,0
160,160,33386,6,0,B|144:128|152:88,1,67.4999979883433,8|0
248,40,33699,2,0,B|264:72|256:112,1,67.4999979883433,0|0
312,176,34011,1,8
400,152,34167,1,0
312,176,34324,6,0,B|288:248|336:312,1,134.999995976687,4|8
416,320,34792,1,0
472,248,34949,2,0,B|496:176|448:112,1,134.999995976687,4|8
384,64,35417,1,0
304,96,35574,6,0,B|232:112|176:64,1,134.999995976687,4|8
96,32,36042,1,0
32,96,36199,2,0,B|56:160,1,67.4999979883433,4|0
96,240,36511,1,8
96,240,36667,1,0
184,224,36824,2,0,B|200:256|192:296,2,67.4999979883433,4|0|8
328,120,37449,6,0,B|384:72|456:88,1,134.999995976687,0|8
416,168,37917,1,0
464,240,38074,2,0,B|456:312,1,67.4999979883433
376,344,38386,1,8
288,336,38542,2,0,B|152:336,1,134.999995976687
80,288,39011,2,0,B|64:256|64:216,1,67.4999979883433,8|0
96,144,39324,6,0,B|176:160|240:88,1,134.999995976687,4|8
280,40,39792,1,0
432,128,40105,1,0
464,208,40261,1,8
400,272,40417,5,4
376,272,40495,1,0
352,272,40574,1,0
280,216,40730,1,0
232,288,40886,2,0,B|184:280,1,33.7499989941716,8|0
120,312,41120,2,0,B|96:256,1,33.7499989941716,0|8
144,200,41355,1,0
72,144,41511,1,8
72,120,41589,1,0
72,96,41667,1,0
72,72,41745,1,0
72,48,41824,1,4
360,72,42136,6,0,B|400:168|320:248,1,180,8|0
248,280,42605,1,0
184,216,42761,1,8
224,136,42917,1,0
160,72,43074,6,0,B|56:48|0:152,1,180,4|8
152,296,43542,2,0,B|256:320|312:216,1,180,4|0
272,144,44011,1,8
272,120,44089,1,0
272,96,44167,1,0
336,32,44324,1,4
472,200,44636,6,0,B|480:248|456:288,1,90,8|0
376,336,44949,2,0,B|296:280|200:312,1,180,4|8
120,344,45417,1,4
120,344,45495,1,0
120,344,45574,1,0
56,280,45730,6,0,B|64:192,1,90,0|8
280,160,46042,2,0,B|272:248,1,90,4|0
168,144,46355,2,0,B|176:56,1,90,0|8
392,24,46667,2,0,B|384:112,1,90,4|0
368,224,46980,1,0
296,304,47136,6,0,B|248:312|200:288,1,90,8|0
176,208,47449,2,0,B|192:168|184:112,1,90,4|0
152,40,47761,1,8
152,40,47917,1,0
240,56,48074,6,0,B|336:96|432:16,1,180,4|8
272,176,48542,2,0,B|176:136|80:216,1,180,4|0
64,280,49011,1,8
76,312,49089,1,0
104,336,49167,1,0
140,344,49245,1,0
176,336,49324,6,0,B|256:272|360:312,1,180,4|8
432,336,49792,1,0
472,256,49949,2,0,B|488:208|480:160,1,90,4|0
464,80,50261,1,8
376,104,50417,2,0,B|272:120|208:48,1,180,4|0
120,40,50886,2,0,B|80:56,2,45,8|0|0
136,128,51199,6,0,B|112:168|120:216,1,90,4|0
248,312,51511,2,0,B|272:272|264:224,1,90,8|0
232,144,51824,2,0,B|296:64|424:96,1,180,4|8
464,152,52292,1,0
472,240,52449,2,0,B|440:328,1,90,4|0
352,352,52761,1,8
280,296,52917,6,0,B|208:232|104:256,1,180,4|0
32,208,53386,1,8
32,208,53542,1,4
88,136,53699,1,0
104,136,53777,1,0
120,136,53855,1,0
136,136,53933,1,0
152,136,54011,1,8
168,136,54089,1,0
184,136,54167,1,0
200,136,54245,1,0
216,136,54324,6,0,B|304:136,1,90,4|0
392,112,54636,2,0,B|408:152|400:200,1,90,8|0
440,280,54949,1,0
368,336,55105,2,0,B|328:352|272:344,1,90,0|8
208,288,55417,2,0,B|168:272|112:280,1,90
48,216,55730,6,0,B|24:176|32:120,1,90,0|8
56,40,56042,2,0,B|136:96|240:56,1,180
312,24,56511,1,8
400,48,56667,2,0,B|416:88|408:136,1,90
352,208,56980,1,0
264,184,57136,6,0,B|224:160|176:168,1,90,8|0
88,176,57449,1,0
48,256,57605,2,0,B|64:304|112:320,1,90,0|8
200,320,57917,2,0,B|240:296|288:304,1,90
376,320,58230,1,0
376,320,58308,1,0
376,320,58386,1,8
448,264,58542,6,0,B|464:216|456:168,1,90
336,96,58855,2,0,B|320:144|328:192,1,90,0|8
248,232,59167,1,0
160,264,59324,2,0,B|112:272|64:248,1,90,4|0
32,168,59636,5,8
56,80,59792,1,0
144,96,59949,2,0,B|192:104|240:80,1,90
304,32,60261,1,8
392,64,60417,2,0,B|416:104|408:160,1,90
320,128,60730,2,0,B|312:176|272:208,1,90,0|8
224,128,61042,2,0,B|192:168|120:160,1,90,0|0
56,128,61355,5,0
24,248,61511,1,8
120,328,61667,2,0,B|208:320,1,90,4|0
320,312,61980,1,0
280,192,62136,1,8
384,120,62292,2,0,B|368:32,1,90,4|0
256,24,62605,1,0
184,128,62761,1,8
64,88,62917,6,0,B|40:128|40:176,1,90,4|0
248,304,63230,2,0,B|272:264|272:216,1,90,0|8
192,80,63542,2,0,B|168:120|168:168,1,90,4|0
376,296,63855,2,0,B|400:256|400:208,1,90,0|8
384,120,64167,1,4
304,72,64324,2,0,B|256:80|208:56,1,90
128,32,64636,6,0,B|80:48|64:104,1,90,8|0
56,184,64949,1,0
144,168,65105,2,0,B|184:136|232:144,1,90,0|8
312,184,65417,2,0,B|352:208|408:200,1,90
480,160,65730,1,0
496,248,65886,5,8
440,320,66042,1,0
432,316,66120,1,0
424,312,66199,1,0
336,288,66355,1,0
328,292,66433,1,0
320,296,66511,1,8
236,328,66667,1,0
168,264,66824,2,0,B|160:208|104:176,1,90,4|0
80,272,67136,5,8
144,336,67292,1,0
236,328,67449,1,0
288,256,67605,2,0,B|312:216|304:160,1,90,0|8
168,80,67917,2,0,B|144:120|152:176,1,90,0|0
200,248,68230,1,0
200,248,68308,1,0
200,248,68386,1,8
48,328,68542,6,0,B|72:280|120:264,1,90
56,168,68855,2,0,B|104:160|144:184,1,90,0|8
176,64,69167,2,0,B|216:88|224:144,1,90,0|4
232,224,69480,1,0
296,288,69636,6,0,B|336:312|392:304,1,90,8|0
464,256,69949,1,0
448,168,70105,1,0
448,168,70183,1,0
448,168,70261,1,8
376,112,70417,2,0,B|384:64,2,45
288,144,70730,2,0,B|240:152|192:128,1,90,0|8
120,88,71042,2,0,B|88:120|88:176,1,90
152,232,71355,5,0
40,344,71511,1,8
200,320,71667,1,4
200,320,71824,1,0
248,240,71980,5,0
384,328,72136,1,8
320,176,72292,1,4
320,176,72449,1,0
232,152,72605,5,0
368,64,72761,1,8
208,64,72917,1,4
144,128,73074,6,0,B|24:168,1,90,8|0
208,216,73386,2,0,B|160:296,1,90,8|0
312,240,73699,2,0,B|328:328,1,90,8|0
416,192,74011,2,0,B|488:256,1,90,8|0
483,251,74245,1,0
483,251,74324,1,4
312,64,74636,6,0,B|280:72|240:64,1,67.4999979883433,2|0
160,32,74949,1,0
88,88,75105,2,0,B|72:120|80:160,1,67.4999979883433,0|2
96,240,75417,2,0,B|160:272,1,67.4999979883433
232,224,75730,2,0,B|296:256,1,67.4999979883433,0|2
376,288,76042,1,0
456,248,76199,2,0,B|472:216|464:176,1,67.4999979883433
304,96,76511,2,0,B|288:128|296:168,1,67.4999979883433,2|0
400,104,76824,2,0,B|416:72|408:32,1,67.4999979883433
304,96,77136,5,2
216,120,77292,1,0
128,104,77449,1,0
72,176,77605,2,0,B|56:248,1,67.4999979883433,0|2
160,328,77917,2,0,B|176:256,1,67.4999979883433
200,176,78230,5,0
200,176,78308,1,0
200,176,78386,1,2
280,136,78542,2,0,B|360:136,1,67.4999979883433
432,160,78855,1,0
472,240,79011,2,0,B|480:272|464:312,1,67.4999979883433,2|0
384,344,79324,2,0,B|352:360|304:352,1,67.4999979883433,4|0
240,320,79636,5,2
240,320,79792,1,0
152,336,79949,2,0,B|120:320|80:320,1,67.4999979883433
32,248,80261,1,2
64,168,80417,1,0
64,168,80574,1,0
176,120,80730,1,0
176,120,80886,1,2
296,152,81042,1,0
296,152,81199,1,0
220,196,81355,5,0
352,272,81511,1,2
200,288,81667,1,4
200,288,81824,1,0
136,224,81980,5,0
40,344,82136,1,2
48,192,82292,1,4
48,192,82449,1,0
120,136,82605,5,0
256,72,82761,1,2
392,136,82917,1,4
392,136,83074,6,0,B|408:168|400:208,1,67.4999979883433
432,296,83386,1,2
336,328,83542,1,0
320,328,83620,1,0
304,328,83699,1,0
288,328,83777,1,0
272,328,83855,1,0
256,328,83933,1,0
240,328,84011,1,2
224,328,84089,1,0
208,328,84167,1,0
192,328,84245,1,0
176,328,84324,6,0,B|104:328,1,67.4999979883433,4|0
48,264,84636,1,2
128,224,84792,1,0
40,240,84949,1,0
120,208,85105,2,0,B|128:168|128:136,1,67.4999979883433,0|2
112,56,85417,2,0,B|88:32,2,33.7499989941716
200,80,85730,6,0,B|232:72|272:72,1,67.4999979883433,0|2
352,96,86042,1,0
440,72,86199,2,0,B|448:40,2,33.7499989941716
456,160,86511,2,0,B|472:192|472:232,1,67.4999979883433,2|0
448,312,86824,1,0
448,312,86980,1,0
360,336,87136,6,0,B|320:320|288:320,1,67.4999979883433,2|0
208,344,87449,1,0
128,304,87605,2,0,B|104:272|104:232,1,67.4999979883433,0|2
192,248,87917,2,0,B|176:216|192:168,1,67.4999979883433
272,216,88230,2,0,B|272:176|288:152,1,67.4999979883433,0|2
360,200,88542,5,0
360,200,88620,1,0
360,200,88699,1,0
448,208,88855,1,0
496,136,89011,1,2
496,128,89089,1,0
496,120,89167,1,0
440,48,89324,1,4
352,72,89480,1,0
272,32,89636,6,0,B|240:16|200:24,2,67.4999979883433,2|0|0
248,120,90105,2,0,B|232:152|240:200,1,67.4999979883433,0|2
320,224,90417,2,0,B|326:257|310:289,1,67.4999979883433
240,344,90730,1,0
240,344,90886,1,2
152,336,91042,2,0,B|80:336,1,67.4999979883433
32,264,91355,5,0
56,144,91511,1,2
128,240,91667,1,4
128,240,91745,1,0
128,240,91824,1,0
152,152,91980,5,0
232,240,92136,1,2
248,120,92292,1,4
248,120,92370,1,0
248,120,92449,1,0
312,184,92605,5,0
328,64,92761,1,2
400,160,92917,1,4
400,168,92995,1,0
400,176,93074,1,0
400,184,93152,1,0
400,192,93230,1,0
400,200,93308,1,0
400,208,93386,5,2
400,216,93464,1,0
400,224,93542,1,0
400,232,93620,1,0
400,240,93699,1,0
400,248,93777,1,0
400,256,93855,1,0
400,264,93933,1,0
400,272,94011,5,2
400,280,94089,1,0
400,288,94167,1,0
400,296,94245,1,0
400,304,94324,6,0,B|368:344|304:336,1,90,4|0
232,312,94636,1,8
144,328,94792,2,0,B|104:304|48:312,1,90
8,232,95105,1,0
48,152,95261,1,8
136,168,95417,2,0,B|240:184|296:96,1,180
376,64,95886,6,0,B|424:56|464:80,1,90,8|0
488,168,96199,1,0
408,216,96355,2,0,B|360:224|320:200,1,90,0|8
256,136,96667,1,0
168,152,96824,2,0,B|128:128|80:128,2,90,0|0|8
120,232,97292,5,0
160,312,97449,1,0
240,344,97605,2,0,B|336:344,1,90,0|8
416,344,97917,2,0,B|472:264|432:160,1,180,4|0
384,96,98386,1,8
312,144,98542,1,4
224,120,98699,5,0
208,120,98777,1,0
192,120,98855,1,0
176,120,98933,1,0
160,120,99011,1,8
144,120,99089,1,0
128,120,99167,1,0
112,120,99245,1,0
96,120,99324,6,0,B|72:160|80:208,1,90,4|0
128,288,99636,1,8
216,320,99792,2,0,B|256:296|304:304,1,90
392,328,100105,1,0
456,264,100261,2,0,B|472:224|464:176,1,90,8|2
463,175,100495,1,0
463,175,100574,1,0
432,96,100730,5,0
344,112,100886,2,0,B|296:120|256:96,1,90,8|0
184,40,101199,2,0,B|144:24|96:32,1,90
32,96,101511,1,8
32,96,101667,1,0
104,144,101824,5,4
40,248,101980,1,0
160,224,102136,1,8
208,144,102292,1,4
208,144,102370,1,0
208,144,102449,1,0
280,248,102605,1,4
296,120,102761,1,0
352,192,102917,1,4
256,192,103074,12,0,107761
