osu file format v9

[General]
AudioFilename: pure.mp3
AudioLeadIn: 1000
PreviewTime: 54381
Countdown: 0
SampleSet: Soft
StackLeniency: 0.7
Mode: 0
LetterboxInBreaks: 0

[Editor]
DistanceSpacing: 1
BeatDivisor: 4
GridSize: 8

[Metadata]
Title:Dream Catcher
Artist:Barbarian On The Groove feat. Kahina
Creator:Aenna
Version:Hard
Source:Koikishi Purely*Kiss
Tags:effordomsoft

[Difficulty]
HPDrainRate:5
CircleSize:4
OverallDifficulty:5
ApproachRate:7
SliderMultiplier:1.4
SliderTickRate:2

[Events]
//Background and Video events
Video,-1243,"videoplayback.avi"
0,0,"koikishi.jpg"
//Break Periods
//Storyboard Layer 0 (Background)
//Storyboard Layer 1 (Fail)
//Storyboard Layer 2 (Pass)
//Storyboard Layer 3 (Foreground)
//Storyboard Sound Samples
//Background Colour Transformations
3,100,163,162,255

[TimingPoints]
574,312.5,4,1,1,50,1,0
730,-133.333333333333,4,2,1,70,0,0
11199,-100,4,1,1,70,0,0
11667,-100,4,2,1,70,0,0
22370,-133.333333333333,4,2,1,70,0,0
41980,-100,4,2,1,70,0,0
54324,-100,4,2,1,85,0,1
74324,-133.333333333333,4,2,1,70,0,0
92995,-100,4,2,1,70,0,0
102995,-100,4,1,0,50,0,0

[Colours]
Combo1 : 255,172,89
Combo2 : 66,255,255
Combo3 : 255,125,190

[HitObjects]
344,120,574,1,4
256,176,886,2,0,B|232:152|240:112,2,52.4999984353781,2|0|0
280,224,1355,2,0,B|240:264|168:240,2,104.999996870756,2|0|2
352,336,2292,2,0,B|392:288|456:296,1,104.999996870756,2|0
472,248,2761,1,2
456,200,2917,1,0
472,152,3074,5,4
384,96,3386,2,0,B|368:72|376:40,2,52.4999984353781,2|0|0
360,144,3855,2,0,B|320:184|256:168,2,104.999996870756,2|0|2
392,240,4792,2,0,B|432:280|416:344,1,104.999996870756,2|0
368,360,5261,1,2
328,328,5417,1,0
280,344,5574,5,4
184,312,5886,2,0,B|160:296|128:296,1,52.4999984353781,2|0
88,272,6199,2,0,B|72:248|80:208,1,52.4999984353781
136,136,6667,2,0,B|152:72|104:32,2,104.999996870756,2|0|2
224,192,7605,5,2
264,160,7761,1,2
272,208,7917,1,4
200,128,8230,5,0
224,264,8386,1,2
336,176,8542,1,4
152,208,8855,5,0
320,264,9011,1,2
296,88,9167,1,4
256,192,9324,12,0,11512
104,192,11824,6,0,B|80:264|136:320,2,140,4|8|0
176,72,12761,1,8
304,128,13074,2,0,B|384:152|440:88,2,140,0|8|0
176,72,14011,1,8
232,200,14324,6,0,B|248:232|240:272,1,70
152,240,14636,2,0,B|136:208|144:168,1,70,8|0
168,104,14949,1,0
240,120,15105,2,0,B|272:96|312:96,1,70,0|8
376,104,15417,6,0,B|424:160|400:240,1,140,4|0
328,240,15886,2,0,B|328:280|368:304,1,70,8|4
432,304,16199,2,0,B|432:344,2,35
480,248,16511,2,0,B|496:216|488:176,1,70,8|0
464,112,16824,6,0,B|408:48|320:80,1,140,4|8
368,216,17449,2,0,B|312:280|224:248,1,140,0|8
192,200,17917,2,0,B|160:224|168:272,1,70
208,320,18230,1,0
136,328,18386,2,0,B|96:336|72:312,1,70,8|0
32,248,18699,2,0,B|8:176|72:120,1,140,0|8
208,120,19324,6,0,B|216:80|192:48,2,70,4|0|8
272,152,19792,2,0,B|344:120|408:176,1,140,4|4
456,304,20417,1,4
256,192,20574,12,4,21824
88,272,22449,6,0,B|128:312|192:296,1,104.999996870756,0|8
280,248,23074,2,0,B|312:192|384:200,2,104.999996870756,0|8|0
368,304,24011,1,8
464,256,24324,6,0,B|504:136|400:48,2,209.999993741512,4|4|4
256,304,26199,1,4
208,328,26355,1,0
208,272,26511,1,8
160,296,26667,1,0
160,240,26824,1,4
312,96,27449,6,0,B|344:48|416:56,1,104.999996870756,0|8
480,128,28074,1,0
392,184,28386,2,0,B|376:240|408:288,1,104.999996870756,8|0
328,352,29011,1,8
224,320,29324,6,0,B|144:224|16:272,1,209.999993741512,4|0
64,168,30261,1,8
152,112,30574,2,0,B|280:152|336:32,1,209.999993741512,4|4
432,32,31511,1,8
408,80,31667,1,0
440,128,31824,5,4
360,320,32449,2,0,B|304:304|256:336,1,104.999996870756,0|8
160,296,33074,2,0,B|120:256|136:184,2,104.999996870756,0|8|0
248,232,34011,1,8
344,272,34324,6,0,B|392:160|512:176,2,209.999993741512,4|4|4
288,184,35886,1,8
344,96,36199,1,4
240,72,36511,1,8
192,88,36667,1,0
152,56,36824,5,4
64,248,37449,1,0
80,296,37605,1,0
128,320,37761,2,0,B|184:304|232:344,1,104.999996870756,8|0
328,360,38386,1,8
328,360,38542,2,0,B|360:312|424:312,1,104.999996870756
456,280,39011,2,0,B|464:224,1,52.4999984353781,8|0
472,176,39324,6,0,B|440:120|360:136,1,104.999996870756,4|8
296,192,39949,1,0
296,192,40105,2,0,B|240:184,1,52.4999984353781,0|8
200,216,40417,2,0,B|208:272|168:312,1,104.999996870756,4|0
120,320,40886,1,8
72,304,41042,1,0
56,256,41199,2,0,B|48:200|88:160,1,104.999996870756,0|8
184,112,41824,5,4
320,80,42136,1,8
432,160,42449,2,0,B|472:216|448:296,1,140,4|8
392,336,42917,1,0
360,272,43074,6,0,B|304:216|224:240,1,140,4|8
168,312,43542,2,0,B|112:248|152:168,1,140,4|0
240,144,44011,2,0,B|288:88|376:112,1,140,8|4
488,304,44636,5,8
424,336,44792,1,0
424,264,44949,2,0,B|408:224|440:176,1,70,4|0
472,136,45261,1,8
400,128,45417,2,0,B|352:72|264:96,1,140,4|0
224,152,45886,1,8
288,184,46042,6,0,B|304:264,1,70,4|0
232,328,46355,2,0,B|216:248,1,70,0|8
128,232,46667,2,0,B|144:312,2,70,0|4|0
112,160,47136,5,8
216,64,47449,1,4
352,88,47761,1,8
424,104,47917,1,0
384,168,48074,6,0,B|360:248|424:304,1,140,4|8
288,224,48542,2,0,B|312:144|248:88,1,140,4|0
192,56,49011,1,8
88,152,49324,6,0,B|32:208|72:288,1,140,4|8
200,336,49949,1,4
272,328,50105,1,0
240,264,50261,1,8
312,256,50417,1,4
440,320,50730,1,0
440,320,50886,1,8
424,184,51199,2,0,B|400:152|416:104,1,70,4|0
448,56,51511,2,0,B|424:24|376:24,1,70,8|0
320,56,51824,6,0,B|264:104|168:72,1,140,4|8
56,112,52449,2,0,B|40:144|48:184,1,70,4|0
88,240,52761,1,8
88,240,52917,1,4
224,280,53230,5,0
280,232,53386,1,0
352,248,53542,1,4
408,200,53699,2,0,B|416:160,3,35
416,128,54011,2,0,B|400:88,3,35,8|0|0|0
384,64,54324,6,0,B|328:16|240:48,1,140,4|8
192,88,54792,1,0
208,160,54949,1,0
280,176,55105,2,0,B|304:200|296:248,1,70,0|8
232,272,55417,2,0,B|224:313|248:337,1,70
320,360,55730,5,0
320,360,55886,1,8
392,352,56042,2,0,B|448:296|416:208,1,140
384,160,56511,1,8
320,128,56667,2,0,B|304:96|312:56,2,70,0|4|0
320,200,57136,6,0,B|280:264|192:240,1,140,8|0
136,200,57605,2,0,B|120:160|80:144,1,70,0|8
48,88,57917,2,0,B|40:48|64:16,1,70
120,64,58230,2,0,B|144:40|184:40,1,70,0|8
176,112,58542,2,0,B|232:168|320:128,1,140
360,88,59011,1,8
424,120,59167,1,0
416,192,59324,5,4
344,312,59636,2,0,B|312:296|272:304,1,70,8|0
208,328,59949,1,0
152,280,60105,2,0,B|128:240|144:200,1,70,0|8
168,144,60417,2,0,B|128:72|32:96,1,140
16,160,60886,1,8
64,216,61042,1,0
208,216,61355,5,0
264,264,61511,1,8
336,248,61667,1,4
416,136,61980,1,0
464,192,62136,1,8
448,264,62292,1,4
320,328,62605,1,0
256,360,62761,1,8
184,344,62917,1,4
256,192,63074,12,4,64324
408,264,64636,6,0,B|416:304|392:336,1,70,8|0
328,280,64949,2,0,B|320:240|344:208,1,70
408,184,65261,1,8
376,120,65417,2,0,B|352:88|304:88,1,70
248,120,65730,2,0,B|224:152|176:152,1,70,0|8
120,128,66042,2,0,B|64:184|112:272,1,140
160,304,66511,1,8
232,320,66667,1,0
296,280,66824,5,4
328,144,67136,2,0,B|336:64|272:24,2,140,8|0|8
192,192,68074,2,0,B|136:136|56:168,2,140,0|8|0
256,312,69011,1,8
200,360,69167,1,0
136,320,69324,5,4
192,192,69636,2,0,B|176:160|184:120,1,70,8|0
208,56,69949,1,0
280,72,70105,2,0,B|320:80|352:64,1,70,0|8
416,40,70417,2,0,B|432:72|416:112,1,70
368,160,70730,2,0,B|368:200|408:224,1,70,0|8
472,232,71042,2,0,B|480:272|456:304,1,70
400,344,71355,5,0
328,360,71511,1,8
264,328,71667,1,4
224,192,71980,1,0
152,200,72136,1,8
120,264,72292,1,4
56,144,72605,1,0
88,80,72761,1,8
160,72,72917,1,4
256,192,73074,12,4,74324
120,280,74636,6,0,B|96:256|96:216,2,52.4999984353781,8|0|0
168,304,75105,1,0
224,304,75261,1,8
264,272,75417,2,0,B|296:224|272:160,1,104.999996870756
248,128,75886,1,8
304,136,76042,2,0,B|344:96|408:112,1,104.999996870756
440,144,76511,1,8
464,192,76667,1,0
448,240,76824,5,0
392,328,77136,2,0,B|368:352|328:344,1,52.4999984353781,8|0
296,328,77449,1,0
240,336,77605,2,0,B|208:344|184:328,1,52.4999984353781,0|8
152,296,77917,2,0,B|128:288|96:304,1,52.4999984353781
56,280,78230,2,0,B|40:256|48:224,1,52.4999984353781,0|8
56,176,78542,2,0,B|88:128|152:128,1,104.999996870756
192,144,79011,1,8
240,160,79167,1,0
288,152,79324,5,4
368,88,79636,1,8
416,80,79792,1,0
392,128,79949,1,0
448,120,80105,2,0,B|464:144|456:184,1,52.4999984353781,0|8
416,200,80417,2,0,B|376:232|384:296,1,104.999996870756
424,328,80886,1,8
424,328,81042,1,0
296,328,81355,5,0
272,280,81511,1,8
296,232,81667,1,4
320,128,81980,1,0
296,80,82136,1,8
248,72,82292,1,4
152,104,82605,1,0
104,120,82761,1,8
56,112,82917,1,4
256,192,83074,12,4,84324
88,248,84636,6,0,B|72:272|80:304,2,52.4999984353781,8|0|0
136,224,85105,1,0
152,176,85261,1,8
136,128,85417,2,0,B|176:88|240:96,1,104.999996870756
280,112,85886,1,8
312,152,86042,2,0,B|272:192|280:264,1,104.999996870756
304,296,86511,1,8
352,320,86667,1,0
408,312,86824,5,4
464,224,87136,2,0,B|464:200|480:176,1,52.4999984353781,8|0
496,128,87449,1,0
480,80,87605,2,0,B|424:88,1,52.4999984353781,0|8
400,48,87917,2,0,B|344:56,1,52.4999984353781
320,104,88230,2,0,B|256:112,1,52.4999984353781,0|8
224,88,88542,2,0,B|184:128|200:192,1,104.999996870756
240,216,89011,1,8
256,264,89167,1,0
240,312,89324,5,4
136,344,89636,2,0,B|120:288|64:264,1,104.999996870756,8|0
32,224,90105,1,0
40,176,90261,1,8
80,144,90417,2,0,B|112:96|176:104,1,104.999996870756
216,128,90886,1,8
272,136,91042,2,0,B|336:120,1,52.4999984353781
376,112,91355,5,0
424,136,91511,1,8
448,184,91667,1,4
400,280,91980,1,0
368,320,92136,1,8
320,328,92292,1,4
216,304,92605,1,0
168,280,92761,1,8
120,288,92917,1,4
256,192,93074,12,4,94324
360,96,94636,5,8
464,192,94949,2,0,B|472:232|448:264,1,70
384,288,95261,1,8
320,256,95417,2,0,B|272:200|184:224,1,140
128,256,95886,1,8
96,120,96199,2,0,B|48:64,2,70,0|0|8
224,64,96824,6,0,B|304:88|360:32,2,140,0|8|0
96,120,97761,1,8
96,120,97917,2,0,B|72:152|88:200,1,70,4|0
120,248,98230,1,0
192,264,98386,1,8
256,232,98542,2,0,B|288:208|328:216,1,70,4|0
392,232,98855,1,0
456,200,99011,2,0,B|472:168|464:128,1,70,8|0
440,64,99324,6,0,B|384:8|288:40,2,140,4|8|0
352,176,100261,1,8
352,176,100417,2,0,B|280:200,1,70,0|0
152,240,100886,1,8
104,104,101199,1,0
238,63,101511,1,8
285,198,101824,6,0,B|312:272,2,70,4|0|8
216,176,102292,2,0,B|144:152|88:224,1,140,4|4
160,344,102917,1,4
256,192,103074,12,0,107761
