osu file format v9

[General]
AudioFilename: pure.mp3
AudioLeadIn: 1000
PreviewTime: 54381
Countdown: 0
SampleSet: Soft
StackLeniency: 0.7
Mode: 0
LetterboxInBreaks: 0

[Editor]
DistanceSpacing: 1
BeatDivisor: 4
GridSize: 8

[Metadata]
Title:Dream Catcher
Artist:Barbarian On The Groove feat. Kahina
Creator:Aenna
Version:Normal
Source:Koikishi Purely*Kiss
Tags:effordomsoft

[Difficulty]
HPDrainRate:2
CircleSize:3
OverallDifficulty:2
ApproachRate:2
SliderMultiplier:0.8
SliderTickRate:2

[Events]
//Background and Video events
Video,-1243,"videoplayback.avi"
0,0,"koikishi.jpg"
//Break Periods
//Storyboard Layer 0 (Background)
//Storyboard Layer 1 (Fail)
//Storyboard Layer 2 (Pass)
//Storyboard Layer 3 (Foreground)
//Storyboard Sound Samples
//Background Colour Transformations
3,100,163,162,255

[TimingPoints]
574,312.5,4,1,1,50,1,0
730,-100,4,2,1,70,0,0
21824,-100,4,2,1,60,0,0
22370,-133.333333333333,4,2,1,70,0,0
41980,-100,4,2,1,70,0,0
54324,-100,4,2,1,85,0,1
74324,-133.333333333333,4,2,1,70,0,0
92839,-100,4,2,1,70,0,0
103074,-100,4,1,0,50,0,0

[Colours]
Combo1 : 255,172,89
Combo2 : 66,255,255
Combo3 : 255,125,190

[HitObjects]
256,312,574,2,0,B|312:336|376:320,1,120,4|2
432,264,1355,2,0,B|440:224|440:184,1,80,0|2
416,104,1980,2,0,B|344:24|224:48,1,200
152,40,3074,5,4
96,104,3386,2,0,B|128:152|112:224,1,120,2|0
144,296,4167,2,0,B|184:312|224:312,1,80,2|0
304,304,4792,2,0,B|352:256|424:256,1,120,2|0
464,192,5574,5,4
400,144,5886,2,0,B|336:128|288:176,1,120,2|0
216,216,6667,2,0,B|200:256|208:312,2,80,2|0|0
136,192,7605,6,0,B|120:152|128:104,1,80,2|0
184,56,8230,2,0,B|264:56,1,80,2|0
336,96,8855,2,0,B|352:136|344:184,1,80,2|0
256,192,9324,12,4,11824
360,192,13074,6,0,B|192:192,1,160,2|0
136,240,14011,1,0
152,320,14324,6,0,B|192:344,1,40,0|2
264,360,14792,1,0
344,352,15105,1,0
416,312,15417,2,0,B|480:264|464:160,1,160,4|2
408,64,16511,1,0
328,72,16824,6,0,B|248:96|160:48,1,160,4|0
56,168,18074,2,0,B|136:144|224:192,1,160,2|0
264,248,19011,1,0
304,320,19324,6,0,B|352:344|432:328,1,120,4|4
472,264,20105,2,0,B|488:224|480:184,1,80,4|4
256,192,20574,12,4,21824
128,112,22449,6,0,B|104:176|144:224,1,119.999996423721,0|2
264,256,23699,1,0
360,176,24324,2,0,B|368:104|432:72,2,119.999996423721,2|0|2
392,296,26199,2,0,B|336:328|264:304,1,119.999996423721,0|2
160,328,27449,5,0
88,232,28074,2,0,B|56:176|80:112,1,119.999996423721,2|0
176,48,29324,2,0,B|296:40,1,119.999996423721,2|0
352,48,30261,1,0
392,88,30574,6,0,B|416:208,1,119.999996423721,4|0
376,320,31824,1,4
256,344,32449,6,0,B|152:280,1,119.999996423721,0|2
176,160,33699,1,0
288,208,34324,2,0,B|328:160|328:96,1,119.999996423721,2|0
216,48,35574,2,0,B|160:80|88:56,2,119.999996423721,2|0|2
216,168,37449,6,0,B|192:224,1,59.9999982118607
168,280,38074,1,2
200,336,38386,2,0,B|264:352,1,59.9999982118607
320,352,39011,1,0
376,328,39324,6,0,B|416:280|400:208,1,119.999996423721,4|0
416,152,40261,2,0,B|320:24|152:40,1,299.999991059304,4|4
96,96,42136,6,0,B|48:160|80:256,1,160,0|0
136,304,43074,1,2
296,328,43698,1,0
376,344,44011,1,2
440,200,44636,5,0
360,216,44949,2,0,B|296:224|240:176,1,120,0|2
208,112,45730,2,0,B|184:72|128:64,1,80,2|0
72,96,46355,2,0,B|32:144|48:208,1,120,0|2
88,280,47136,6,0,B|152:344|248:304,1,160,4|0
304,264,48074,1,2
256,112,48699,1,0
336,128,49011,1,2
408,88,49324,6,0,B|432:120|432:168,1,80,4|0
400,240,49949,2,0,B|336:232|296:288,2,120
176,152,51824,2,0,B|88:184|40:88,1,160,4|0
256,192,53074,12,4,54324
304,240,54949,6,0,B|396:264|452:176,1,160,0|2
328,80,56199,1,0
168,88,56824,5,2
104,128,57136,2,0,B|56:192|96:288,1,160
152,336,58073,1,2
312,360,58699,1,0
432,256,59324,1,4
408,184,59636,6,0,B|392:144|400:96,1,80
352,40,60261,1,0
272,48,60574,2,0,B|192:80|112:32,1,160,2|0
56,88,61511,6,0,B|32:120|40:176,1,80,0|2
40,248,62136,2,0,B|64:280|120:280,2,80,0|2|0
256,192,63074,12,4,64324
368,216,64949,6,0,B|392:248|384:296,1,80,2|0
312,328,65574,2,0,B|232:360|152:304,1,160,2|0
48,192,66824,1,2
64,112,67136,5,0
128,64,67449,1,0
288,40,68074,1,2
432,112,68698,1,0
464,272,69324,1,4
400,320,69636,6,0,B|320:352|240:296,1,160,2|0
200,232,70574,2,0,B|176:160|104:152,1,120
80,80,71355,6,0,B|112:40|152:32,1,80
328,80,72292,1,2
256,192,72917,12,4,74324
136,144,74949,6,0,B|80:176|96:248,1,119.999996423721,0|2
184,336,76199,2,0,B|248:360|304:320,1,119.999996423721,0|2
360,336,77136,6,0,B|384:280|456:256,2,119.999996423721
328,288,78699,2,0,B|304:224|336:160,1,119.999996423721,2|4
392,72,79949,5,0
272,48,80574,2,0,B|160:120|48:16,2,239.999992847443,2|2|2
312,160,83699,1,0
208,216,84324,6,0,B|168:264|184:336,2,119.999996423721,4|0|2
304,296,86199,1,0
424,264,86824,1,2
448,208,87136,6,0,B|472:144|432:88,1,119.999996423721
392,56,88074,1,2
320,152,88699,1,0
208,112,89324,1,4
152,104,89636,6,0,B|120:48,2,59.9999982118607
112,144,90574,1,2
104,264,91199,1,0
144,312,91511,6,0,B|176:320,1,30.0000011444092,0|4
264,320,92136,2,0,B|296:304,1,30.0000011444092,0|4
256,192,92917,12,4,94324
112,304,94949,5,0
272,336,95574,2,0,B|336:272|424:296,2,160,2|0|2
176,208,97449,5,0
336,200,98074,2,0,B|376:144|352:80,1,120,4|0
248,40,99011,1,0
168,64,99324,6,0,B|136:144|184:224,1,160,4|0
256,256,100261,1,0
200,320,100574,1,2
360,344,101199,1,0
456,216,101824,2,0,B|400:192|384:104,1,120,4|4
256,216,102917,1,4
256,192,103074,12,0,107761
