osu file format v9

[General]
AudioFilename: 04 - Barbarian On The Groove -.mp3
AudioLeadIn: 0
PreviewTime: 24395
Countdown: 0
SampleSet: Soft
StackLeniency: 0.7
Mode: 1
LetterboxInBreaks: 0

[Editor]
Bookmarks: 24551,42551,66551,90551,35270
DistanceSpacing: 0
BeatDivisor: 4
GridSize: 4

[Metadata]
Title:Yoi ni Kanawazu
Artist:Barbarian On The Groove feat. Ichiru Takizawa
Creator:Garven
Version:Taiko Muzukashii
Source:
Tags:Lanttu Dragon Valley Arco-Iris Ryuukoku no Niji

[Difficulty]
HPDrainRate:6
CircleSize:5
OverallDifficulty:6
ApproachRate:6
SliderMultiplier:1.4
SliderTickRate:0.5

[Events]
//Background and Video events
0,0,"027.jpg"
//Break Periods
//Storyboard Layer 0 (Background)
//Storyboard Layer 1 (Fail)
//Storyboard Layer 2 (Pass)
//Storyboard Layer 3 (Foreground)
//Storyboard Sound Samples
//Background Colour Transformations
3,100,163,162,255

[TimingPoints]
597.35474537037,375,4,2,1,100,1,0
66597,-100,4,2,1,100,0,1
78597,-100,4,2,1,100,0,0
90395,-100,4,2,1,50,0,0
101739,-100,4,2,1,75,0,0
102395,-100,4,2,1,100,0,0
114597,-100,4,2,1,100,0,1
126597,-100,4,2,1,100,0,0

[Colours]
Combo1 : 255,187,85
Combo2 : 40,204,78
Combo3 : 2,16,183
Combo4 : 251,79,79

[HitObjects]
256,192,12596,1,0
256,192,12972,1,2
256,192,13159,1,0
256,192,13347,1,0
256,192,13722,1,2
256,192,14097,1,0
256,192,14284,1,0
256,192,14659,1,2
256,192,14847,1,0
256,192,15222,1,2
256,192,15597,1,0
256,192,16159,1,2
256,192,16347,1,0
256,192,16722,1,2
256,192,17097,1,0
256,192,17284,1,2
256,192,17659,1,2
256,192,18222,1,2
256,192,18597,5,0
256,192,19159,1,2
256,192,19347,1,0
256,192,19722,1,2
256,192,20097,1,0
256,192,20284,1,0
256,192,20659,1,2
256,192,20847,1,0
256,192,21222,1,2
256,192,21597,1,0
256,192,22159,1,2
256,192,22347,1,0
256,192,22722,1,2
256,192,23097,1,2
256,192,23284,1,0
256,192,23472,1,0
256,192,23659,1,2
256,192,23847,1,0
256,192,24222,1,0
256,192,24597,5,0
256,192,24972,1,2
256,192,25159,1,0
256,192,25534,1,0
256,192,25722,1,0
256,192,26097,1,0
256,192,26284,1,0
256,192,26472,1,2
256,192,26659,1,0
256,192,27034,1,2
256,192,27222,1,2
256,192,27597,1,0
256,192,27972,1,2
256,192,28159,1,0
256,192,28534,1,0
256,192,28722,1,0
256,192,29097,1,0
256,192,29284,1,2
256,192,29472,1,2
256,192,30034,1,2
256,192,30597,5,0
256,192,30972,1,2
256,192,31159,1,0
256,192,31534,1,0
256,192,31722,1,2
256,192,32097,1,0
256,192,32472,1,0
256,192,33034,1,2
256,192,33222,1,2
256,192,33597,1,0
256,192,33972,1,2
256,192,34159,1,0
256,192,34534,1,0
256,192,34722,1,2
256,192,35097,1,0
256,192,35284,1,2
256,192,35472,1,2
256,192,35659,1,0
256,192,35847,1,0
256,192,36222,1,2
256,192,36597,5,0
256,192,36972,1,2
256,192,37159,1,0
256,192,37347,1,0
256,192,37722,1,2
256,192,38097,1,0
256,192,38472,1,2
256,192,38659,1,0
256,192,39034,1,2
256,192,39222,1,2
256,192,39597,1,0
256,192,39972,1,2
256,192,40159,1,0
256,192,40347,1,0
256,192,40534,1,2
256,192,40722,1,2
256,192,41097,1,0
256,192,41284,1,0
256,192,41472,1,0
256,192,41847,1,0
256,192,42034,1,2
256,192,42597,5,0
256,192,42972,1,2
256,192,43159,1,0
256,192,43347,1,0
256,192,43722,1,2
256,192,43909,1,0
256,192,44097,1,0
256,192,44472,1,0
256,192,44659,1,0
256,192,45034,1,2
256,192,45222,1,2
256,192,45597,1,0
256,192,45972,1,2
256,192,46159,1,0
256,192,46347,1,0
256,192,46534,1,2
256,192,46722,1,2
256,192,47097,1,0
256,192,47284,1,0
256,192,47472,1,0
256,192,47847,1,2
256,192,48034,1,2
256,192,48597,5,0
256,192,48972,1,2
256,192,49159,1,0
256,192,49347,1,0
256,192,49534,1,2
256,192,49722,1,2
256,192,50097,1,0
256,192,50284,1,0
256,192,50472,1,0
256,192,51034,1,2
256,192,51222,1,2
256,192,51597,1,0
256,192,51784,1,2
256,192,51972,1,2
256,192,52347,1,2
256,192,52534,1,0
256,192,52722,1,0
256,192,53284,1,0
256,192,53472,1,2
256,192,53847,1,2
256,192,54222,2,0,B|328:192,1,70
256,192,54597,5,0
256,192,54972,1,0
256,192,55159,1,2
256,192,55534,1,2
256,192,55722,1,0
256,192,56097,1,0
256,192,56284,1,0
256,192,56472,1,2
256,192,56659,1,0
256,192,57034,1,2
256,192,57222,1,2
256,192,57409,1,0
256,192,57597,1,0
256,192,57972,1,2
256,192,58159,1,0
256,192,58534,1,0
256,192,58722,1,0
256,192,59284,1,0
256,192,59471,1,2
256,192,59659,1,0
256,192,60222,1,2
256,192,60597,5,0
256,192,60972,1,2
256,192,61159,1,2
256,192,61534,1,0
256,192,61722,1,0
256,192,61909,1,0
256,192,62097,1,0
256,192,62472,1,2
256,192,62659,1,0
256,192,63222,1,0
256,192,63409,1,0
256,192,63597,1,4
256,192,63972,1,4
256,192,64347,1,4
256,192,64534,1,0
256,192,64722,1,0
256,192,64909,1,0
256,192,65097,1,6
256,192,65472,1,6
256,192,66034,1,6
256,192,66222,1,4
256,192,66597,5,0
256,192,66784,1,0
256,192,66878,1,0
256,192,66972,1,2
256,192,67159,1,2
256,192,67347,1,0
256,192,67534,1,0
256,192,67722,1,2
256,192,67909,1,0
256,192,68097,1,4
256,192,68472,1,4
256,192,68847,1,4
256,192,69034,1,2
256,192,69222,1,2
256,192,69409,1,0
256,192,69597,1,0
256,192,69784,1,0
256,192,69878,1,0
256,192,69972,1,2
256,192,70159,1,0
256,192,70347,1,2
256,192,70534,1,0
256,192,70722,1,2
256,192,70909,1,0
256,192,71097,1,6
256,192,71472,1,6
256,192,71847,1,4
256,192,72034,1,0
256,192,72222,1,2
256,192,72597,5,4
256,192,72784,1,0
256,192,72878,1,0
256,192,72972,1,2
256,192,73159,1,0
256,192,73347,1,2
256,192,73534,1,0
256,192,73722,1,2
256,192,73909,1,0
256,192,74097,1,0
256,192,74284,1,0
256,192,74378,1,0
256,192,74472,1,0
256,192,74659,1,0
256,192,74753,1,0
256,192,74847,1,0
256,192,75034,1,2
256,192,75222,1,2
256,192,75409,1,0
256,192,75597,1,4
256,192,75784,1,0
256,192,75878,1,0
256,192,75972,1,2
256,192,76159,1,0
256,192,76347,1,4
256,192,76534,1,0
256,192,76722,1,2
256,192,76909,1,0
256,192,77097,1,4
256,192,77284,1,0
256,192,77378,1,0
256,192,77472,1,2
256,192,77659,1,6
256,192,77847,1,4
256,192,78034,1,2
256,192,78222,1,2
256,192,78409,1,0
256,192,78597,5,0
256,192,78972,1,2
256,192,79159,1,0
256,192,79347,1,0
256,192,79722,1,2
256,192,80097,1,0
256,192,80659,1,2
256,192,80847,1,0
256,192,81222,1,2
256,192,81597,1,0
256,192,82159,1,2
256,192,82347,1,0
256,192,82722,1,2
256,192,83097,1,0
256,192,83659,1,2
256,192,83847,1,0
256,192,84222,1,0
256,192,84597,5,2
256,192,85159,1,2
256,192,85347,1,0
256,192,85722,1,2
256,192,86097,1,0
256,192,86285,1,0
256,192,86659,1,2
256,192,86847,1,0
256,192,87222,1,2
256,192,87597,1,0
256,192,88159,1,2
256,192,88347,1,0
256,192,88722,1,2
256,192,89097,1,0
256,192,89284,1,0
256,192,89472,1,2
256,192,89659,1,2
256,192,89847,1,0
256,192,90222,1,2
256,192,90597,5,0
256,192,91159,1,0
256,192,91347,1,0
256,192,91909,1,0
256,192,92097,1,0
256,192,92659,1,0
256,192,92847,1,0
256,192,93597,1,0
256,192,94159,1,0
256,192,94347,1,0
256,192,94909,1,0
256,192,95097,1,0
256,192,95659,1,0
256,192,95847,1,0
256,192,96222,1,2
256,192,96597,5,0
256,192,97159,1,0
256,192,97347,1,0
256,192,97909,1,0
256,192,98097,1,0
256,192,98659,1,0
256,192,98847,1,0
256,192,99597,1,0
256,192,100159,1,0
256,192,100347,1,0
256,192,100909,1,0
256,192,101097,1,0
256,192,101659,1,0
256,192,101847,1,0
256,192,102222,1,2
256,192,102597,5,0
256,192,103159,1,2
256,192,103347,1,0
256,192,103628,1,0
256,192,103722,1,2
256,192,104097,1,0
256,192,104659,1,2
256,192,104847,1,0
256,192,105128,1,2
256,192,105222,1,2
256,192,105597,1,0
256,192,106159,1,2
256,192,106347,1,0
256,192,106628,1,2
256,192,106722,1,2
256,192,107097,1,0
256,192,107659,1,2
256,192,107847,1,0
256,192,108222,1,2
256,192,108597,5,0
256,192,109159,1,2
256,192,109347,1,0
256,192,109722,1,2
256,192,110097,1,0
256,192,110284,1,2
256,192,110659,1,2
256,192,110847,1,0
256,192,111222,1,2
256,192,111409,1,0
256,192,111597,1,4
256,192,111972,1,4
256,192,112347,1,4
256,192,112721,1,0
256,192,112909,1,0
256,192,113097,1,6
256,192,113472,1,6
256,192,114034,1,10
256,192,114222,1,4
256,192,114597,5,4
256,192,114784,1,0
256,192,114878,1,0
256,192,114972,1,2
256,192,115159,1,2
256,192,115347,1,0
256,192,115534,1,2
256,192,115722,1,2
256,192,115909,1,2
256,192,116097,1,6
256,192,116472,1,6
256,192,116659,1,2
256,192,116847,1,0
256,192,117034,1,2
256,192,117222,1,2
256,192,117409,1,0
256,192,117597,1,4
256,192,117784,1,0
256,192,117878,1,0
256,192,117972,1,2
256,192,118159,1,0
256,192,118347,1,2
256,192,118534,1,0
256,192,118722,1,2
256,192,118909,1,2
256,192,119097,1,4
256,192,119472,1,4
256,192,119847,1,4
256,192,120034,1,2
256,192,120128,1,2
256,192,120222,1,2
256,192,120409,1,0
256,192,120597,5,4
256,192,120784,1,0
256,192,120878,1,0
256,192,120972,1,2
256,192,121159,1,2
256,192,121347,1,0
256,192,121534,1,2
256,192,121722,1,2
256,192,121909,1,0
256,192,122097,1,4
256,192,122472,1,4
256,192,122847,1,6
256,192,123034,1,0
256,192,123222,1,2
256,192,123409,1,2
256,192,123597,1,4
256,192,123972,1,2
256,192,124159,1,0
256,192,124347,1,4
256,192,124534,1,2
256,192,124909,1,2
256,192,125097,12,0,126550
256,192,126597,5,4
