osu file format v9

[General]
AudioFilename: 04 - Barbarian On The Groove -.mp3
AudioLeadIn: 0
PreviewTime: 24395
Countdown: 0
SampleSet: Soft
StackLeniency: 0.7
Mode: 0
LetterboxInBreaks: 0

[Editor]
Bookmarks: 24551,42551,66551,90551
DistanceSpacing: 1.2
BeatDivisor: 4
GridSize: 4

[Metadata]
Title:Yoi ni Kanawazu
Artist:Barbarian On The Groove feat. Ichiru Takizawa
Creator:Garven
Version:Normal
Source:
Tags:Lanttu Dragon Valley Arco-Iris Ryuukoku no Niji

[Difficulty]
HPDrainRate:3
CircleSize:3
OverallDifficulty:3
ApproachRate:4
SliderMultiplier:0.85
SliderTickRate:0.5

[Events]
//Background and Video events
0,0,"027.jpg"
//Break Periods
2,78796,89277
//Storyboard Layer 0 (Background)
//Storyboard Layer 1 (Fail)
//Storyboard Layer 2 (Pass)
//Storyboard Layer 3 (Foreground)
//Storyboard Sound Samples
//Background Colour Transformations
3,100,163,162,255

[TimingPoints]
597.35474537037,375,4,2,1,100,1,0
12176,-100,4,1,1,100,0,0
12926,-100,4,2,1,100,0,0
13957,-100,4,1,1,100,0,0
14145,-100,4,2,1,100,0,0
15363,-100,4,1,1,100,0,0
15926,-100,4,2,1,100,0,0
16957,-100,4,1,1,100,0,0
17426,-100,4,2,1,100,0,0
18363,-100,4,1,1,100,0,0
18738,-100,4,2,1,100,0,0
19957,-100,4,1,1,100,0,0
20238,-100,4,2,1,100,0,0
21363,-100,4,1,1,100,0,0
21926,-100,4,2,1,100,0,0
23332,-100,4,1,1,100,0,0
23520,-100,4,2,1,100,0,0
23988,-100,4,1,1,80,0,0
24738,-100,4,2,1,80,0,0
27363,-100,4,1,1,81,0,0
27738,-100,4,2,1,80,0,0
30457,-100,4,1,1,80,0,0
30738,-100,4,2,1,80,0,0
34113,-100,4,1,1,80,0,0
34488,-100,4,2,1,79,0,0
35707,-100,4,1,1,100,0,0
36738,-100,4,2,1,100,0,0
37895,-100,4,1,1,100,0,0
38270,-100,4,2,1,100,0,0
39363,-100,4,1,1,100,0,0
39738,-100,4,2,1,100,0,0
41707,-100,4,1,1,100,0,0
41895,-100,4,2,1,100,0,0
42457,-100,4,1,1,81,0,0
42738,-100,4,2,1,81,0,0
45395,-100,4,1,1,81,0,0
45770,-100,4,2,1,80,0,0
48489,-100,4,1,1,81,0,0
48677,-100,4,2,1,80,0,0
49895,-100,4,1,1,80,0,0
50177,-100,4,2,1,80,0,0
52145,-100,4,1,1,80,0,0
52520,-100,4,2,1,80,0,0
53364,-100,4,1,1,80,0,0
53552,-100,4,2,1,80,0,0
56364,-100,4,1,1,82,0,0
56552,-100,4,2,1,79,0,0
59364,-100,4,1,1,80,0,0
59552,-100,4,2,1,79,0,0
62364,-100,4,1,1,80,0,0
62552,-100,4,2,1,80,0,0
64239,-100,4,1,1,80,0,0
64520,-100,4,2,1,80,0,0
65645,-100,4,1,1,81,0,0
65927,-100,4,2,1,79,0,0
66363,-100,4,1,1,100,0,0
66738,-100,4,2,1,100,0,0
67957,-100,4,1,1,100,0,0
68613,-100,4,2,1,100,0,0
69489,-100,4,1,1,100,0,0
69770,-100,4,2,1,100,0,0
70989,-100,4,1,1,100,0,0
71645,-100,4,2,1,100,0,0
72395,-100,4,1,1,100,0,0
72770,-100,4,2,1,100,0,0
73989,-100,4,1,1,100,0,0
74270,-100,4,2,1,100,0,0
75489,-100,4,1,1,100,0,0
76052,-100,4,2,1,100,0,0
77270,-100,4,1,1,100,0,0
77833,-133.333333333333,4,2,1,100,0,0
78489,-100,4,1,1,0,0,0
89833,-100,4,1,1,30,0,0
96208,-100,4,2,1,30,0,0
96583,-100,4,1,1,30,0,0
102208,-100,4,1,1,70,0,0
102583,-100,4,2,1,70,0,0
104364,-100,4,1,1,70,0,0
104552,-100,4,2,1,70,0,0
107364,-100,4,1,1,70,0,0
107552,-100,4,2,1,70,0,0
110364,-100,4,1,1,71,0,0
110552,-100,4,2,1,70,0,0
112145,-100,4,1,1,70,0,0
112520,-100,4,2,1,70,0,0
113364,-100,4,1,1,100,0,0
113645,-100,4,2,1,100,0,0
114395,-100,4,1,1,100,0,0
114770,-100,4,2,1,100,0,0
115989,-100,4,1,1,100,0,0
116645,-100,4,2,1,100,0,0
117395,-100,4,1,1,100,0,0
117677,-100,4,2,1,100,0,0
118989,-100,4,1,1,100,0,0
119645,-100,4,2,1,100,0,0
120395,-100,4,1,1,100,0,0
120770,-100,4,2,1,100,0,0
121989,-100,4,1,1,100,0,0
122270,-100,4,2,1,100,0,0
123489,-100,4,1,1,100,0,0
124052,-100,4,2,1,100,0,0
125270,-100,4,1,1,100,0,0
125645,-100,4,2,1,100,0,0
126395,-100,4,1,1,0,0,0

[Colours]
Combo1 : 255,187,85
Combo2 : 40,204,78
Combo3 : 2,16,183
Combo4 : 251,79,79

[HitObjects]
76,192,12597,2,0,B|68:92|172:72,1,170,0|8
256,20,13722,1,2
342,72,14097,2,0,B|444:92|436:192,1,170,0|0
304,344,15597,6,0,B|316:296|256:260|196:296|208:344,1,170,0|8
168,248,16722,1,2
208,152,17097,2,0,B|196:199|256:235|316:199|304:151,1,170
480,48,18597,6,0,B|480:76|448:88|448:88|480:108|480:128|480:200,1,170,0|8
480,296,19722,1,2
376,296,20097,2,0,B|332:300|284:296|280:248|284:188,1,170
152,36,21597,6,0,B|108:36|108:36|80:36|80:64|80:64|80:144,1,170,0|8
80,248,22722,1,8
164,308,23097,1,2
256,348,23472,1,0
348,308,23847,1,2
256,124,24597,6,0,B|196:192|184:204|196:204|280:204,1,170,0|8
380,204,25722,1,2
480,204,26097,2,0,B|520:160|484:124|484:124|448:88,1,127.5,0|2
420,64,26847,1,0
216,36,27597,6,0,B|120:32|92:64|96:120,1,170,0|8
96,216,28722,1,0
180,276,29097,1,2
280,252,29472,1,2
376,216,29847,1,2
256,48,30597,6,0,B|208:48|164:88|164:168,1,170,0|8
256,212,31722,1,0
352,244,32097,2,0,B|400:244|444:204|444:124,1,170,2|0
348,84,33222,1,2
256,48,33597,6,0,B|168:52,1,85,2|0
84,128,34347,2,0,B|168:132,1,85
256,208,35097,1,2
156,212,35472,1,8
56,216,35847,1,8
232,308,36597,6,0,B|288:308|352:344|400:344,1,170,0|8
464,268,37722,1,2
396,192,38097,2,0,B|350:191|286:227|230:227,1,170
136,268,39222,1,2
68,192,39597,6,0,B|80:96|184:92,1,170,0|8
288,92,40722,1,0
372,148,41097,1,2
372,248,41472,1,8
288,308,41847,1,0
120,192,42597,6,0,B|224:192|256:108,1,170,0|8
256,8,43722,1,2
256,109,44097,2,0,B|288:192|392:192,1,170
492,192,45222,1,2
492,292,45597,6,0,B|436:364|344:364,1,170,0|8
244,356,46722,1,0
164,292,47097,1,2
132,196,47472,1,2
152,96,47847,1,8
152,96,48034,1,2
256,208,48597,6,0,B|304:284|400:288,1,170,0|8
464,212,49722,1,2
364,192,50097,2,0,B|340:284|264:324,1,170
164,340,51222,1,2
84,280,51597,6,0,B|64:240|64:196,1,85,2|0
164,196,52347,2,0,B|164:154|144:114,1,85
80,36,53097,1,10
36,128,53472,1,8
36,228,53847,1,8
216,328,54597,5,0
216,328,54972,1,2
216,328,55347,1,0
136,140,56097,1,2
224,84,56472,1,0
268,112,56659,1,0
312,140,56847,1,2
440,300,57597,5,0
440,300,57972,1,2
440,300,58347,1,0
256,212,59097,1,2
160,252,59472,1,0
132,212,59659,1,0
160,168,59847,1,2
328,56,60597,5,0
328,56,60972,1,2
328,56,61347,1,0
428,236,62097,1,2
364,316,62472,1,0
328,352,62659,1,0
276,352,62847,1,2
200,284,63222,6,0,B|196:240|200:200,1,85,0|2
272,124,63972,1,0
340,48,64347,2,0,B|384:48|412:88,1,85
444,184,65097,1,10
368,252,65472,1,8
288,188,65847,2,0,B|288:144,2,42.5,0|8|8
208,252,66597,6,0,B|168:192|208:132,1,127.5,0|8
244,96,67347,2,0,B|304:56|364:96,1,127.5,2|8
372,144,68097,1,0
364,244,68472,1,0
264,260,68847,1,0
268,160,69222,1,10
192,92,69597,6,0,B|124:92|92:160,1,127.5,0|8
140,180,70347,2,0,B|132:248|64:272,1,127.5,2|8
32,312,71097,1,0
128,348,71472,1,0
224,312,71847,2,0,B|268:312,2,42.5,2|8|8
128,272,72597,6,0,B|64:240|52:172,1,127.5,0|8
52,124,73347,2,0,B|63:59|127:27,1,127.5,2|8
176,20,74097,1,0
256,80,74472,1,2
340,20,74847,1,0
388,12,75034,1,8
440,20,75222,1,8
388,108,75597,5,0
124,108,76347,1,10
256,324,77097,1,0
256,224,77472,1,10
256,124,77847,2,0,B|208:80|312:56|256:12,1,127.499996200204,10|0
136,92,90597,5,0
160,228,91347,1,2
256,324,92097,1,0
352,228,92847,1,2
376,92,93597,5,0
256,28,94347,1,2
136,92,95097,1,0
256,152,95847,2,0,B|256:236,2,85,0|0|0
148,236,97347,5,2
80,116,98097,1,0
216,116,98847,1,0
324,32,99597,5,0
412,136,100347,1,2
324,240,101097,1,0
188,240,101847,1,0
112,280,102222,1,0
36,240,102597,5,0
36,240,102972,1,2
36,240,103347,1,8
116,52,104097,1,8
200,108,104472,1,0
244,80,104659,1,2
288,52,104847,1,8
476,240,105597,5,0
476,240,105972,1,2
476,240,106347,1,8
396,52,107097,1,8
312,108,107472,1,0
268,80,107659,1,2
224,52,107847,1,8
256,288,108597,5,0
256,288,108972,1,2
256,288,109347,1,8
256,84,110097,1,8
204,172,110472,1,0
256,180,110659,1,2
308,172,110847,1,8
388,108,111222,5,0
472,168,111597,1,2
424,260,111972,1,0
340,320,112347,2,0,B|296:328|276:288|256:328|212:320,1,127.5,0|2
164,304,113097,1,8
100,224,113472,1,8
164,144,113847,2,0,B|164:96,2,42.5,2|8|8
228,224,114597,6,0,B|284:280|340:224,1,127.5,0|8
376,188,115347,2,0,B|432:132|488:188,1,127.5,2|8
504,236,116097,1,0
428,304,116472,1,8
332,332,116847,1,2
232,308,117222,1,8
144,252,117597,6,0,B|84:192|84:144,1,127.5,0|8
44,108,118347,2,0,B|104:48|152:48,1,127.5,2|8
204,48,119097,1,0
304,60,119472,1,8
404,76,119847,2,0,B|464:84,2,42.5,2|8|8
340,156,120597,6,0,B|340:204|340:204|340:240|304:256|276:228,1,127.5,0|8
260,192,121347,2,0,B|241:171|205:187|205:223|205:223|205:271,1,127.5,2|8
204,320,122097,1,0
304,308,122472,1,10
404,292,122847,1,0
444,260,123034,1,8
460,212,123222,1,8
400,128,123597,5,0
112,128,124347,1,2
308,264,125097,1,10
208,264,125472,1,8
256,172,125847,2,0,B|216:128|224:84|256:44|288:84|296:128|264:140,1,170,2|0
