osu file format v9

[General]
AudioFilename: Hora ne- Barbarian On The Groove feat.Chata.mp3
AudioLeadIn: 2000
PreviewTime: 57352
Countdown: 0
SampleSet: Soft
StackLeniency: 0.7
Mode: 0
LetterboxInBreaks: 1

[Editor]
Bookmarks: 5913
DistanceSpacing: 1
BeatDivisor: 4
GridSize: 8

[Metadata]
Title:Hora ne
Artist:Barbarian On The Groove feat. Chata
Creator:KenezzEdward
Version:Easy
Source:Kashimashi Communication
Tags:lovhin456 axl

[Difficulty]
HPDrainRate:1
CircleSize:3
OverallDifficulty:1
ApproachRate:1
SliderMultiplier:0.8
SliderTickRate:1

[Events]
//Background and Video events
0,0,"BG.jpg"
Video,0,"KashimashiCommunication.avi"
//Break Periods
//Storyboard Layer 0 (Background)
//Storyboard Layer 1 (Fail)
//Storyboard Layer 2 (Pass)
//Storyboard Layer 3 (Foreground)
//Storyboard Sound Samples
//Background Colour Transformations
3,100,163,162,255

[TimingPoints]
3986,394.736842105263,4,2,0,90,1,0
57670,-100,4,2,0,90,0,1
81749,-100,4,2,0,90,0,0
95959,-100,4,2,0,90,0,1
96058,-100,4,2,0,90,0,0

[Colours]
Combo1 : 255,128,128
Combo2 : 255,128,192
Combo3 : 255,255,128
Combo4 : 0,128,255

[HitObjects]
256,192,828,12,4,3196
223,55,3986,1,4
223,55,4380,2,0,B|151:103|151:191,2,160,8|8|8
336,168,6749,2,0,B|335:254|264:303,2,160,8|8|8
222,54,9117,2,0,B|126:54|126:158,1,160,8|8
128,232,10301,5,4
208,232,10696,2,0,B|280:200|280:280|360:232,2,160,8|8|8
128,232,12670,1,0
168,160,13064,2,0,B|196:86|252:143|275:52,2,160,8|8|8
168,320,15433,6,0,B|208:352|256:264|256:264|304:352|344:320,1,240,8|4
360,240,17012,6,0,B|400:160|328:96,1,160,2|2
168,96,18591,2,0,B|96:159|136:239,1,160,2|2
176,312,19775,5,0
336,312,20564,1,0
256,176,21354,2,0,B|200:104|312:104|256:32,2,160,2|0|4
256,352,24117,6,0,B|256:288|256:288|247:280|247:280|264:280|264:280|256:272|256:272|255:214,2,160,2|2|2
176,352,26091,2,0,B|80:352|80:248,1,160,4|0
256,192,27275,12,4,29249
176,96,30038,6,0,B|256:144|328:96,2,160
62,209,32407,2,0,B|175:322,1,160,4|0
336,320,33986,2,0,B|449:206,2,160,0|0|4
256,296,35959,5,8
176,160,36749,2,0,B|256:112|328:160,1,160,8|8
288,232,37933,1,0
288,232,38328,1,8
320,304,38722,2,0,B|249:351|169:303,1,160,4|0
160,144,40301,5,4
216,88,40696,1,8
296,88,41091,1,4
352,144,41485,1,8
328,216,41880,2,0,B|256:280|184:216,1,160,4|0
160,100,43262,6,0,B|216:43,1,80,4|4
296,44,44051,2,0,B|352:100,1,80,4|4
376,220,45038,6,0,B|343:300|255:356|167:300|135:220,2,320,0|0|4
376,140,48591,5,8
232,72,49380,2,0,B|168:143|231:214,2,160,8|8|8
312,72,51354,2,8,B|397:156,1,120,4|4
400,240,52341,2,0,B|320:240,1,80,0|4
120,240,53722,5,0
120,160,54117,1,4
256,192,54512,12,0,56880
256,96,57670,5,4
200,152,58064,1,8
144,208,58459,2,0,B|257:320,2,160,0|0|0
256,96,60828,5,0
312,152,61222,1,8
368,208,61617,2,0,B|254:321,2,160,0|0|0
368,48,63985,6,0,B|448:48,2,80,4|8|0
288,48,65170,2,0,B|224:104|224:192,1,160,8|8
224,272,66354,1,0
304,272,66749,1,8
384,272,67143,6,0,B|384:192,1,80,4|8
296,104,68130,2,0,B|216:104,1,80,0|4
256,256,69314,2,0,B|256:336,1,80,0|4
344,256,70301,5,4
392,192,70696,1,8
392,112,71091,2,0,B|352:88|320:112|320:112|280:88|240:112,2,160
320,256,73459,5,4
240,256,73854,1,8
160,256,74249,2,0,B|136:216|160:184|160:184|136:144|160:104,2,160,0|0|0
312,304,76617,5,4
312,224,77012,2,0,B|392:224,2,80,8|0|8
312,144,78196,2,0,B|240:80|168:144,1,160
256,280,79775,5,4
312,224,80170,1,8
432,224,80762,2,0,B|432:144,1,80,4|4
376,88,81551,2,0,B|347:59,1,40,4|4
112,120,82933,6,0,B|64:192|112:272,2,160,4|0|0
256,192,85301,1,0
400,120,86091,6,0,B|448:192|400:272,2,160,4|0|0
256,192,88459,1,0
96,192,89249,6,0,B|209:305,1,160,4|0
368,288,90828,2,0,B|481:174,1,160,2|0
368,200,92407,5,4
328,272,92801,1,2
256,296,93196,2,0,B|200:320|136:296,1,120,0|4
256,144,94972,6,0,B|256:40,1,100,0|0
256,192,95959,12,2,99117
