osu file format v7

[General]
AudioFilename: Nightcore - Where Is The Love_1.mp3
AudioLeadIn: 0
PreviewTime: 41811
Countdown: 1
SampleSet: Normal
StackLeniency: 0.7
Mode: 0
LetterboxInBreaks: 0
EpilepsyWarning: 1

[Editor]
DistanceSpacing: 0.800000011920929
BeatDivisor: 4
GridSize: 8

[Metadata]
Title:Where Is The Love (Nightcore Mix)
Artist:Baracuda
Creator:adron zhero
Version:I Found Love
Source:
Tags:

[Difficulty]
HPDrainRate:2
CircleSize:3
OverallDifficulty:1
SliderMultiplier:1.7
SliderTickRate:1

[Events]
//Background and Video events
0,0,"anime_wallpapers-1131225105_i_6112_.jpg"
//Break Periods
2,17960,18790
2,29477,29630
2,39640,40470
2,64030,64860
2,74870,75700
2,86388,86540
2,96550,97380
2,120941,132611
//Storyboard Layer 0 (Background)
//Storyboard Layer 1 (Fail)
//Storyboard Layer 2 (Pass)
//Storyboard Layer 3 (Foreground)
//Storyboard Sound Samples
//Background Colour Transformations
3,100,163,162,255

[TimingPoints]
1500,677.506775067751,4,1,0,100,1,0
9460,-100,4,2,0,100,0,0
42150,-100,4,1,0,100,0,1
51635,-100,4,1,0,100,0,0
52990,-100,4,1,0,100,0,1
63153,-100,4,1,0,100,0,0
66371,-100,4,2,0,100,0,0
77211,-100,4,1,0,100,0,0
99060,-100,4,1,0,100,0,1
108546,-100,4,1,0,100,0,0
109901,-100,4,1,0,100,0,1
120741,-100,4,1,0,100,0,0
137001,-100,4,1,0,100,0,1
143776,-100,4,1,0,100,0,0
145131,-100,4,1,0,100,0,1
154616,-100,4,1,0,100,0,0
155971,-100,4,1,0,100,0,1
166811,-100,4,1,0,100,0,0
168166,-100,4,1,0,100,0,1
168505,-100,4,1,0,100,0,0

[Colours]
Combo1 : 252,101,101
Combo2 : 255,206,255
Combo3 : 188,188,254

[HitObjects]
64,112,9630,2,0,B|152:72|240:120,1,170,2|8
184,240,10985,2,0,B|144:272|88:232,2,85,2|2|8
312,288,12340,6,0,B|400:336|480:288,1,170,2|8
432,160,13695,2,0,B|400:112|344:176,2,85,2|2|8
328,72,15050,6,0,B|152:72,1,170,2|8
200,200,16405,2,0,B|320:200,4,85,2|2|8|2|4
256,304,20470,5,2
256,304,21147,1,8
120,304,21825,1,2
120,240,22163,1,2
120,176,22502,1,8
256,176,23180,5,2
256,176,23857,1,8
392,176,24535,1,2
392,112,24873,1,2
392,48,25212,1,8
256,48,25890,6,0,B|80:48,1,170,2|8
80,184,27245,1,2
144,184,27584,1,2
144,248,27922,1,8
208,248,28261,1,2
208,312,28600,1,8
208,312,29277,1,4
464,312,31310,6,0,B|264:312,1,170,2|8
296,176,32665,2,0,B|480:176,1,170,2|8
464,40,34020,2,0,B|272:40,2,170,2|8|2
192,40,36730,6,0,B|8:40,1,170,2|8
24,176,38085,2,0,B|208:176,2,170,2|8|2
56,296,42150,6,0,B|152:256|232:304,1,170,0|8
288,184,43505,2,0,B|368:224|456:184,1,170,0|8
344,96,44860,6,0,B|264:48|160:112,1,170,0|8
72,176,46215,2,0,B|120:144|160:184,2,85,0|0|8
168,80,47570,5,0
304,80,48247,1,8
240,200,48925,1,0
376,200,49602,1,8
304,312,50280,5,0
168,312,50957,1,8
304,312,51635,1,4
440,72,52990,6,0,B|256:72,1,170,0|8
384,152,54345,1,0
248,152,55023,1,8
360,232,55700,6,0,B|176:232,1,170,0|8
104,128,57055,1,0
104,128,57394,1,0
104,128,57733,1,8
216,208,58410,6,0,B|288:128|216:56,1,170,0|8
352,56,59765,2,0,B|424:136|344:232,1,170,0|8
456,312,61120,5,0
328,264,61798,1,8
192,288,62475,1,0
192,288,63830,5,4
64,72,66540,5,2
200,72,67218,1,8
64,72,67895,2,0,B|120:160|64:240,1,170,2|8
176,320,69250,5,2
312,320,69928,1,8
176,320,70605,2,0,B|176:224|272:192,1,170,2|8
400,232,71960,6,0,B|400:120|296:88,1,170,2|8
184,64,73315,1,2
144,120,73654,1,2
104,176,73993,1,8
152,224,74331,1,2
208,264,74670,1,2
64,320,77380,6,0,B|248:320,1,170,0|8
234,320,78735,1,0
280,272,79074,1,0
328,224,79413,1,8
328,224,80090,6,0,B|328:48,1,170,0|8
328,54,81445,1,0
272,96,81784,1,0
216,136,82123,1,8
104,64,82800,6,0,B|104:240,1,170,0|8
104,234,84155,1,0
168,256,84494,1,0
232,272,84833,2,0,B|408:272,1,170,8|8
402,272,86188,1,0
400,64,88220,5,0
128,64,89575,5,0
128,336,90930,5,0
400,328,92285,5,0
168,192,93640,5,0
440,192,94995,5,0
168,192,96350,5,0
256,64,99060,6,0,B|256:240,1,170,0|8
192,112,100415,2,0,B|112:64|16:120,1,170,0|8
136,200,101771,5,0
64,312,102448,1,8
200,312,103126,1,0
264,312,103464,1,0
328,312,103803,1,8
448,240,104481,6,0,B|360:184|264:248,1,170,0|8
152,248,105836,2,0,B|152:64,1,170,0|8
288,48,107191,5,0
416,80,107868,1,8
320,176,108546,1,4
72,72,109901,5,0
208,72,110578,1,8
136,192,111256,1,0
56,304,111933,2,0,B|144:352|240:288,1,170,8|0
136,192,113288,5,8
248,272,113966,2,0,B|288:184|232:88,1,170,0|8
368,48,115321,5,0
296,168,115998,1,8
432,168,116676,1,0
448,304,117353,2,0,B|256:304,1,170,8|0
144,328,118708,5,8
96,200,119386,1,0
360,144,120741,5,4
256,48,134291,5,0
232,184,134968,1,0
256,320,135646,1,0
280,184,136323,1,0
168,264,137001,5,0
56,192,137678,1,8
168,112,138356,1,0
280,192,139033,1,8
280,192,139711,5,0
344,72,140388,1,8
408,192,141066,1,0
344,312,141743,1,8
208,288,142421,2,0,B|112:256|104:152,1,170,0|8
105,164,143776,1,0
352,48,145131,6,0,B|448:80|440:184,1,170,0|8
312,136,146486,2,0,B|304:232|432:272,1,170,0|8
280,320,147841,2,0,B|168:344|112:280,1,170,0|8
240,232,149196,2,0,B|160:176|56:216,1,170,0|8
128,80,150551,5,0
128,80,151228,1,8
248,136,151906,1,0
376,88,152584,1,8
376,88,153261,1,0
440,208,153939,1,8
360,320,154616,1,4
360,320,155971,5,0
272,216,156649,1,8
280,352,157326,1,0
352,240,158004,1,8
224,288,158681,5,0
120,192,159359,1,8
96,328,160036,1,0
184,224,160714,1,8
216,96,161391,6,0,B|400:96,1,170,0|8
472,208,162746,2,0,B|288:208,1,170,0|8
256,192,164101,12,0,168166
