osu file format v7

[General]
AudioFilename: La Di Da (Nightcore Ver).mp3
AudioLeadIn: 3000
PreviewTime: 29672
Countdown: 0
SampleSet: Soft
StackLeniency: 0.4
Mode: 0
LetterboxInBreaks: 1

[Editor]
DistanceSpacing: 0.899999976158142
BeatDivisor: 1
GridSize: 8

[Metadata]
Title:La Di Da (Nightcore Mix)
Artist:Baracuda
Creator:ztrot
Version:La
Source:
Tags:Trance rave Rukarioman Kecco JarJarJacob

[Difficulty]
HPDrainRate:6
CircleSize:4
OverallDifficulty:5
SliderMultiplier:1.6
SliderTickRate:2

[Events]
//Background and Video events
0,0,"BG.png"
//Break Periods
2,103349,108007
//Storyboard Layer 0 (Background)
//Storyboard Layer 1 (Fail)
//Storyboard Layer 2 (Pass)
//Storyboard Layer 3 (Foreground)
//Storyboard Sound Samples
//Background Colour Transformations
3,100,163,162,255

[TimingPoints]
1242,369.230769230769,4,2,1,100,1,0
30780,-100,4,2,1,100,0,1
54411,-100,4,2,1,100,0,0
79518,-100,4,2,1,100,0,1
103149,-100,4,2,1,100,0,0
110718,-100,4,2,1,60,0,0
111365,-100,4,2,1,0,0,0
114595,-100,4,2,1,11,0,0
116349,-100,4,2,1,21,0,0
117826,-100,4,2,1,40,0,0
120780,-100,4,2,1,70,0,0
126780,-100,4,2,1,100,0,1
150411,-100,4,2,1,0,0,0

[Colours]
Combo1 : 168,0,0
Combo2 : 98,0,196
Combo3 : 0,0,191
Combo4 : 255,157,255

[HitObjects]
256,56,1242,1,2
408,296,1980,1,2
104,296,2718,1,2
408,88,4195,5,2
104,88,4934,1,2
256,328,5672,1,2
72,272,7149,5,2
256,48,7888,1,2
440,272,8626,1,2
64,56,9734,5,0
64,56,10103,1,2
256,272,10841,1,2
448,56,11580,1,2
120,264,12688,5,0
120,264,13057,2,0,B|256:416|408:256,2,320,2|2|2
256,8,15272,1,0
116,259,16011,6,0,B|256:120|400:264,2,320,2|2|2
488,40,18595,5,0
368,120,18965,2,0,B|184:88|128:288,2,320,2|2|2
24,40,21180,1,0
144,120,21918,6,0,B|328:88|384:288,2,320,2|2|2
256,192,24872,5,2
32,344,25611,1,2
32,40,26349,1,2
256,192,27088,1,0
480,40,27826,5,2
480,344,28565,1,2
256,192,29303,1,2
56,336,30780,6,0,B|144:320|168:224,2,160,2|8|2
256,128,32257,5,2
392,72,32626,1,8
384,216,32995,1,2
256,272,33365,1,8
128,216,33734,6,0,B|32:216|16:112,2,160,2|8|2
432,336,35211,5,2
464,192,35580,1,8
352,104,35949,1,2
256,208,36318,1,8
160,104,36688,5,2
48,192,37057,1,8
80,336,37426,1,2
328,192,38165,5,2
328,336,38534,1,8
184,336,38903,1,2
184,192,39272,1,8
304,112,39641,6,0,B|128:112,1,160,2|8
256,208,40380,2,0,B|424:208,1,160,2|8
328,336,41118,1,4
120,136,41857,5,2
256,80,42226,1,8
392,136,42595,1,2
328,264,42965,1,8
184,264,43334,1,2
464,336,44072,5,2
440,192,44441,1,8
328,104,44811,1,2
256,232,45180,1,8
184,104,45549,6,0,B|56:208,2,160,2|8|2
432,256,47026,5,2
304,312,47395,1,8
312,168,47765,1,2
80,256,48503,5,2
208,312,48872,1,8
200,168,49241,1,2
400,80,49980,5,2
256,64,50349,1,8
112,80,50718,1,2
400,200,51457,6,0,B|256:320|88:192,1,320,2|2
184,80,52565,1,8
328,80,52934,1,0
256,192,53303,12,2,55888
112,272,56626,5,2
400,272,57365,1,2
256,240,57734,1,0
256,96,58103,1,0
432,320,58841,6,0,B|256:368|120:264,2,320,2|2|2
256,88,61057,5,0
160,200,61426,1,0
80,320,61795,6,0,B|256:368|384:269,2,320,2|2|2
256,88,64011,5,0
256,232,64380,1,0
384,160,64749,2,0,B|384:360|176:344,2,320,2|2|2
112,72,66965,5,0
256,56,67334,1,0
256,200,67703,6,0,B|112:288,1,160,2|0
256,200,68441,2,0,B|392:288,1,160,2|0
344,136,69180,5,2
256,56,69549,1,0
256,200,69918,1,0
168,136,70288,1,0
344,136,70657,6,0,B|488:200|416:360|272:296,2,320,2|2|2
168,136,73611,6,0,B|24:200|96:360|240:296,2,320,2|2|2
360,352,75826,1,0
168,136,76565,6,0,B|344:24|456:240,2,320,2|2|2
456,344,79518,5,2
320,304,79888,1,8
432,216,80257,1,2
184,64,80995,5,2
112,192,81365,1,8
256,224,81734,1,2
328,64,82472,5,2
256,272,82841,1,8
184,64,83211,1,2
64,328,83949,6,0,B|176:208,1,160,2|8
256,328,84688,2,0,B|368:208,1,160,2|8
256,48,85426,6,0,B|72:80|80:280,2,320,2|2|2
384,120,87272,1,8
256,192,87641,1,2
256,336,88011,1,8
128,272,88380,6,0,B|32:72|256:24,2,320,2|2|2
344,192,91334,5,2
256,304,91703,1,8
160,192,92072,1,2
432,96,92811,5,2
296,48,93180,1,8
256,184,93549,1,2
216,48,93918,1,8
80,96,94288,6,0,B|184:224,2,160,2|8|2
256,320,95765,6,0,B|416:272,1,160,2|8
256,176,96503,2,0,B|96:128,1,160,2|8
176,248,97241,6,0,B|344:248,2,160,2|8|2
440,136,98718,5,2
328,48,99088,1,8
184,48,99457,1,2
72,136,99826,1,8
256,128,100195,5,2
256,272,100565,1,8
312,152,100934,1,2
208,264,101303,1,8
312,208,101672,1,2
64,64,102411,5,0
128,192,102780,1,0
256,120,103149,1,4
256,192,109057,12,0,110534
256,192,111272,12,0,113488
256,336,114965,5,0
88,104,115703,1,0
440,192,116441,1,0
72,192,117180,1,0
424,104,117918,5,0
256,336,118657,1,0
88,104,119395,1,0
384,264,120134,1,0
128,264,120872,5,0
256,8,121611,1,0
384,264,122349,1,0
136,120,123088,1,0
376,120,123826,5,0
136,120,124195,1,0
392,120,124565,1,0
120,120,124934,1,0
256,168,125303,1,0
456,48,126780,6,0,B|368:64|344:160,2,160,2|8|2
256,256,128257,5,2
120,312,128626,1,8
128,168,128995,1,2
256,112,129365,1,8
384,168,129734,6,0,B|480:168|496:272,2,160,2|8|2
80,48,131211,5,2
48,192,131580,1,8
160,280,131949,1,2
256,176,132318,1,8
352,280,132688,5,2
464,192,133057,1,8
432,48,133426,1,2
184,192,134165,5,2
184,48,134534,1,8
328,48,134903,1,2
328,192,135272,1,8
208,272,135641,6,0,B|384:272,1,160,2|8
256,176,136380,2,0,B|88:176,1,160,2|8
184,48,137118,1,4
392,248,137857,5,2
256,304,138226,1,8
120,248,138595,1,2
184,120,138965,1,8
328,120,139334,1,2
48,48,140072,5,2
72,192,140441,1,8
184,280,140811,1,2
256,152,141180,1,8
328,280,141549,6,0,B|456:176,2,160,2|8|2
80,128,143026,5,2
208,72,143395,1,8
200,216,143765,1,2
432,128,144503,5,2
304,72,144872,1,8
312,216,145241,1,2
112,304,145980,5,2
256,320,146349,1,8
400,304,146718,1,2
112,184,147457,6,0,B|256:64|424:192,1,320,2|2
328,304,148565,1,8
184,304,148934,1,0
256,192,149303,12,0,153734
