osu file format v6

[General]
AudioFilename: Baracuda - Future Trance-Best of - 06 - I Leave The World Today (Special D. Remix Edit).mp3
AudioLeadIn: 0
PreviewTime: 58970
Countdown: 1
SampleSet: Soft
StackLeniency: 0.7
Mode: 0
LetterboxInBreaks: 0

[Editor]
DistanceSpacing: 0.800000011920929
BeatDivisor: 6
GridSize: 8

[Metadata]
Title:I Leave The World Today (Special D. Remix Edit)
Artist:Baracuda
Creator:Rena-chan
Version:SFG Easy
Source:
Tags:

[Difficulty]
HPDrainRate:3
CircleSize:4
OverallDifficulty:4
SliderMultiplier:1.4
SliderTickRate:2

[Events]
//Background and Video events
0,0,"iltwt_bg.jpg"
//Break Periods
2,43968,48997
2,79461,84701
2,106503,111744
//Storyboard Layer 0 (Background)
Sprite,Background,Centre,"iltwt_background_pattern.jpg",320,240 M,0,-386,11655,320,240,315,240 F,0,0,191032,1 F,0,191032,191443,1,0
//Storyboard Layer 1 (Fail)
//Storyboard Layer 2 (Pass)
//Storyboard Layer 3 (Foreground)
Sprite,Foreground,Centre,"Untitled-3.png",320,240 M,2,11233,11655,-80,288,448,288 S,0,11655,,0.48 F,0,15036,15458,1,0
//Storyboard Sound Samples
//Background Colour Transformations
3,100,255,255,255

[TimingPoints]
15036,422.535072463769,4,2,0,100,1,0
26866,-100,4,2,0,80,0,0
27289,-100,4,2,0,60,0,0
28557,-100,4,2,0,100,0,0
29824,-100,4,2,0,100,0,0
55176,-100,4,2,0,100,0,0
58662,-100,4,2,0,100,0,0
74613,-100,4,2,0,100,0,0
79261,-100,4,2,0,100,0,0
79261,-100,4,2,0,100,0,0
103345,-100,4,2,0,80,0,0
103768,-100,4,2,0,60,0,0
106303,-100,4,2,0,80,0,0
106726,-100,4,2,0,100,0,0
111558,-100,4,2,0,71,0,0
120669,-100,4,2,0,91,0,0
134613,-100,4,2,0,100,0,0

[HitObjects]
96,48,15036,2,0,B|392:48,1,280,4|8
240,296,16726,2,0,B|16:296,2,210,4|0|8
360,224,18416,5,4
256,56,19261,1,8
160,168,19895,1,4
256,208,21796,6,0,B|256:352,2,140,8|0|4
408,88,23486,1,8
256,88,24120,1,4
256,88,24543,1,0
256,192,25176,12,4,28134
304,192,28979,6,0,B|296:152|280:136|264:128|248:136|232:152|232:200,3,140,0|0|0|4
416,56,31937,6,0,B|248:192,1,210,8|4
48,48,33627,1,2
240,48,34472,1,2
136,160,35106,1,6
256,256,36796,6,0,B|256:184,1,70,0|4
368,40,38275,1,0
368,40,38697,2,0,B|144:40,2,210,2|8|0
256,192,40388,12,4,43768
408,72,50317,6,0,B|320:72,1,70,0|4
144,72,51374,1,8
144,72,51796,2,0,B|192:176|272:216|352:176|416:48,1,350,0|4
256,264,53909,6,8,B|256:80,3,140,8|0|8|0
256,64,55388,2,0,B|328:64,7,70,8|0|0|8|8|0|8|8
256,192,57289,12,4,58979
256,192,59824,5,4
448,192,60669,2,0,B|304:192,1,140
232,128,61514,2,0,B|376:128,2,140,8|8|4
256,320,63204,5,4
256,120,64050,2,0,B|256:40,8,70,8|0|0|0|8|0|8|8|12
440,64,66585,5,4
288,192,67430,2,0,B|120:192,1,140,8|0
224,128,68275,2,8,B|224:56,2,70
224,224,69120,5,4
320,56,69965,1,2
120,56,70810,1,4
224,224,71655,2,8,B|224:304,4,70,8|0|8|8|4
424,32,73345,6,0,B|216:232,2,280,0|4|0
144,40,75881,2,0,B|80:80|96:120|152:144,3,140,4|0|4|0
280,88,77571,2,0,B|352:88,8,70,0|2|2|0|2|2|4|0|4
104,56,86021,6,0,B|104:312,1,210,4|0
176,264,86866,2,0,B|176:40,1,210,4|0
248,48,87712,2,0,B|248:272,1,210,4|0
320,256,88557,1,8
320,112,88979,1,8
432,192,89402,6,0,B|208:192,1,210,4|0
184,128,90247,2,0,B|416:128,1,210,4|0
440,72,91092,1,2
296,72,91514,1,2
152,72,91937,1,8
8,72,92359,1,8
88,184,92782,5,4
368,192,93627,1,8
232,48,94472,1,4
232,328,95317,1,8
392,64,96162,5,4
112,64,97007,1,8
112,344,97852,1,4
392,344,98697,2,0,B|488:344,4,70,2|2|8|8|4
288,304,99965,5,0
288,192,100388,1,8
384,248,100810,1,0
384,136,101233,1,8
288,192,101655,1,0
192,136,102078,1,2
288,192,102500,1,2
256,192,102923,12,4,106303
320,104,113064,6,0,B|176:104,7,140,2|8|2|8|2|8|2|4
184,240,116444,6,0,B|336:240,8,140,2|8|2|8|2|8|2|8|4
416,48,121514,6,0,B|120:48,1,280,4|8
272,296,123204,2,0,B|496:296,2,210,4|0|8
152,224,124894,5,4
256,56,125739,1,8
352,168,126373,1,4
256,208,128274,6,0,B|256:352,2,140,8|0|4
104,88,129964,1,8
256,88,130598,1,4
424,88,131233,1,8
256,192,131654,12,4,134190
360,128,135035,6,2,L|304:72|184:72|128:136,1,280,2|4
352,200,136726,2,8,L|128:200,1,210,0|8
88,80,138416,6,2,B|88:160|128:224|216:232|288:232,2,280,4|2|4
408,72,141796,5,8
176,72,142641,1,2
296,256,143486,1,8
296,88,144120,2,0,B|296:240,1,140,2|8
200,88,145176,6,0,B|216:208|200:312|88:320,1,280,0|4
112,152,146655,1,4
256,256,148345,6,0,B|256:168,1,70,0|4
448,72,149402,1,2
336,72,149824,2,0,B|176:72,1,140,0|8
48,152,150881,2,0,B|416:152,1,350,8|4
256,320,152782,1,4
256,152,153416,1,8
408,72,155106,6,0,B|320:72,1,70,0|4
144,72,156163,1,8
144,72,156585,2,0,B|192:176|272:216|352:176|416:48,1,350,0|4
403,72,158064,1,2
256,120,158698,6,8,B|256:304,3,140,8|0|8|0
256,320,160177,2,0,B|328:320,7,70,8|0|0|8|8|0|8|8
256,216,162078,5,4
448,72,162923,1,2
336,72,163345,2,0,B|176:72,1,140,0|8
48,152,164402,2,0,B|416:152,1,350,8|4
256,320,166303,1,4
256,152,166937,1,8
408,72,168627,6,0,B|320:72,1,70,0|4
144,72,169684,1,8
144,72,170106,2,0,B|192:176|272:216|352:176|416:48,1,350,0|4
403,72,171585,1,2
256,120,172219,6,8,B|256:304,3,140,8|0|8|0
256,320,173698,2,0,B|328:320,9,70,0|8|0|8|0|8|8|8|2|4
