osu file format v13

[General]
AudioFilename: Future_Trance_United_Face_2_Face_Special_D_mp3_-_Download_.mp3
AudioLeadIn: 0
PreviewTime: 72750
Countdown: 1
SampleSet: Soft
StackLeniency: 0.7
Mode: 0
LetterboxInBreaks: 1
WidescreenStoryboard: 1

[Editor]
Bookmarks: 32181,55846,74440,94725,172482,199528
DistanceSpacing: 0.8
BeatDivisor: 2
GridSize: 8
TimelineZoom: 1

[Metadata]
Title:Face 2 Face (Special D Remix)
TitleUnicode:Face 2 Face (Special D Remix)
Artist:Baracuda
ArtistUnicode:Baracuda
Creator:Thor
Version:Normal
Source:
Tags:
BeatmapID:451811
BeatmapSetID:151064

[Difficulty]
HPDrainRate:4
CircleSize:3
OverallDifficulty:4
ApproachRate:5
SliderMultiplier:1.6
SliderTickRate:2

[Events]
//Background and Video events
0,0,"Konachan.com - 124435 sample.jpg",0,0
//Break Periods
2,101687,113810
2,128732,130713
2,145636,154379
//Storyboard Layer 0 (Background)
//Storyboard Layer 1 (Fail)
//Storyboard Layer 2 (Pass)
//Storyboard Layer 3 (Foreground)
//Storyboard Sound Samples
//Background Colour Transformations
3,100,163,162,255

[TimingPoints]
1754,422.594731652345,4,2,0,60,1,0
32181,-100,4,1,0,80,0,1
55846,-100,4,2,0,60,0,0
74440,-100,4,1,0,80,0,1
94725,-100,4,2,0,60,0,0
172482,-100,4,1,0,80,0,1
199528,-100,4,2,0,60,0,0

[HitObjects]
256,192,15277,12,2,16968,0:0:0:0:
86,173,17813,6,0,P|168:200|248:168,1,160,2|0,0:0|0:0,0:0:0:0:
299,177,18447,1,0,0:0:0:0:
362,177,18658,1,2,0:0:0:0:
362,177,19081,1,0,0:0:0:0:
135,296,19503,6,0,P|81:223|83:133,1,160,2|0,0:0|0:0,0:0:0:0:
167,65,20348,1,2,0:0:0:0:
295,65,20771,1,0,0:0:0:0:
295,193,21194,1,2,0:0:0:0:
340,238,21405,1,0,0:0:0:0:
385,283,21616,1,0,0:0:0:0:
475,192,22039,2,0,P|455:98|384:59,1,160,2|0,0:0|0:0,0:0:0:0:
315,154,22884,6,0,P|237:201|153:158,1,160,2|0,0:0|0:0,0:0:0:0:
64,128,23729,2,0,P|107:44|187:-4,1,160,2|0,0:0|0:0,0:0:0:0:
272,56,24574,1,0,0:0:0:0:
379,126,24997,1,2,0:0:0:0:
311,234,25419,2,0,P|237:275|183:207,1,160,2|0,0:0|0:0,0:0:0:0:
96,144,26265,2,0,L|96:272,2,80,0|0|2,0:0|0:0|0:0,0:0:0:0:
176,168,26899,2,0,L|176:64,1,80,0|2,0:0|0:0,0:0:0:0:
256,192,27321,12,0,30491,0:0:0:0:
149,109,32181,5,0,0:0:0:0:
35,222,32604,1,8,0:0:0:0:
147,334,33026,1,0,0:0:0:0:
208,336,33237,1,0,0:0:0:0:
272,336,33449,1,8,0:0:0:0:
336,224,33871,2,8,B|416:185|280:128|439:70,1,160,0|8,0:0|0:0,0:0:0:0:
232,91,34717,6,8,P|152:91|93:168,1,160,0|8,0:0|0:0,0:0:0:0:
212,258,35562,1,0,0:0:0:0:
256,216,35773,1,0,0:0:0:0:
296,256,35984,1,8,0:0:0:0:
409,142,36407,1,0,0:0:0:0:
409,302,36830,1,8,0:0:0:0:
254,341,37252,2,8,P|163:334|108:273,1,160,0|8,0:0|0:0,0:0:0:0:
115,128,38097,5,0,0:0:0:0:
275,128,38520,1,8,0:0:0:0:
296,176,38731,1,0,0:0:0:0:
272,224,38942,1,0,0:0:0:0:
112,224,39365,2,0,P|65:143|81:31,1,160,8|0,0:0|0:0,0:0:0:0:
216,32,40210,1,8,0:0:0:0:
296,176,40633,2,0,P|239:128|182:175,1,160,0|8,0:0|0:0,0:0:0:0:
120,288,41478,5,0,0:0:0:0:
164,331,41689,1,0,0:0:0:0:
212,291,41901,1,8,0:0:0:0:
344,200,42323,2,0,P|384:266|328:330,2,160,0|0|0,0:0|0:0|0:0,0:0:0:0:
256,192,44014,12,4,45704,0:0:0:0:
256,48,46549,5,0,0:0:0:0:
176,192,46972,1,8,0:0:0:0:
336,192,47394,2,0,P|296:264|240:328,1,160,0|8,0:0|0:0,0:0:0:0:
85,322,48240,6,0,P|45:244|95:197,2,160,0|8|0,0:0|0:0|0:0,0:0:0:0:
122,323,49296,1,0,0:0:0:0:
160,323,49507,1,8,0:0:0:0:
272,208,49930,2,0,P|353:208|381:132,1,160,0|8,0:0|0:0,0:0:0:0:
256,48,50775,2,0,P|171:48|149:117,1,160,0|8,0:0|0:0,0:0:0:0:
114,244,51620,5,0,0:0:0:0:
255,318,52043,1,8,0:0:0:0:
397,244,52466,2,0,P|416:208|384:88,1,160,4|0,0:0|0:0,0:0:0:0:
232,96,53311,1,0,0:0:0:0:
119,208,53733,1,0,0:0:0:0:
232,321,54156,1,4,0:0:0:0:
344,208,54578,2,0,P|288:152|200:192,1,160,0|0,0:0|0:0,0:0:0:0:
183,288,55424,1,0,0:0:0:0:
256,192,55846,12,0,59227,0:0:0:0:
98,214,60917,6,8,P|175:170|256:192,1,160,2|2,0:0|0:0,0:0:0:0:
192,304,61763,2,8,P|264:312|344:248,1,160,2|2,0:0|0:0,0:0:0:0:
368,208,62397,1,0,0:0:0:0:
384,144,62608,1,4,0:1:0:0:
152,305,64298,6,8,P|96:245|122:164,2,160,2|2|2,0:0|0:0|0:0,0:0:0:0:
216,304,65355,2,0,L|311:304,2,80,0|2|0,0:0|0:0|0:0,0:0:0:0:
184,224,65989,1,4,0:1:0:0:
128,112,67679,6,0,P|207:134|287:110,1,160,2|2,0:0|0:0,0:0:0:0:
279,246,68524,2,0,P|200:256|119:246,1,160,2|2,0:0|0:0,0:0:0:0:
119,358,69369,2,0,P|199:365|288:360,1,160,2|2,0:0|0:0,0:0:0:0:
373,274,70215,1,2,0:0:0:0:
373,146,70637,1,2,0:0:0:0:
282,55,71060,2,0,P|211:120|128:96,4,160,2|2|2|2|0,0:0|0:0|0:0|0:0|0:0,0:0:0:0:
256,192,72961,12,4,74440,0:0:0:0:
112,192,74863,5,8,0:0:0:0:
225,78,75286,1,0,0:0:0:0:
337,190,75708,1,8,0:0:0:0:
450,303,76131,5,0,0:0:0:0:
450,261,76342,1,0,0:0:0:0:
451,223,76553,1,8,0:0:0:0:
337,109,76976,6,0,P|272:143|196:97,1,160,0|8,0:0|0:0,0:0:0:0:
87,218,77821,1,0,0:0:0:0:
200,331,78244,1,8,0:1:0:0:
312,218,78666,5,0,0:1:0:0:
311,179,78878,1,0,0:0:0:0:
311,140,79089,1,8,0:1:0:0:
197,253,79512,6,0,P|149:177|183:107,1,160,4|8,0:1|0:0,0:0:0:0:
313,41,80357,1,0,0:0:0:0:
425,153,80779,5,8,0:0:0:0:
391,180,80991,1,0,0:0:0:0:
359,207,81202,1,0,0:0:0:0:
288,352,81625,2,0,P|234:287|234:203,1,160,8|0,0:0|0:0,0:0:0:0:
136,88,82470,6,0,P|222:67|294:99,1,160,8|0,0:0|0:0,0:0:0:0:
334,182,83315,1,8,0:0:0:0:
220,295,83738,1,0,0:0:0:0:
107,182,84160,1,8,0:0:0:0:
216,64,84583,2,0,P|264:40|368:72,3,160,0|8|0|8,0:0|0:0|0:0|0:0,0:0:0:0:
352,216,86273,5,0,0:0:0:0:
352,55,86696,1,8,0:0:0:0:
192,55,87118,1,0,0:0:0:0:
192,215,87541,5,8,0:0:0:0:
351,215,87963,1,0,0:0:0:0:
272,72,88386,1,8,0:0:0:0:
111,72,88809,2,8,P|82:154|119:229,1,160,0|8,0:0|0:0,0:0:0:0:
136,248,89443,1,0,0:0:0:0:
176,264,89654,1,0,0:0:0:0:
288,384,90076,6,0,P|328:328|304:240,1,160,8|0,0:0|0:0,0:0:0:0:
224,104,90922,1,8,0:0:0:0:
168,256,91344,1,0,0:0:0:0:
328,264,91766,1,0,0:0:0:0:
328,104,92189,1,8,0:0:0:0:
224,152,92612,5,8,0:0:0:0:
184,152,92823,1,0,0:0:0:0:
144,152,93035,1,0,0:0:0:0:
16,64,93457,2,0,P|-22:136|14:213,1,160,8|0,0:0|0:0,0:0:0:0:
128,304,94302,1,8,0:0:0:0:
256,192,94725,12,0,96204,0:0:0:0:
256,192,96415,12,4,98106,0:0:0:0:
80,224,99796,6,0,P|160:152|216:168,1,160,0|0,0:0|0:0,0:0:0:0:
176,256,100641,2,0,P|240:264|288:160,1,160,0|0,0:0|0:0,0:0:0:0:
280,96,101487,1,0,0:0:0:0:
188,233,115010,6,0,P|113:264|36:218,1,160,8|2,0:0|0:0,0:0:0:0:
70,91,115855,1,8,0:0:0:0:
115,142,116066,1,0,0:0:0:0:
160,90,116277,1,2,0:0:0:0:
320,80,116699,6,0,P|395:49|472:95,1,160,8|2,0:0|0:0,0:0:0:0:
438,222,117544,1,8,0:0:0:0:
393,171,117755,1,0,0:0:0:0:
348,223,117966,1,2,0:0:0:0:
188,231,118390,6,0,P|120:182|120:104,1,160,8|2,0:0|0:0,0:0:0:0:
244,111,119235,2,0,L|330:110,2,80,8|0|2,0:0|0:0|0:0,0:0:0:0:
244,239,120081,2,0,P|245:278|359:326,1,160,8|2,0:0|0:0,0:0:0:0:
368,208,120926,1,8,0:0:0:0:
408,160,121137,1,0,0:0:0:0:
368,112,121348,1,2,0:0:0:0:
280,24,121771,1,8,0:0:0:0:
280,152,122194,1,2,0:0:0:0:
156,203,122616,6,0,L|96:268,2,80,8|0|2,0:0|0:0|0:0,0:0:0:0:
65,112,123461,1,8,0:0:0:0:
193,112,123884,1,2,0:0:0:0:
328,112,124307,2,0,L|328:4,2,80,8|0|2,0:0|0:0|0:0,0:0:0:0:
418,202,125152,1,0,0:0:0:0:
508,111,125574,1,0,0:0:0:0:
256,192,125997,12,0,127265,0:0:0:0:
119,238,127687,6,8,P|272:305|400:209,1,320,0|2,0:0|0:0,0:0:0:0:
368,88,131913,5,0,0:0:0:0:
368,216,132336,1,8,0:0:0:0:
277,306,132759,1,0,0:0:0:0:
149,306,133181,1,8,0:0:0:0:
56,224,133603,2,0,B|1:151|1:151|56:64,2,160,0|8|0,0:0|0:0|0:0,0:0:0:0:
148,305,134871,5,8,0:0:0:0:
276,305,135294,1,0,0:0:0:0:
368,216,135716,2,0,P|360:152|408:72,2,160,0|0|8,0:0|0:0|0:0,0:0:0:0:
366,341,136984,2,0,P|292:289|236:192,1,160,0|8,0:0|0:0,0:0:0:0:
161,142,137830,1,0,0:0:0:0:
33,142,138252,1,8,0:0:0:0:
97,252,138675,6,0,P|194:253|272:220,2,160,0|8|0,0:0|0:0|0:0,0:0:0:0:
44,135,139943,1,8,0:0:0:0:
134,44,140365,1,0,0:0:0:0:
262,44,140788,1,8,0:0:0:0:
372,135,141210,1,0,0:0:0:0:
372,262,141633,1,8,0:1:0:0:
281,352,142056,2,0,P|205:317|205:212,2,160,0|0|0,0:0|0:0|0:0,0:0:0:0:
461,171,143746,6,0,P|364:253|268:246,1,160,0|0,0:0|0:0,0:0:0:0:
207,257,144591,2,0,P|119:227|84:152,1,160,0|0,0:0|0:0,0:0:0:0:
208,144,145436,1,0,0:0:0:0:
256,192,155579,12,2,158959,0:0:0:0:
256,192,160650,5,2,0:0:0:0:
256,192,162340,1,2,0:0:0:0:
256,64,162763,1,0,0:0:0:0:
256,192,163185,1,0,0:0:0:0:
384,192,163608,1,0,0:0:0:0:
256,192,164031,1,2,0:0:0:0:
104,288,165721,6,8,B|160:240|160:200|160:200|232:200,1,160,2|0,0:0|0:0,0:0:0:0:
256,320,166565,1,0,0:0:0:0:
340,200,166988,1,0,0:0:0:0:
430,162,167411,1,0,0:0:0:0:
384,116,167623,1,0,0:0:0:0:
338,70,167834,1,0,0:0:0:0:
210,70,168256,2,0,P|256:136|194:194,1,160,0|0,0:0|0:0,0:0:0:0:
102,126,169102,1,2,0:0:0:0:
256,192,170792,12,0,172482,0:0:0:0:
254,277,172905,6,0,P|336:264|352:176,1,160,8|0,0:0|0:0,0:0:0:0:
245,85,173750,2,0,P|327:123|395:57,1,160,8|0,0:0|0:0,0:0:0:0:
488,168,174595,1,8,0:0:0:0:
432,288,175018,6,0,P|384:208|301:217,1,160,0|8,0:0|0:0,0:0:0:0:
215,335,175863,2,0,P|125:301|122:223,1,160,0|8,0:0|0:0,0:0:0:0:
114,207,176497,1,0,0:0:0:0:
126,168,176708,1,0,0:0:0:0:
239,54,177131,6,0,P|261:148|341:148,1,160,8|0,0:0|0:0,0:0:0:0:
416,240,177976,1,8,0:0:0:0:
312,319,178399,6,0,P|219:320|148:265,2,160,0|8|0,0:0|0:0|0:0,0:0:0:0:
425,205,179667,2,0,L|425:309,2,80,8|0|0,0:0|0:0|0:0,0:0:0:0:
311,91,180512,1,8,0:0:0:0:
151,91,180934,1,0,0:0:0:0:
226,232,181357,1,8,0:0:0:0:
339,345,181780,2,8,P|381:271|224:110,1,320,0|0,0:0|0:0,0:0:0:0:
141,221,183047,5,0,0:0:0:0:
254,334,183470,1,0,0:0:0:0:
141,221,183892,1,0,0:0:0:0:
141,60,184315,1,0,0:0:0:0:
254,173,184738,5,0,0:0:0:0:
366,60,185160,1,0,0:0:0:0:
336,96,185372,1,0,0:0:0:0:
304,120,185583,1,0,0:0:0:0:
144,120,186005,2,0,P|93:215|126:286,2,160,0|8|0,0:0|0:0|0:0,0:0:0:0:
304,120,187273,2,0,L|443:120,2,80,8|0|0,0:0|0:0|0:0,0:0:0:0:
231,262,188118,1,8,0:0:0:0:
86,330,188541,6,0,P|63:251|133:168,1,160,0|8,0:0|0:0,0:0:0:0:
258,186,189386,1,0,0:0:0:0:
418,186,189809,2,0,P|454:255|430:329,2,160,8|0|8,0:0|0:0|0:0,0:0:0:0:
360,128,191077,2,0,L|304:72,2,80,0|0|8,0:0|0:0|0:0,0:0:0:0:
190,185,191922,5,0,0:0:0:0:
77,297,192344,1,8,0:0:0:0:
77,136,192767,2,8,P|143:85|361:161,1,320,0|0,0:0|0:0,0:0:0:0:
351,305,194035,1,8,0:0:0:0:
312,304,194246,1,0,0:0:0:0:
271,303,194457,2,0,B|171:279|131:223|131:223|117:215,1,160,0|8,0:0|0:0,0:0:0:0:
247,113,195303,5,0,0:0:0:0:
406,113,195725,1,8,0:0:0:0:
247,113,196148,2,0,P|144:112|96:176,1,160,0|0,0:0|0:0,0:0:0:0:
107,308,196993,1,0,0:0:0:0:
267,308,197416,1,0,0:0:0:0:
256,192,197838,12,2,199528,0:0:0:0:
184,272,200373,6,8,P|256:296|360:240,2,160,0|2|8,0:0|0:0|0:0,0:0:0:0:
256,48,202064,2,8,L|256:224,1,160,2|0,0:0|0:0,0:0:0:0:
165,298,202909,1,2,0:0:0:0:
255,207,203332,1,0,0:0:0:0:
345,297,203754,1,2,0:0:0:0:
473,297,204177,2,8,L|410:230,2,80,0|0|2,0:0|0:0|0:0,0:0:0:0:
473,168,205445,6,8,P|453:87|377:52,1,160,2|0,0:0|0:0,0:0:0:0:
299,143,206290,1,0,0:0:0:0:
208,52,206713,1,0,0:0:0:0:
117,142,207135,1,0,0:0:0:0:
117,270,207558,1,0,0:0:0:0:
207,360,207980,2,8,P|235:274|213:190,1,160,0|0,0:0|0:0,0:0:0:0:
312,116,208826,2,8,P|351:201|344:302,1,160,0|0,0:0|0:0,0:0:0:0:
256,192,209671,12,4,213052,0:0:0:0:
