osu file format v13

[General]
AudioFilename: Future_Trance_United_Face_2_Face_Special_D_mp3_-_Download_.mp3
AudioLeadIn: 0
PreviewTime: 72750
Countdown: 1
SampleSet: Soft
StackLeniency: 0.7
Mode: 0
LetterboxInBreaks: 1
WidescreenStoryboard: 0

[Editor]
Bookmarks: 32181,34294,55846,74440,94725,172482,199528
DistanceSpacing: 0.8
BeatDivisor: 2
GridSize: 8
TimelineZoom: 1

[Metadata]
Title:Face 2 Face (Special D Remix)
TitleUnicode:Face 2 Face (Special D Remix)
Artist:Baracuda
ArtistUnicode:Baracuda
Creator:Thor
Version:Easy
Source:
Tags:
BeatmapID:451810
BeatmapSetID:151064

[Difficulty]
HPDrainRate:2.5
CircleSize:3
OverallDifficulty:2
ApproachRate:3
SliderMultiplier:1.2
SliderTickRate:1

[Events]
//Background and Video events
0,0,"Konachan.com - 124435 sample.jpg",0,0
//Break Periods
2,56046,59477
2,101687,113570
2,145636,155406
//Storyboard Layer 0 (Background)
//Storyboard Layer 1 (Fail)
//Storyboard Layer 2 (Pass)
//Storyboard Layer 3 (Foreground)
//Storyboard Sound Samples
//Background Colour Transformations
3,100,163,162,255

[TimingPoints]
1754,422.594731652345,4,2,0,60,1,0
32181,-100,4,1,0,80,0,1
55846,-100,4,2,0,60,0,0
74440,-100,4,1,0,80,0,1
94725,-100,4,2,0,60,0,0
172482,-100,4,1,0,80,0,1
199528,-100,4,2,0,60,0,0

[Colours]
Combo1 : 35,248,237
Combo2 : 230,0,5
Combo3 : 153,153,153

[HitObjects]
128,56,15277,6,0,P|88:104|128:264,1,240,2|2,0:0|0:0,0:0:0:0:
216,304,16545,2,0,P|240:240|216:168,1,120,0|2,0:0|0:0,0:0:0:0:
144,128,17390,5,0,0:0:0:0:
200,48,17813,1,2,0:0:0:0:
296,48,18235,1,0,0:0:0:0:
368,112,18658,2,8,P|423:160|344:284,1,240,2|2,0:0|0:0,0:0:0:0:
258,342,19926,5,0,0:0:0:0:
162,342,20348,1,2,0:0:0:0:
94,274,20771,1,0,0:0:0:0:
94,177,21194,1,2,0:0:0:0:
160,104,21616,2,0,P|207:131|287:115,2,120,0|2|0,0:0|0:0|0:0,0:0:0:0:
64,120,22884,6,0,P|89:173|148:203,1,120,2|0,0:0|0:0,0:0:0:0:
160,104,23729,2,0,P|240:48|344:120,1,240,2|0,0:0|0:0,0:0:0:0:
248,152,24997,2,0,L|216:280,1,120,2|2,0:0|0:0,0:0:0:0:
144,352,26265,1,0,0:0:0:0:
144,352,26687,1,2,0:0:0:0:
256,192,27110,12,0,30491,0:0:0:0:
256,192,32181,5,0,0:0:0:0:
188,124,32604,1,8,0:0:0:0:
280,88,33026,1,0,0:0:0:0:
344,160,33449,2,8,L|408:160,2,60,8|0|0,0:0|0:0|0:0,0:0:0:0:
216,56,34717,6,8,P|172:103|111:104,1,120,0|8,0:0|0:0,0:0:0:0:
51,174,35562,2,8,P|51:250|114:286,1,120,0|8,0:0|0:0,0:0:0:0:
176,280,36407,2,0,L|320:280,1,120,0|8,0:0|0:0,0:0:0:0:
390,269,37252,2,8,P|390:207|229:118,1,240,0|0,0:0|0:0,0:0:0:0:
257,208,38520,6,0,L|257:348,1,120,8|0,0:0|0:0,0:0:0:0:
160,328,39365,1,8,0:0:0:0:
92,260,39788,2,0,L|198:154,1,120,0|8,0:0|0:0,0:0:0:0:
244,107,40633,5,0,0:0:0:0:
311,174,41055,2,0,L|395:258,1,120,8|0,0:0|0:0,0:0:0:0:
463,190,41901,1,8,0:0:0:0:
395,122,42323,2,0,P|344:88|328:32,2,120,0|0|0,0:0|0:0|0:0,0:0:0:0:
464,192,43591,1,0,0:0:0:0:
256,192,44014,12,4,45704,0:0:0:0:
144,104,46549,5,0,0:0:0:0:
96,184,46972,1,8,0:0:0:0:
96,279,47394,1,0,0:0:0:0:
288,279,48240,6,0,P|332:236|331:162,1,120,0|8,0:0|0:0,0:0:0:0:
269,112,49085,1,0,0:0:0:0:
176,112,49507,1,8,0:0:0:0:
112,184,49930,1,0,0:0:0:0:
104,280,50353,2,0,P|158:328|248:325,1,120,8|0,0:0|0:0,0:0:0:0:
372,210,51620,5,0,0:0:0:0:
372,113,52043,1,8,0:0:0:0:
312,40,52466,2,0,P|240:80|184:88,1,120,4|0,0:0|0:0,0:0:0:0:
128,24,53311,6,0,P|96:96|128:160,1,120,0|0,0:0|0:0,0:0:0:0:
152,216,54156,2,0,L|192:264,2,60,4|0|0,0:0|0:0|0:0,0:0:0:0:
208,136,55001,1,0,0:0:0:0:
304,136,55424,1,0,0:0:0:0:
400,136,55846,1,0,0:0:0:0:
104,272,60917,6,0,P|184:304|344:264,1,240,2|2,0:0|0:0,0:0:0:0:
330,177,62185,1,2,0:0:0:0:
330,80,62608,1,4,0:1:0:0:
92,317,64298,6,0,B|167:317|201:265,1,120,2|2,0:0|0:0,0:0:0:0:
248,192,65143,1,2,0:0:0:0:
272,96,65566,1,2,0:0:0:0:
272,0,65989,1,4,0:1:0:0:
418,198,67679,6,0,P|404:135|349:100,1,120,2|2,0:0|0:0,0:0:0:0:
265,103,68524,1,2,0:0:0:0:
168,103,68947,1,2,0:0:0:0:
215,186,69369,1,2,0:0:0:0:
215,282,69792,1,2,0:0:0:0:
296,328,70215,2,0,P|352:296|352:208,1,120,2|2,0:0|0:0,0:0:0:0:
368,152,71060,6,0,B|368:96|368:96|328:64|328:64|280:64,1,120,2|2,0:0|0:0,0:0:0:0:
239,131,71905,1,2,0:0:0:0:
145,154,72327,1,2,0:0:0:0:
232,192,72750,2,0,P|277:244|420:179,1,240,0|0,0:0|0:0,0:0:0:0:
260,83,74440,6,8,P|173:83|132:228,1,240,4|0,0:0|0:0,0:0:0:0:
190,277,75708,1,8,0:0:0:0:
256,344,76131,1,0,0:0:0:0:
353,344,76553,1,8,0:0:0:0:
440,296,76976,2,2,P|436:220|412:180,1,120,0|8,0:0|0:0,0:0:0:0:
352,111,77821,5,0,0:0:0:0:
284,43,78244,1,8,0:1:0:0:
188,43,78666,1,0,0:1:0:0:
128,120,79089,2,0,L|88:64,2,60,8|0|4,0:1|0:0|0:1,0:0:0:0:
176,200,79934,6,8,P|229:224|296:194,2,120,8|0|8,0:0|0:0|0:0,0:0:0:0:
88,160,81202,2,8,P|60:96|106:50,1,120,0|8,0:0|0:0,0:0:0:0:
168,112,82047,2,8,L|296:112,1,120,0|8,0:0|0:0,0:0:0:0:
376,64,82892,2,8,P|406:112|376:161,1,120,0|8,0:0|0:0,0:0:0:0:
304,224,83738,1,0,0:0:0:0:
264,312,84160,1,8,0:0:0:0:
176,272,84583,5,0,0:0:0:0:
184,176,85005,2,0,P|252:141|252:67,1,120,8|0,0:0|0:0,0:0:0:0:
208,24,85851,1,8,0:0:0:0:
120,72,86273,2,0,P|89:128|124:224,2,120,0|8|0,0:0|0:0|0:0,0:0:0:0:
208,104,87541,2,0,P|282:131|322:91,1,120,8|0,0:0|0:0,0:0:0:0:
400,80,88386,5,8,0:0:0:0:
456,160,88809,1,0,0:0:0:0:
416,248,89231,2,2,P|360:280|296:304,1,120,8|0,0:0|0:0,0:0:0:0:
248,232,90076,5,8,0:0:0:0:
208,144,90499,1,0,0:0:0:0:
256,56,90922,1,8,0:0:0:0:
331,117,91344,6,0,L|358:180,2,60,0|0|8,0:0|0:0|0:0,0:0:0:0:
368,208,92189,1,0,0:0:0:0:
352,304,92612,2,0,L|224:304,1,120,8|0,0:0|0:0,0:0:0:0:
159,252,93457,6,0,P|122:196|154:133,1,120,8|0,0:0|0:0,0:0:0:0:
204,81,94302,2,0,P|252:155|224:205,1,120,8|4,0:0|0:0,0:0:0:0:
313,246,95148,1,0,0:0:0:0:
380,178,95570,1,0,0:0:0:0:
312,110,95993,2,0,P|252:84|203:123,1,120,0|4,0:0|0:0,0:0:0:0:
141,178,96838,5,0,0:0:0:0:
104,264,97261,1,4,0:0:0:0:
192,304,97683,1,4,0:0:0:0:
256,192,98106,12,0,101487,0:0:0:0:
96,176,115010,6,8,P|128:112|192:112,1,120,8|2,0:0|0:0,0:0:0:0:
224,184,115855,2,8,P|224:256|280:304,1,120,8|2,0:0|0:0,0:0:0:0:
352,296,116700,1,8,0:0:0:0:
424,232,117123,1,2,0:0:0:0:
440,136,117545,2,0,L|382:88,2,60,8|0|2,0:0|0:0|0:0,0:0:0:0:
287,87,118390,6,8,L|166:87,1,120,8|2,0:0|0:0,0:0:0:0:
99,154,119235,1,8,0:0:0:0:
166,221,119658,1,2,0:0:0:0:
98,288,120081,1,8,0:0:0:0:
98,288,120503,1,2,0:0:0:0:
189,316,120926,2,2,P|251:333|311:313,1,120,8|2,0:0|0:0,0:0:0:0:
371,250,121771,1,8,0:0:0:0:
371,153,122194,5,2,0:0:0:0:
320,72,122616,1,8,0:0:0:0:
224,72,123039,1,2,0:0:0:0:
156,139,123461,2,0,L|156:295,1,120,8|2,0:0|0:0,0:0:0:0:
224,328,124307,2,8,P|296:304|312:224,1,120,8|2,0:0|0:0,0:0:0:0:
256,192,126842,12,0,130223,0:0:0:0:
256,112,131913,5,0,0:0:0:0:
159,112,132336,2,0,L|158:250,1,120,8|0,0:0|0:0,0:0:0:0:
248,272,133181,2,0,P|290:228|355:228,1,120,8|0,0:0|0:0,0:0:0:0:
216,47,134449,5,0,0:0:0:0:
148,114,134871,1,8,0:0:0:0:
51,114,135294,1,0,0:0:0:0:
98,197,135717,2,0,L|98:323,2,120,8|0|8,0:0|0:0|0:0,0:0:0:0:
193,197,136984,1,0,0:0:0:0:
328,332,137830,6,0,P|379:280|379:218,1,120,0|8,0:0|0:0,0:0:0:0:
315,167,138675,1,0,0:0:0:0:
219,167,139097,1,8,0:0:0:0:
151,234,139520,2,0,P|161:291|206:330,1,120,0|8,0:0|0:0,0:0:0:0:
302,330,140365,5,0,0:0:0:0:
369,262,140788,1,8,0:0:0:0:
369,166,141210,1,0,0:0:0:0:
300,97,141633,1,8,0:1:0:0:
203,97,142056,6,0,P|144:120|218:241,1,240,0|0,0:0|0:0,0:0:0:0:
200,48,143746,2,0,P|95:95|84:209,1,240,0|0,0:0|0:0,0:0:0:0:
168,152,145014,2,0,L|200:280,1,120,0|0,0:0|0:0,0:0:0:0:
256,192,156846,12,2,158959,0:0:0:0:
256,192,160650,5,2,0:0:0:0:
256,192,162340,1,2,0:0:0:0:
256,192,164031,1,2,0:0:0:0:
64,296,165721,6,0,P|112:248|112:192,1,120,2|0,0:0|0:0,0:0:0:0:
210,198,166566,2,0,L|335:197,1,120,0|0,0:0|0:0,0:0:0:0:
397,129,167411,1,0,0:0:0:0:
464,196,167834,1,0,0:0:0:0:
464,291,168256,2,0,L|385:358,2,60,0|0|0,0:0|0:0|0:0,0:0:0:0:
375,252,169102,1,2,0:0:0:0:
256,192,170792,12,0,172482,0:0:0:0:
144,96,172905,5,8,0:0:0:0:
76,163,173328,1,0,0:0:0:0:
76,258,173750,2,0,P|140:288|158:280,2,60,8|0|0,0:0|0:0|0:0,0:0:0:0:
224,224,174595,1,8,0:0:0:0:
224,127,175018,1,0,0:0:0:0:
291,59,175441,1,8,0:0:0:0:
358,126,175863,6,0,P|357:188|221:320,1,240,0|0,0:0|0:0,0:0:0:0:
176,246,177131,1,8,0:0:0:0:
108,178,177554,1,0,0:0:0:0:
108,82,177976,1,8,0:0:0:0:
204,82,178399,5,0,0:0:0:0:
204,177,178821,1,8,0:0:0:0:
271,244,179244,1,0,0:0:0:0:
367,244,179667,2,0,P|414:193|393:137,1,120,8|0,0:0|0:0,0:0:0:0:
335,80,180512,5,8,0:0:0:0:
239,80,180934,1,0,0:0:0:0:
171,147,181357,2,0,L|171:244,2,60,8|0|0,0:0|0:0|0:0,0:0:0:0:
238,309,182202,2,0,P|297:328|361:304,1,120,8|0,0:0|0:0,0:0:0:0:
418,243,183047,5,0,0:0:0:0:
456,154,183470,1,0,0:0:0:0:
418,65,183892,1,0,0:0:0:0:
350,132,184315,6,8,P|295:155|232:122,1,120,0|0,0:0|0:0,0:0:0:0:
145,133,185160,1,0,0:0:0:0:
77,200,185583,1,0,0:0:0:0:
77,295,186005,1,0,0:0:0:0:
144,362,186428,6,0,P|206:308|256:308,1,120,8|0,0:0|0:0,0:0:0:0:
308,237,187273,2,0,L|308:107,1,120,8|0,0:0|0:0,0:0:0:0:
240,49,188118,5,8,0:0:0:0:
172,116,188541,1,0,0:0:0:0:
75,116,188964,1,8,0:0:0:0:
32,201,189386,1,0,0:0:0:0:
32,297,189809,1,8,0:0:0:0:
114,247,190231,2,0,B|166:208|166:208|233:208,1,120,0|8,0:0|0:0,0:0:0:0:
317,208,191077,2,0,B|360:152|360:152|360:93,1,120,0|8,0:0|0:0,0:0:0:0:
263,102,191922,5,0,0:0:0:0:
195,169,192344,1,8,0:0:0:0:
98,169,192767,2,8,P|61:234|204:318,1,240,0|0,0:0|0:0,0:0:0:0:
258,333,194035,1,8,0:0:0:0:
325,265,194457,1,0,0:0:0:0:
325,168,194880,1,8,0:0:0:0:
320,72,195303,2,8,B|264:96|202:78|202:78|144:96|80:72,1,240,0|0,0:0|0:0,0:0:0:0:
84,336,197838,6,0,P|136:280|216:280,1,120,4|0,0:0|0:0,0:0:0:0:
256,320,198683,1,0,0:0:0:0:
352,336,199106,1,0,0:0:0:0:
432,280,199528,1,2,0:0:0:0:
448,184,199951,1,0,0:0:0:0:
400,104,200374,1,2,0:0:0:0:
327,172,200796,1,0,0:0:0:0:
230,172,201219,2,0,P|164:172|123:110,1,120,2|0,0:0|0:0,0:0:0:0:
61,203,202064,6,0,P|43:280|57:321,1,120,2|0,0:0|0:0,0:0:0:0:
151,317,202909,1,2,0:0:0:0:
218,249,203332,1,0,0:0:0:0:
285,316,203754,1,2,0:0:0:0:
381,316,204177,1,0,0:0:0:0:
448,248,204600,2,0,P|392:224|320:240,2,120,2|0|2,0:0|0:0|0:0,0:0:0:0:
448,152,205867,5,0,0:0:0:0:
380,84,206290,2,2,P|320:90|254:270,1,240,0|0,0:0|0:0,0:0:0:0:
172,301,207558,1,0,0:0:0:0:
76,301,207980,2,2,P|58:229|143:77,1,240,0|0,0:0|0:0,0:0:0:0:
196,154,209248,1,0,0:0:0:0:
263,86,209671,1,0,0:0:0:0:
256,192,209882,12,4,213052,0:0:0:0:
