osu file format v12

[General]
AudioFilename: Nightcore III - Ass Up.mp3
AudioLeadIn: 0
PreviewTime: 23486
Countdown: 0
SampleSet: Soft
StackLeniency: 0.7
Mode: 3
LetterboxInBreaks: 0
SpecialStyle: 0
WidescreenStoryboard: 1

[Editor]
DistanceSpacing: 1
BeatDivisor: 4
GridSize: 8
TimelineZoom: 1

[Metadata]
Title:Ass Up! (Nightcore Mix)
TitleUnicode:Ass Up! (Nightcore Mix)
Artist:Baracuda
ArtistUnicode:Baracuda
Creator:YunoFanatic
Version:Da Ass
Source:Nightcore III
Tags:DatAss sexy techno trance
BeatmapID:393462
BeatmapSetID:161157

[Difficulty]
HPDrainRate:8
CircleSize:4
OverallDifficulty:8
ApproachRate:5
SliderMultiplier:1.4
SliderTickRate:1

[Events]
//Background and Video events
0,0,"BG.jpg",0,0
//Break Periods
//Storyboard Layer 0 (Background)
//Storyboard Layer 1 (Fail)
//Storyboard Layer 2 (Pass)
//Storyboard Layer 3 (Foreground)
//Storyboard Sound Samples
//Background Colour Transformations
3,100,163,162,255

[TimingPoints]
-434,357.015351660121,4,2,0,50,1,0
23843,-100,4,2,0,50,0,1
46870,-100,4,2,0,50,0,0
76681,-100,4,2,0,50,0,1
81679,-100,4,2,0,50,0,0
83821,-100,4,2,0,5,0,0

[HitObjects]
64,192,280,5,0,0:0:0:0:
448,192,637,1,0,0:0:0:0:
64,192,994,1,0,0:0:0:0:
320,192,994,128,0,2779:0:0:0:0:
192,192,3136,1,0,0:0:0:0:
64,192,3493,1,0,0:0:0:0:
320,192,3850,1,0,0:0:0:0:
192,192,3850,128,0,6349:0:0:0:0:
448,192,4028,1,0,0:0:0:0:
64,192,4207,1,0,0:0:0:0:
320,192,4385,1,0,0:0:0:0:
64,192,4564,1,0,0:0:0:0:
448,192,4742,1,0,0:0:0:0:
64,192,4921,1,0,0:0:0:0:
320,192,5099,1,0,0:0:0:0:
64,192,5278,1,0,0:0:0:0:
448,192,5456,1,0,0:0:0:0:
64,192,5635,1,0,0:0:0:0:
320,192,5813,1,0,0:0:0:0:
64,192,5992,1,0,0:0:0:0:
448,192,6170,1,0,0:0:0:0:
64,192,6349,1,0,0:0:0:0:
320,192,6349,128,0,6706:0:0:0:0:
192,192,6527,1,0,0:0:0:0:
448,192,6706,128,0,7063:0:0:0:0:
64,192,6706,1,0,0:0:0:0:
320,192,6884,1,0,0:0:0:0:
192,192,7063,128,0,7241:0:0:0:0:
64,192,7241,128,0,7420:0:0:0:0:
320,192,7241,1,0,0:0:0:0:
320,192,7420,128,0,7777:0:0:0:0:
192,192,7420,1,0,0:0:0:0:
448,192,7598,1,0,0:0:0:0:
448,192,7777,128,0,7955:0:0:0:0:
64,192,7777,1,0,0:0:0:0:
192,192,7955,128,0,8134:0:0:0:0:
64,192,7955,1,0,0:0:0:0:
320,192,8134,128,0,8491:0:0:0:0:
448,192,8312,1,0,0:0:0:0:
64,192,8491,1,0,0:0:0:0:
192,192,8491,128,0,8848:0:0:0:0:
448,192,8669,1,0,0:0:0:0:
64,192,8848,1,0,0:0:0:0:
320,192,8848,128,0,9205:0:0:0:0:
448,192,9026,1,0,0:0:0:0:
192,192,9205,1,0,0:0:0:0:
64,192,9205,128,0,9562:0:0:0:0:
448,192,9383,1,0,0:0:0:0:
320,192,9562,1,0,0:0:0:0:
192,192,9562,128,0,12061:0:0:0:0:
448,192,9740,1,0,0:0:0:0:
64,192,9919,1,0,0:0:0:0:
320,192,10097,1,0,0:0:0:0:
64,192,10276,1,0,0:0:0:0:
448,192,10454,1,0,0:0:0:0:
320,192,10633,1,0,0:0:0:0:
64,192,10811,1,0,0:0:0:0:
448,192,10990,1,0,0:0:0:0:
320,192,11168,1,0,0:0:0:0:
64,192,11347,1,0,0:0:0:0:
320,192,11526,1,0,0:0:0:0:
64,192,11704,1,0,0:0:0:0:
448,192,11883,1,0,0:0:0:0:
320,192,12061,1,0,0:0:0:0:
64,192,12240,1,0,0:0:0:0:
448,192,12240,1,0,0:0:0:0:
320,192,12418,1,0,0:0:0:0:
192,192,12418,1,0,0:0:0:0:
64,192,12775,1,0,0:0:0:0:
320,192,12775,1,0,0:0:0:0:
448,192,12954,1,0,0:0:0:0:
64,192,13132,1,0,0:0:0:0:
320,192,13132,1,0,0:0:0:0:
448,192,13311,1,0,0:0:0:0:
192,192,13489,1,0,0:0:0:0:
64,192,13489,1,0,0:0:0:0:
448,192,13668,1,0,0:0:0:0:
192,192,13846,1,0,0:0:0:0:
64,192,13846,1,0,0:0:0:0:
448,192,14025,1,0,0:0:0:0:
192,192,14203,1,0,0:0:0:0:
320,192,14203,1,0,0:0:0:0:
64,192,14382,1,0,0:0:0:0:
192,192,14560,1,0,0:0:0:0:
320,192,14560,1,0,0:0:0:0:
448,192,14739,1,0,0:0:0:0:
64,192,14828,1,0,0:0:0:0:
320,192,14917,1,0,0:0:0:0:
192,192,14917,1,0,0:0:0:0:
448,192,15006,1,0,0:0:0:0:
64,192,15096,1,0,0:0:0:0:
448,192,15185,1,0,0:0:0:0:
192,192,15274,1,0,0:0:0:0:
320,192,15274,1,0,0:0:0:0:
448,192,15453,1,0,0:0:0:0:
64,192,15631,1,0,0:0:0:0:
192,192,15631,1,0,0:0:0:0:
320,192,15810,1,0,0:0:0:0:
64,192,15988,1,0,0:0:0:0:
192,192,15988,1,0,0:0:0:0:
448,192,16167,1,0,0:0:0:0:
320,192,16345,1,0,0:0:0:0:
64,192,16345,1,0,0:0:0:0:
192,192,16524,1,0,0:0:0:0:
448,192,16702,1,0,0:0:0:0:
64,192,16702,1,0,0:0:0:0:
320,192,16881,1,0,0:0:0:0:
192,192,17059,1,0,0:0:0:0:
448,192,17059,1,0,0:0:0:0:
64,192,17238,1,0,0:0:0:0:
192,192,17416,1,0,0:0:0:0:
448,192,17416,1,0,0:0:0:0:
320,192,17595,1,0,0:0:0:0:
64,192,17595,1,0,0:0:0:0:
192,192,17773,1,0,0:0:0:0:
448,192,17773,1,0,0:0:0:0:
64,192,17952,1,0,0:0:0:0:
320,192,17952,1,0,0:0:0:0:
192,192,18130,1,0,0:0:0:0:
448,192,18130,1,0,0:0:0:0:
64,192,18309,1,0,0:0:0:0:
192,192,18309,1,0,0:0:0:0:
192,192,18487,1,0,0:0:0:0:
448,192,18487,1,0,0:0:0:0:
64,192,18666,1,0,0:0:0:0:
320,192,18666,1,0,0:0:0:0:
192,192,18844,1,0,0:0:0:0:
448,192,18844,1,0,0:0:0:0:
64,192,19023,1,0,0:0:0:0:
192,192,19023,1,0,0:0:0:0:
192,192,19201,1,0,0:0:0:0:
448,192,19201,1,0,0:0:0:0:
64,192,19380,1,0,0:0:0:0:
320,192,19380,1,0,0:0:0:0:
192,192,19558,1,0,0:0:0:0:
448,192,19558,1,0,0:0:0:0:
64,192,19737,1,0,0:0:0:0:
192,192,19737,1,0,0:0:0:0:
192,192,19915,1,0,0:0:0:0:
448,192,19915,1,0,0:0:0:0:
64,192,20094,1,0,0:0:0:0:
320,192,20094,1,0,0:0:0:0:
192,192,20272,1,0,0:0:0:0:
448,192,20272,1,0,0:0:0:0:
64,192,20451,1,0,0:0:0:0:
192,192,20451,1,0,0:0:0:0:
192,192,20629,1,0,0:0:0:0:
448,192,20629,1,0,0:0:0:0:
64,192,20808,1,0,0:0:0:0:
320,192,20808,1,0,0:0:0:0:
192,192,20986,1,0,0:0:0:0:
448,192,20986,1,0,0:0:0:0:
64,192,21076,1,0,0:0:0:0:
192,192,21165,1,0,0:0:0:0:
320,192,21254,1,0,0:0:0:0:
448,192,21343,1,0,0:0:0:0:
320,192,21433,1,0,0:0:0:0:
192,192,21522,1,0,0:0:0:0:
64,192,21611,1,0,0:0:0:0:
192,192,21700,1,0,0:0:0:0:
320,192,21790,1,0,0:0:0:0:
448,192,21879,1,0,0:0:0:0:
320,192,21968,1,0,0:0:0:0:
192,192,22057,1,0,0:0:0:0:
64,192,22147,1,0,0:0:0:0:
192,192,22236,1,0,0:0:0:0:
320,192,22325,1,0,0:0:0:0:
64,192,22414,1,0,0:0:0:0:
448,192,22414,1,0,0:0:0:0:
64,192,22771,1,0,0:0:0:0:
448,192,22950,1,0,0:0:0:0:
64,192,23129,1,0,0:0:0:0:
448,192,23307,1,0,0:0:0:0:
64,192,23486,1,0,0:0:0:0:
448,192,23664,1,0,0:0:0:0:
64,192,23843,1,0,0:0:0:0:
320,192,23843,1,0,0:0:0:0:
448,192,24021,1,0,0:0:0:0:
192,192,24110,1,0,0:0:0:0:
64,192,24200,1,0,0:0:0:0:
320,192,24200,1,0,0:0:0:0:
448,192,24378,1,0,0:0:0:0:
192,192,24467,1,0,0:0:0:0:
320,192,24557,1,0,0:0:0:0:
64,192,24557,1,0,0:0:0:0:
192,192,24735,1,0,0:0:0:0:
320,192,24824,1,0,0:0:0:0:
64,192,24914,1,0,0:0:0:0:
448,192,24914,1,0,0:0:0:0:
192,192,25092,1,0,0:0:0:0:
320,192,25181,1,0,0:0:0:0:
64,192,25271,1,0,0:0:0:0:
448,192,25271,1,0,0:0:0:0:
192,192,25449,1,0,0:0:0:0:
448,192,25538,1,0,0:0:0:0:
64,192,25628,1,0,0:0:0:0:
320,192,25628,1,0,0:0:0:0:
192,192,25806,1,0,0:0:0:0:
448,192,25895,1,0,0:0:0:0:
320,192,25985,1,0,0:0:0:0:
64,192,25985,1,0,0:0:0:0:
192,192,26163,1,0,0:0:0:0:
320,192,26163,1,0,0:0:0:0:
448,192,26342,1,0,0:0:0:0:
320,192,26342,1,0,0:0:0:0:
192,192,26520,1,0,0:0:0:0:
320,192,26520,1,0,0:0:0:0:
448,192,26699,1,0,0:0:0:0:
64,192,26699,1,0,0:0:0:0:
320,192,26877,1,0,0:0:0:0:
192,192,26966,1,0,0:0:0:0:
64,192,27056,1,0,0:0:0:0:
448,192,27056,1,0,0:0:0:0:
320,192,27234,1,0,0:0:0:0:
192,192,27323,1,0,0:0:0:0:
448,192,27413,1,0,0:0:0:0:
64,192,27413,1,0,0:0:0:0:
64,192,27591,1,0,0:0:0:0:
448,192,27680,1,0,0:0:0:0:
192,192,27770,1,0,0:0:0:0:
320,192,27770,1,0,0:0:0:0:
64,192,27948,1,0,0:0:0:0:
448,192,28037,1,0,0:0:0:0:
320,192,28127,1,0,0:0:0:0:
192,192,28127,1,0,0:0:0:0:
64,192,28305,1,0,0:0:0:0:
192,192,28394,1,0,0:0:0:0:
448,192,28484,1,0,0:0:0:0:
320,192,28484,1,0,0:0:0:0:
64,192,28662,1,0,0:0:0:0:
192,192,28752,1,0,0:0:0:0:
448,192,28841,128,0,29555:0:0:0:0:
320,192,28841,128,0,29555:0:0:0:0:
192,192,29019,1,0,0:0:0:0:
64,192,29019,1,0,0:0:0:0:
64,192,29198,1,0,0:0:0:0:
192,192,29198,1,0,0:0:0:0:
64,192,29376,1,0,0:0:0:0:
192,192,29376,1,0,0:0:0:0:
192,192,29555,1,0,0:0:0:0:
64,192,29555,1,0,0:0:0:0:
320,192,29733,1,0,0:0:0:0:
448,192,29823,1,0,0:0:0:0:
192,192,29912,1,0,0:0:0:0:
64,192,29912,1,0,0:0:0:0:
320,192,30090,1,0,0:0:0:0:
448,192,30180,1,0,0:0:0:0:
192,192,30269,1,0,0:0:0:0:
64,192,30269,1,0,0:0:0:0:
320,192,30447,1,0,0:0:0:0:
192,192,30537,1,0,0:0:0:0:
448,192,30626,1,0,0:0:0:0:
320,192,30626,1,0,0:0:0:0:
320,192,30804,1,0,0:0:0:0:
192,192,30894,1,0,0:0:0:0:
320,192,30983,1,0,0:0:0:0:
448,192,30983,1,0,0:0:0:0:
64,192,31161,1,0,0:0:0:0:
320,192,31251,1,0,0:0:0:0:
192,192,31340,1,0,0:0:0:0:
448,192,31340,1,0,0:0:0:0:
64,192,31518,1,0,0:0:0:0:
320,192,31608,1,0,0:0:0:0:
192,192,31697,1,0,0:0:0:0:
448,192,31697,1,0,0:0:0:0:
64,192,31875,1,0,0:0:0:0:
192,192,31965,1,0,0:0:0:0:
320,192,32054,1,0,0:0:0:0:
448,192,32054,1,0,0:0:0:0:
64,192,32232,1,0,0:0:0:0:
192,192,32322,1,0,0:0:0:0:
448,192,32411,1,0,0:0:0:0:
320,192,32411,1,0,0:0:0:0:
64,192,32589,1,0,0:0:0:0:
448,192,32679,1,0,0:0:0:0:
192,192,32768,1,0,0:0:0:0:
320,192,32768,1,0,0:0:0:0:
64,192,32946,1,0,0:0:0:0:
448,192,33036,1,0,0:0:0:0:
320,192,33125,1,0,0:0:0:0:
192,192,33125,1,0,0:0:0:0:
448,192,33303,1,0,0:0:0:0:
320,192,33393,1,0,0:0:0:0:
448,192,33482,1,0,0:0:0:0:
192,192,33482,1,0,0:0:0:0:
64,192,33482,1,0,0:0:0:0:
192,192,33660,1,0,0:0:0:0:
64,192,33660,1,0,0:0:0:0:
192,192,33839,1,0,0:0:0:0:
448,192,33839,1,0,0:0:0:0:
64,192,33839,1,0,0:0:0:0:
320,192,34017,1,0,0:0:0:0:
192,192,34196,1,0,0:0:0:0:
448,192,34196,1,0,0:0:0:0:
64,192,34374,1,0,0:0:0:0:
192,192,34553,1,0,0:0:0:0:
448,192,34553,1,0,0:0:0:0:
64,192,34732,1,0,0:0:0:0:
192,192,34821,1,0,0:0:0:0:
448,192,34910,1,0,0:0:0:0:
192,192,34999,1,0,0:0:0:0:
64,192,35089,1,0,0:0:0:0:
192,192,35178,1,0,0:0:0:0:
320,192,35267,1,0,0:0:0:0:
448,192,35267,1,0,0:0:0:0:
64,192,35267,1,0,0:0:0:0:
192,192,35446,1,0,0:0:0:0:
320,192,35535,1,0,0:0:0:0:
64,192,35624,1,0,0:0:0:0:
448,192,35624,1,0,0:0:0:0:
192,192,35803,1,0,0:0:0:0:
320,192,35892,1,0,0:0:0:0:
448,192,35981,1,0,0:0:0:0:
64,192,35981,1,0,0:0:0:0:
320,192,36160,1,0,0:0:0:0:
192,192,36249,1,0,0:0:0:0:
64,192,36338,1,0,0:0:0:0:
448,192,36338,1,0,0:0:0:0:
320,192,36517,1,0,0:0:0:0:
192,192,36606,1,0,0:0:0:0:
64,192,36695,1,0,0:0:0:0:
448,192,36695,1,0,0:0:0:0:
320,192,36874,1,0,0:0:0:0:
64,192,36963,1,0,0:0:0:0:
192,192,37052,1,0,0:0:0:0:
448,192,37052,1,0,0:0:0:0:
320,192,37231,1,0,0:0:0:0:
64,192,37320,1,0,0:0:0:0:
192,192,37409,1,0,0:0:0:0:
448,192,37409,1,0,0:0:0:0:
64,192,37588,1,0,0:0:0:0:
320,192,37677,1,0,0:0:0:0:
192,192,37766,1,0,0:0:0:0:
448,192,37766,1,0,0:0:0:0:
64,192,37945,1,0,0:0:0:0:
320,192,38034,1,0,0:0:0:0:
192,192,38123,1,0,0:0:0:0:
448,192,38123,1,0,0:0:0:0:
64,192,38302,1,0,0:0:0:0:
448,192,38391,1,0,0:0:0:0:
192,192,38480,1,0,0:0:0:0:
320,192,38480,1,0,0:0:0:0:
64,192,38659,1,0,0:0:0:0:
448,192,38748,1,0,0:0:0:0:
320,192,38837,1,0,0:0:0:0:
192,192,38837,1,0,0:0:0:0:
64,192,39016,1,0,0:0:0:0:
320,192,39105,1,0,0:0:0:0:
192,192,39194,1,0,0:0:0:0:
448,192,39194,1,0,0:0:0:0:
64,192,39373,1,0,0:0:0:0:
320,192,39462,1,0,0:0:0:0:
192,192,39551,1,0,0:0:0:0:
448,192,39551,1,0,0:0:0:0:
64,192,39730,1,0,0:0:0:0:
192,192,39819,1,0,0:0:0:0:
320,192,39908,1,0,0:0:0:0:
448,192,39908,1,0,0:0:0:0:
64,192,40087,1,0,0:0:0:0:
192,192,40176,1,0,0:0:0:0:
320,192,40265,1,0,0:0:0:0:
448,192,40265,1,0,0:0:0:0:
192,192,40444,1,0,0:0:0:0:
320,192,40533,1,0,0:0:0:0:
448,192,40622,1,0,0:0:0:0:
64,192,40622,1,0,0:0:0:0:
192,192,40801,1,0,0:0:0:0:
320,192,40890,1,0,0:0:0:0:
448,192,40979,1,0,0:0:0:0:
64,192,40979,1,0,0:0:0:0:
320,192,41158,1,0,0:0:0:0:
192,192,41247,1,0,0:0:0:0:
448,192,41336,1,0,0:0:0:0:
64,192,41336,1,0,0:0:0:0:
320,192,41515,1,0,0:0:0:0:
192,192,41604,1,0,0:0:0:0:
64,192,41693,1,0,0:0:0:0:
448,192,41693,1,0,0:0:0:0:
192,192,41872,1,0,0:0:0:0:
320,192,41961,1,0,0:0:0:0:
448,192,42050,1,0,0:0:0:0:
64,192,42050,1,0,0:0:0:0:
192,192,42229,1,0,0:0:0:0:
320,192,42318,1,0,0:0:0:0:
448,192,42407,1,0,0:0:0:0:
64,192,42407,1,0,0:0:0:0:
192,192,42586,1,0,0:0:0:0:
320,192,42675,1,0,0:0:0:0:
64,192,42764,1,0,0:0:0:0:
448,192,42764,1,0,0:0:0:0:
192,192,42943,1,0,0:0:0:0:
320,192,43032,1,0,0:0:0:0:
64,192,43121,1,0,0:0:0:0:
448,192,43121,1,0,0:0:0:0:
192,192,43300,1,0,0:0:0:0:
448,192,43389,1,0,0:0:0:0:
64,192,43478,1,0,0:0:0:0:
320,192,43478,1,0,0:0:0:0:
192,192,43657,1,0,0:0:0:0:
448,192,43746,1,0,0:0:0:0:
320,192,43835,1,0,0:0:0:0:
64,192,43835,1,0,0:0:0:0:
192,192,44014,1,0,0:0:0:0:
448,192,44103,1,0,0:0:0:0:
64,192,44192,1,0,0:0:0:0:
320,192,44192,1,0,0:0:0:0:
192,192,44371,1,0,0:0:0:0:
448,192,44460,1,0,0:0:0:0:
320,192,44549,1,0,0:0:0:0:
64,192,44549,1,0,0:0:0:0:
192,192,44728,1,0,0:0:0:0:
320,192,44817,1,0,0:0:0:0:
448,192,44906,1,0,0:0:0:0:
192,192,44906,1,0,0:0:0:0:
64,192,45085,1,0,0:0:0:0:
192,192,45174,1,0,0:0:0:0:
320,192,45263,1,0,0:0:0:0:
192,192,45442,1,0,0:0:0:0:
320,192,45531,1,0,0:0:0:0:
448,192,45620,1,0,0:0:0:0:
64,192,45799,1,0,0:0:0:0:
192,192,45888,1,0,0:0:0:0:
320,192,45977,1,0,0:0:0:0:
448,192,46067,1,0,0:0:0:0:
64,192,46156,1,0,0:0:0:0:
192,192,46245,1,0,0:0:0:0:
320,192,46335,1,0,0:0:0:0:
448,192,46424,1,0,0:0:0:0:
64,192,46513,1,0,0:0:0:0:
192,192,46602,1,0,0:0:0:0:
320,192,46692,1,0,0:0:0:0:
448,192,46692,1,0,0:0:0:0:
192,192,46870,1,0,0:0:0:0:
64,192,46959,1,0,0:0:0:0:
320,192,47227,1,0,0:0:0:0:
448,192,47316,1,0,0:0:0:0:
192,192,47584,1,0,0:0:0:0:
64,192,47673,1,0,0:0:0:0:
320,192,47941,1,0,0:0:0:0:
448,192,48030,1,0,0:0:0:0:
320,192,48120,1,0,0:0:0:0:
64,192,48120,128,0,48655:0:0:0:0:
320,192,48655,128,0,49191:0:0:0:0:
448,192,49191,128,0,49548:0:0:0:0:
192,192,49548,128,0,50976:0:0:0:0:
64,192,49726,1,0,0:0:0:0:
320,192,49905,1,0,0:0:0:0:
64,192,50083,1,0,0:0:0:0:
320,192,50262,1,0,0:0:0:0:
64,192,50440,1,0,0:0:0:0:
320,192,50619,1,0,0:0:0:0:
64,192,50797,1,0,0:0:0:0:
320,192,50976,128,0,51333:0:0:0:0:
448,192,51154,1,0,0:0:0:0:
192,192,51333,128,0,51690:0:0:0:0:
64,192,51333,1,0,0:0:0:0:
448,192,51511,1,0,0:0:0:0:
448,192,51690,128,0,52047:0:0:0:0:
64,192,51690,1,0,0:0:0:0:
64,192,52047,128,0,52404:0:0:0:0:
192,192,52047,1,0,0:0:0:0:
320,192,52047,1,0,0:0:0:0:
192,192,52225,1,0,0:0:0:0:
320,192,52225,1,0,0:0:0:0:
192,192,52404,1,0,0:0:0:0:
320,192,52404,1,0,0:0:0:0:
448,192,52582,1,0,0:0:0:0:
192,192,52672,1,0,0:0:0:0:
320,192,52761,1,0,0:0:0:0:
64,192,52761,1,0,0:0:0:0:
192,192,52939,1,0,0:0:0:0:
448,192,53029,1,0,0:0:0:0:
320,192,53118,1,0,0:0:0:0:
64,192,53118,1,0,0:0:0:0:
192,192,53475,1,0,0:0:0:0:
448,192,53475,1,0,0:0:0:0:
320,192,53653,1,0,0:0:0:0:
64,192,53653,1,0,0:0:0:0:
192,192,53832,1,0,0:0:0:0:
448,192,53832,1,0,0:0:0:0:
64,192,54010,1,0,0:0:0:0:
320,192,54100,1,0,0:0:0:0:
192,192,54189,1,0,0:0:0:0:
64,192,54189,1,0,0:0:0:0:
448,192,54278,1,0,0:0:0:0:
320,192,54367,1,0,0:0:0:0:
64,192,54367,1,0,0:0:0:0:
192,192,54457,1,0,0:0:0:0:
448,192,54546,1,0,0:0:0:0:
64,192,54546,1,0,0:0:0:0:
320,192,54724,1,0,0:0:0:0:
192,192,54903,1,0,0:0:0:0:
448,192,54903,1,0,0:0:0:0:
320,192,55081,1,0,0:0:0:0:
64,192,55081,1,0,0:0:0:0:
192,192,55260,1,0,0:0:0:0:
448,192,55260,1,0,0:0:0:0:
64,192,55349,1,0,0:0:0:0:
320,192,55438,1,0,0:0:0:0:
448,192,55438,1,0,0:0:0:0:
192,192,55617,1,0,0:0:0:0:
320,192,55617,1,0,0:0:0:0:
448,192,55706,1,0,0:0:0:0:
64,192,55795,1,0,0:0:0:0:
320,192,55885,1,0,0:0:0:0:
192,192,55974,1,0,0:0:0:0:
448,192,55974,1,0,0:0:0:0:
64,192,56152,1,0,0:0:0:0:
192,192,56331,1,0,0:0:0:0:
448,192,56331,1,0,0:0:0:0:
64,192,56509,1,0,0:0:0:0:
320,192,56509,1,0,0:0:0:0:
448,192,56688,1,0,0:0:0:0:
64,192,56688,1,0,0:0:0:0:
192,192,56777,1,0,0:0:0:0:
64,192,56866,1,0,0:0:0:0:
320,192,56866,1,0,0:0:0:0:
192,192,56956,1,0,0:0:0:0:
448,192,57045,1,0,0:0:0:0:
320,192,57045,1,0,0:0:0:0:
64,192,57134,1,0,0:0:0:0:
192,192,57223,1,0,0:0:0:0:
448,192,57313,1,0,0:0:0:0:
320,192,57402,1,0,0:0:0:0:
64,192,57402,1,0,0:0:0:0:
192,192,57759,1,0,0:0:0:0:
448,192,57759,1,0,0:0:0:0:
320,192,57938,1,0,0:0:0:0:
64,192,57938,1,0,0:0:0:0:
192,192,58116,1,0,0:0:0:0:
448,192,58116,1,0,0:0:0:0:
64,192,58205,1,0,0:0:0:0:
320,192,58295,1,0,0:0:0:0:
448,192,58295,1,0,0:0:0:0:
192,192,58384,1,0,0:0:0:0:
448,192,58473,1,0,0:0:0:0:
64,192,58473,1,0,0:0:0:0:
320,192,58652,1,0,0:0:0:0:
192,192,58652,1,0,0:0:0:0:
64,192,58830,1,0,0:0:0:0:
448,192,58830,1,0,0:0:0:0:
320,192,59009,1,0,0:0:0:0:
192,192,59187,1,0,0:0:0:0:
64,192,59187,1,0,0:0:0:0:
448,192,59366,1,0,0:0:0:0:
320,192,59366,1,0,0:0:0:0:
64,192,59544,1,0,0:0:0:0:
192,192,59544,1,0,0:0:0:0:
320,192,59633,1,0,0:0:0:0:
192,192,59723,1,0,0:0:0:0:
448,192,59723,1,0,0:0:0:0:
64,192,59812,1,0,0:0:0:0:
192,192,59901,1,0,0:0:0:0:
448,192,59901,1,0,0:0:0:0:
320,192,59990,1,0,0:0:0:0:
192,192,60080,1,0,0:0:0:0:
448,192,60080,1,0,0:0:0:0:
64,192,60169,1,0,0:0:0:0:
320,192,60258,1,0,0:0:0:0:
192,192,60258,1,0,0:0:0:0:
64,192,60615,1,0,0:0:0:0:
448,192,60615,1,0,0:0:0:0:
64,192,60794,1,0,0:0:0:0:
448,192,60794,1,0,0:0:0:0:
192,192,60972,1,0,0:0:0:0:
320,192,60972,1,0,0:0:0:0:
64,192,61061,1,0,0:0:0:0:
448,192,61151,1,0,0:0:0:0:
192,192,61151,1,0,0:0:0:0:
320,192,61240,1,0,0:0:0:0:
64,192,61329,1,0,0:0:0:0:
448,192,61329,1,0,0:0:0:0:
192,192,61418,1,0,0:0:0:0:
320,192,61508,1,0,0:0:0:0:
64,192,61508,1,0,0:0:0:0:
448,192,61597,1,0,0:0:0:0:
320,192,61686,1,0,0:0:0:0:
64,192,61686,1,0,0:0:0:0:
192,192,61865,1,0,0:0:0:0:
192,192,62043,1,0,0:0:0:0:
64,192,62043,1,0,0:0:0:0:
192,192,62222,1,0,0:0:0:0:
64,192,62222,1,0,0:0:0:0:
192,192,62400,1,0,0:0:0:0:
64,192,62400,1,0,0:0:0:0:
320,192,62489,1,0,0:0:0:0:
448,192,62579,1,0,0:0:0:0:
320,192,62668,1,0,0:0:0:0:
192,192,62757,1,0,0:0:0:0:
64,192,62846,1,0,0:0:0:0:
192,192,62936,1,0,0:0:0:0:
320,192,63025,1,0,0:0:0:0:
192,192,63114,1,0,0:0:0:0:
320,192,63203,1,0,0:0:0:0:
192,192,63293,1,0,0:0:0:0:
64,192,63382,1,0,0:0:0:0:
192,192,63471,1,0,0:0:0:0:
320,192,63561,1,0,0:0:0:0:
448,192,63650,1,0,0:0:0:0:
320,192,63739,1,0,0:0:0:0:
192,192,63828,1,0,0:0:0:0:
64,192,63828,1,0,0:0:0:0:
320,192,64185,1,0,0:0:0:0:
448,192,64185,1,0,0:0:0:0:
192,192,64364,1,0,0:0:0:0:
64,192,64364,1,0,0:0:0:0:
320,192,64542,1,0,0:0:0:0:
448,192,64542,1,0,0:0:0:0:
448,192,64899,1,0,0:0:0:0:
64,192,64899,1,0,0:0:0:0:
192,192,65078,1,0,0:0:0:0:
320,192,65078,1,0,0:0:0:0:
448,192,65137,1,0,0:0:0:0:
320,192,65197,1,0,0:0:0:0:
192,192,65256,1,0,0:0:0:0:
64,192,65256,1,0,0:0:0:0:
320,192,65435,1,0,0:0:0:0:
192,192,65435,1,0,0:0:0:0:
448,192,65613,1,0,0:0:0:0:
320,192,65613,1,0,0:0:0:0:
320,192,65792,1,0,0:0:0:0:
192,192,65792,1,0,0:0:0:0:
64,192,65970,1,0,0:0:0:0:
192,192,65970,1,0,0:0:0:0:
192,192,66149,1,0,0:0:0:0:
320,192,66149,1,0,0:0:0:0:
64,192,66208,1,0,0:0:0:0:
192,192,66268,1,0,0:0:0:0:
448,192,66327,1,0,0:0:0:0:
320,192,66327,1,0,0:0:0:0:
192,192,66506,1,0,0:0:0:0:
320,192,66506,1,0,0:0:0:0:
64,192,66684,1,0,0:0:0:0:
448,192,66684,1,0,0:0:0:0:
64,192,67041,1,0,0:0:0:0:
448,192,67041,1,0,0:0:0:0:
192,192,67220,1,0,0:0:0:0:
320,192,67220,1,0,0:0:0:0:
64,192,67398,1,0,0:0:0:0:
192,192,67398,1,0,0:0:0:0:
64,192,67755,1,0,0:0:0:0:
448,192,67755,1,0,0:0:0:0:
192,192,67934,1,0,0:0:0:0:
320,192,67934,1,0,0:0:0:0:
320,192,68112,1,0,0:0:0:0:
448,192,68112,1,0,0:0:0:0:
64,192,68112,1,0,0:0:0:0:
192,192,68291,1,0,0:0:0:0:
320,192,68380,1,0,0:0:0:0:
64,192,68469,1,0,0:0:0:0:
448,192,68469,1,0,0:0:0:0:
192,192,68648,1,0,0:0:0:0:
320,192,68737,1,0,0:0:0:0:
448,192,68826,1,0,0:0:0:0:
64,192,68826,1,0,0:0:0:0:
192,192,68826,1,0,0:0:0:0:
320,192,69183,1,0,0:0:0:0:
64,192,69183,1,0,0:0:0:0:
64,192,69362,1,0,0:0:0:0:
192,192,69362,1,0,0:0:0:0:
320,192,69541,1,0,0:0:0:0:
448,192,69541,1,0,0:0:0:0:
64,192,69541,1,0,0:0:0:0:
192,192,69719,1,0,0:0:0:0:
320,192,69719,1,0,0:0:0:0:
320,192,69898,1,0,0:0:0:0:
64,192,69898,1,0,0:0:0:0:
448,192,70076,1,0,0:0:0:0:
192,192,70076,1,0,0:0:0:0:
64,192,70255,1,0,0:0:0:0:
192,192,70255,1,0,0:0:0:0:
192,192,70433,1,0,0:0:0:0:
448,192,70433,1,0,0:0:0:0:
64,192,70612,1,0,0:0:0:0:
320,192,70612,1,0,0:0:0:0:
192,192,70790,1,0,0:0:0:0:
448,192,70790,1,0,0:0:0:0:
64,192,70850,1,0,0:0:0:0:
320,192,70909,1,0,0:0:0:0:
448,192,70969,1,0,0:0:0:0:
192,192,70969,1,0,0:0:0:0:
192,192,71147,1,0,0:0:0:0:
320,192,71147,1,0,0:0:0:0:
64,192,71326,1,0,0:0:0:0:
448,192,71326,1,0,0:0:0:0:
192,192,71504,1,0,0:0:0:0:
320,192,71504,1,0,0:0:0:0:
64,192,71683,1,0,0:0:0:0:
320,192,71683,1,0,0:0:0:0:
192,192,71861,1,0,0:0:0:0:
448,192,71861,1,0,0:0:0:0:
64,192,71921,1,0,0:0:0:0:
320,192,71980,1,0,0:0:0:0:
192,192,72040,1,0,0:0:0:0:
448,192,72040,1,0,0:0:0:0:
64,192,72218,1,0,0:0:0:0:
320,192,72218,1,0,0:0:0:0:
192,192,72278,1,0,0:0:0:0:
448,192,72337,1,0,0:0:0:0:
320,192,72397,1,0,0:0:0:0:
64,192,72397,1,0,0:0:0:0:
192,192,72575,1,0,0:0:0:0:
320,192,72575,1,0,0:0:0:0:
448,192,72575,1,0,0:0:0:0:
192,192,72754,1,0,0:0:0:0:
320,192,72754,1,0,0:0:0:0:
64,192,72754,1,0,0:0:0:0:
192,192,72932,1,0,0:0:0:0:
320,192,72932,1,0,0:0:0:0:
448,192,72932,1,0,0:0:0:0:
320,192,73111,1,0,0:0:0:0:
192,192,73111,1,0,0:0:0:0:
64,192,73111,1,0,0:0:0:0:
192,192,73289,1,0,0:0:0:0:
320,192,73289,1,0,0:0:0:0:
448,192,73289,1,0,0:0:0:0:
320,192,73468,1,0,0:0:0:0:
192,192,73468,1,0,0:0:0:0:
64,192,73468,1,0,0:0:0:0:
448,192,73557,1,0,0:0:0:0:
320,192,73646,1,0,0:0:0:0:
192,192,73735,1,0,0:0:0:0:
64,192,73825,1,0,0:0:0:0:
192,192,73914,1,0,0:0:0:0:
320,192,74003,1,0,0:0:0:0:
448,192,74092,1,0,0:0:0:0:
320,192,74182,1,0,0:0:0:0:
192,192,74271,1,0,0:0:0:0:
64,192,74360,1,0,0:0:0:0:
192,192,74449,1,0,0:0:0:0:
320,192,74539,1,0,0:0:0:0:
448,192,74628,1,0,0:0:0:0:
320,192,74717,1,0,0:0:0:0:
192,192,74806,1,0,0:0:0:0:
64,192,74896,1,0,0:0:0:0:
192,192,74985,1,0,0:0:0:0:
320,192,75074,1,0,0:0:0:0:
448,192,75164,1,0,0:0:0:0:
320,192,75253,1,0,0:0:0:0:
64,192,75253,128,0,76681:0:0:0:0:
192,192,75253,128,0,76681:0:0:0:0:
320,192,75610,128,0,75788:0:0:0:0:
448,192,75788,128,0,75967:0:0:0:0:
320,192,75967,128,0,76145:0:0:0:0:
448,192,76145,128,0,76324:0:0:0:0:
320,192,76324,128,0,76681:0:0:0:0:
448,192,76681,1,0,0:0:0:0:
320,192,76859,1,0,0:0:0:0:
192,192,76949,1,0,0:0:0:0:
64,192,77038,1,0,0:0:0:0:
448,192,77038,1,0,0:0:0:0:
192,192,77216,1,0,0:0:0:0:
320,192,77306,1,0,0:0:0:0:
448,192,77395,1,0,0:0:0:0:
64,192,77395,1,0,0:0:0:0:
320,192,77573,1,0,0:0:0:0:
192,192,77663,1,0,0:0:0:0:
64,192,77752,1,0,0:0:0:0:
448,192,77752,1,0,0:0:0:0:
320,192,77930,1,0,0:0:0:0:
192,192,78020,1,0,0:0:0:0:
64,192,78109,1,0,0:0:0:0:
448,192,78109,1,0,0:0:0:0:
320,192,78287,1,0,0:0:0:0:
192,192,78287,1,0,0:0:0:0:
64,192,78466,1,0,0:0:0:0:
448,192,78466,1,0,0:0:0:0:
192,192,78644,1,0,0:0:0:0:
320,192,78644,1,0,0:0:0:0:
64,192,78823,1,0,0:0:0:0:
448,192,78823,1,0,0:0:0:0:
320,192,79001,1,0,0:0:0:0:
192,192,79001,1,0,0:0:0:0:
64,192,79180,1,0,0:0:0:0:
448,192,79180,1,0,0:0:0:0:
192,192,79358,1,0,0:0:0:0:
320,192,79448,1,0,0:0:0:0:
448,192,79537,1,0,0:0:0:0:
64,192,79537,1,0,0:0:0:0:
320,192,79715,1,0,0:0:0:0:
192,192,79805,1,0,0:0:0:0:
64,192,79894,1,0,0:0:0:0:
448,192,79894,1,0,0:0:0:0:
192,192,80072,1,0,0:0:0:0:
448,192,80162,1,0,0:0:0:0:
64,192,80251,1,0,0:0:0:0:
320,192,80251,1,0,0:0:0:0:
192,192,80429,1,0,0:0:0:0:
448,192,80519,1,0,0:0:0:0:
320,192,80608,1,0,0:0:0:0:
64,192,80608,1,0,0:0:0:0:
192,192,80786,1,0,0:0:0:0:
448,192,80786,1,0,0:0:0:0:
320,192,80965,1,0,0:0:0:0:
64,192,80965,1,0,0:0:0:0:
192,192,81144,1,0,0:0:0:0:
448,192,81144,1,0,0:0:0:0:
320,192,81322,1,0,0:0:0:0:
64,192,81322,1,0,0:0:0:0:
192,192,81501,1,0,0:0:0:0:
448,192,81501,1,0,0:0:0:0:
320,192,81679,1,0,0:0:0:0:
64,192,81679,1,0,0:0:0:0:
