osu file format v7

[General]
AudioFilename: baracuda - ass up (banana inc remix).mp3
AudioLeadIn: 0
PreviewTime: 76484
Countdown: 0
SampleSet: Soft
StackLeniency: 0.4
Mode: 0
LetterboxInBreaks: 1

[Editor]
Bookmarks: 208729
DistanceSpacing: 1
BeatDivisor: 4
GridSize: 8

[Metadata]
Title:Ass Up! (Banana Inc. Remix)
Artist:Baracuda
Creator:ztrot
Version:Shake
Source:
Tags:Rokodo SteRRuM xxheroxx

[Difficulty]
HPDrainRate:7
CircleSize:4
OverallDifficulty:8
SliderMultiplier:2
SliderTickRate:1

[Events]
//Background and Video events
0,0,"assup5.png"
//Break Periods
//Storyboard Layer 0 (Background)
//Storyboard Layer 1 (Fail)
//Storyboard Layer 2 (Pass)
//Storyboard Layer 3 (Foreground)
//Storyboard Sound Samples
//Background Colour Transformations
3,100,128,255,255

[TimingPoints]
6280,408.163265306122,4,2,1,100,1,0
37301,-100,4,2,1,10,0,0
40362,-100,4,2,1,25,0,0
43729,-100,4,2,1,40,0,0
46995,-100,4,2,1,45,0,0
49330,-100,4,2,1,60,0,0
76383,-100,4,1,1,60,0,0
115464,-100,4,1,2,60,0,0
121280,-100,4,1,1,60,0,0
182403,-100,4,1,2,60,0,0
188219,-100,4,1,1,60,0,0

[Colours]
Combo1 : 0,217,217
Combo2 : 157,255,182
Combo3 : 113,184,255

[HitObjects]
256,352,38014,2,0,B|168:384|128:288,1,150,2|0
56,240,38524,1,8
144,56,38933,2,0,B|256:24|304:168,1,200,2|8
424,224,39647,2,0,B|389:308|301:276,1,150,2|2
256,192,40157,1,8
368,40,40565,6,0,B|448:104|424:232,1,200,2|10
320,328,41280,2,0,B|256:384|168:320,1,150,2|2
256,264,41790,1,8
168,88,42198,2,0,B|256:-8|352:96,1,200,0|10
256,208,42912,2,0,B|328:264|400:208,1,150,2|2
448,128,43422,1,8
448,128,43626,1,0
360,72,43831,6,0,B|256:40|152:72,1,200,2|10
56,176,44545,2,0,B|136:248|32:328,1,150,2|2
152,328,45055,1,8
352,352,45463,6,0,B|472:352|464:216,1,200,2|8
424,80,46177,2,0,B|368:-8|304:80,1,150,2|2
368,155,46688,1,8
304,232,46892,1,0
239,155,47096,2,0,B|151:83|47:163,1,200,2|8
80,304,47810,2,0,B|144:360|224:304,1,150,2|2
256,216,48320,1,8
256,8,48728,1,2
256,112,48933,1,0
344,64,49137,1,8
472,216,49545,5,0
424,304,49749,1,0
336,256,49953,1,8
384,168,50157,1,0
288,176,50361,2,0,B|240:288|128:288,1,200,2|8
48,168,51075,2,0,B|104:88|184:128,1,150,2|2
256,56,51586,1,8
456,56,51994,2,0,B|520:152|456:248,1,200,2|8
328,320,52708,2,0,B|256:360|176:320,1,150,2|2
256,256,53218,1,8
88,192,53626,6,0,B|128:144|184:168,2,100,0|0|8
152,272,54239,1,0
152,272,54341,1,2
256,168,54647,1,2
256,72,54851,1,8
256,272,55259,6,0,B|192:368|72:304,1,200,2|8
160,240,55871,1,0
160,240,55973,1,2
96,160,56177,1,0
96,160,56280,1,2
176,104,56484,1,8
96,40,56688,1,0
176,104,56892,1,2
328,256,57300,5,8
392,336,57504,1,0
296,352,57708,1,0
216,32,58116,1,10
120,48,58320,1,0
184,128,58524,1,0
256,312,58933,1,10
328,128,59341,1,0
256,312,59749,1,10
448,256,60157,6,0,B|512:208|512:120|456:64|392:48|336:112,1,300,2|0
392,192,60973,2,0,B|349:242|285:226|229:170|229:82|293:34,1,300,2|0
360,104,61790,1,2
472,272,62198,2,0,B|424:368|296:352,1,200,8|0
104,352,63014,5,0
40,280,63218,1,0
40,232,63320,1,0
80,208,63422,1,2
256,88,63831,1,8
432,208,64239,1,2
336,32,64647,1,8
256,256,65055,5,2
176,32,65463,1,8
256,256,65871,1,2
256,160,66075,1,0
256,256,66280,1,8
336,80,66688,6,0,B|424:136|424:280|328:344,1,300,2|0
184,80,67504,2,0,B|96:135|96:279|183:336,1,300,2|0
256,264,68320,1,2
256,64,68728,1,0
256,264,69137,1,2
72,192,69545,5,0
40,152,69647,1,0
40,104,69749,1,0
256,192,69953,12,0,74443
256,192,74851,12,0,76075
408,192,76279,5,0
432,96,76484,1,2
256,192,76892,1,2
312,104,77096,1,0
216,72,77300,1,2
64,200,77708,5,0
32,296,77912,1,0
160,184,78116,1,2
112,352,78320,1,0
240,248,78524,1,2
208,352,78728,1,0
136,272,78933,1,2
384,216,79341,5,2
368,312,79545,1,0
464,280,79749,1,0
48,280,80157,1,2
144,312,80361,1,0
128,216,80565,1,2
448,184,80973,5,2
448,88,81177,1,0
360,136,81382,1,2
448,184,81586,1,0
368,240,81790,1,2
256,80,81994,1,0
144,240,82198,1,2
96,48,82606,5,2
176,112,82810,1,0
256,48,83014,1,2
336,104,83218,1,0
432,104,83422,2,0,B|472:152|424:200,1,100,8|0
336,264,83831,1,0
336,136,84035,1,0
256,192,84239,2,0,B|213:150|253:102,1,100,8|0
152,72,84647,5,2
8,64,84851,1,0
40,152,85055,1,8
80,8,85259,1,0
112,152,85463,1,2
312,328,85871,5,10
400,280,86075,1,0
400,176,86279,1,2
120,208,86688,1,10
120,112,86892,1,0
200,56,87096,1,2
376,72,87504,5,10
264,176,87708,1,0
432,224,87912,1,2
296,88,88116,1,0
448,144,88320,1,10
328,248,88524,1,0
376,72,88728,1,2
160,344,89137,5,10
128,248,89341,1,0
32,280,89545,1,2
352,344,89953,1,10
384,248,90157,1,0
480,272,90361,1,2
328,160,90769,5,8
256,88,90973,1,0
184,160,91177,1,0
256,232,91382,1,2
296,136,91586,1,10
216,136,91790,1,0
256,232,91994,1,2
88,192,92402,5,10
48,104,92606,1,0
128,48,92810,1,2
424,192,93218,1,10
464,104,93422,1,0
384,48,93626,1,2
256,176,94035,5,10
336,280,94239,1,0
176,280,94443,1,2
312,216,94647,1,0
200,216,94851,1,8
256,304,95055,1,0
256,176,95259,1,2
64,64,95667,5,8
160,40,95871,1,0
128,136,96075,1,2
448,320,96484,1,8
352,344,96688,1,0
384,248,96892,1,2
256,104,97300,5,8
336,160,97504,1,0
336,64,97708,1,2
416,120,97912,1,0
424,216,98116,1,10
336,64,98320,1,0
256,216,98524,1,2
88,320,98933,5,10
64,224,99137,1,0
40,128,99341,1,2
424,320,99749,1,10
448,224,99953,1,0
472,128,100157,1,2
256,32,100565,5,8
168,80,100769,1,2
344,80,100973,1,2
200,160,101177,1,0
304,160,101382,1,10
256,248,101586,1,0
256,152,101790,1,2
256,352,102198,1,2
88,248,102606,5,2
24,168,102810,1,0
48,72,103014,1,0
144,40,103218,1,0
184,144,103422,1,2
336,144,103728,1,2
256,272,104035,1,2
424,136,104443,5,2
480,216,104647,1,0
464,312,104851,1,0
336,240,105055,1,2
184,240,105361,1,2
256,112,105667,1,2
168,72,105871,5,2
72,104,106075,1,0
32,192,106279,1,0
72,288,106484,1,0
168,312,106688,1,2
256,192,106994,1,2
344,312,107300,1,2
344,72,107708,5,2
440,104,107912,1,0
480,200,108116,1,0
432,288,108320,1,2
256,152,108626,1,2
80,288,108933,1,6
80,192,109137,5,6
168,152,109341,1,0
256,208,109545,1,0
344,264,109749,1,2
344,152,109953,1,2
256,312,110259,1,0
168,152,110565,1,2
256,32,110769,5,6
144,272,111075,1,6
368,272,111382,1,6
256,104,111790,1,2
208,192,111994,1,2
304,192,112198,1,2
176,232,112402,5,2
192,136,112606,1,2
336,232,112810,1,0
320,136,113014,1,2
256,72,113218,1,6
256,312,113524,1,6
256,72,113831,1,6
256,72,114035,5,6
104,192,114341,1,2
256,320,114647,1,2
416,192,114851,1,2
256,72,115259,1,2
344,248,115667,5,0
256,200,115871,1,0
256,296,116075,2,0,B|208:336|160:288,1,100,8|0
88,232,116484,1,0
256,296,116688,1,0
167,196,116892,2,0,B|214:157|256:200,1,100,8|0
304,112,117300,5,0
232,48,117504,1,0
328,32,117708,2,0,B|371:-6|419:33,1,100,8|0
464,120,118116,1,0
368,120,118320,1,0
416,208,118524,2,0,B|454:257|404:311,1,100,8|0
328,256,118933,5,0
240,312,119137,1,0
248,216,119341,2,0,B|200:184|152:216,1,100,8|0
120,312,119749,1,0
40,256,119953,1,0
40,160,120157,2,0,B|85:190|133:158,1,100,8|0
88,72,120565,5,0
176,24,120769,1,0
256,80,120973,2,0,B|304:40|352:80,1,100,8|0
184,120,121382,1,2
256,344,121688,1,2
328,120,121994,1,2
256,248,122198,5,0
256,152,122402,1,0
168,200,122606,2,0,B|112:200|96:264,1,100,8|0
24,192,123014,1,2
24,96,123218,1,0
112,144,123422,2,0,B|136:96|200:96,1,100,8|0
256,176,123831,5,2
256,176,124035,1,0
318,96,124239,2,0,B|376:96|400:144,1,100,8|0
400,240,124647,1,2
320,304,124851,1,0
232,256,125055,2,0,B|232:360,1,100,8|0
144,304,125463,5,2
232,256,125667,1,0
144,208,125871,2,0,B|144:96,1,100,8|0
256,160,126279,1,2
48,48,126586,1,2
48,264,126892,1,2
160,328,127096,5,2
256,304,127300,1,0
352,328,127504,1,8
256,304,127708,1,0
256,104,127912,1,2
160,328,128218,1,2
352,328,128524,1,2
416,256,128728,5,2
384,160,128933,1,0
328,240,129137,1,8
424,200,129341,1,0
328,176,129545,1,2
256,16,129851,1,2
184,176,130157,1,2
152,272,130361,5,2
112,184,130565,1,0
208,192,130769,1,8
128,248,130973,1,0
192,320,131177,1,2
256,80,131484,1,2
320,320,131790,1,2
360,272,131994,5,2
400,184,132198,1,0
304,192,132402,1,8
384,248,132606,1,0
320,320,132810,1,2
256,80,133116,1,2
184,320,133422,1,2
328,304,133831,5,2
256,232,134035,1,10
184,304,134239,1,0
152,208,134443,1,2
256,24,134749,1,2
360,208,135055,1,2
344,112,135259,5,2
256,64,135463,1,0
168,112,135667,1,8
256,160,135871,1,0
344,208,136075,1,2
256,24,136382,1,2
168,208,136688,1,2
256,256,136892,5,2
312,176,137096,1,0
360,264,137300,1,8
272,208,137504,1,0
360,168,137708,1,2
256,24,138014,1,2
152,168,138320,1,2
184,256,138524,5,2
240,168,138728,1,0
296,256,138933,1,8
208,208,139137,1,0
304,184,139341,1,2
128,72,139647,1,2
304,184,139953,1,2
384,120,140157,5,2
312,56,140361,1,0
408,24,140565,1,8
352,104,140769,1,0
448,112,140973,1,0
368,296,141279,1,0
256,192,141586,1,0
256,192,141790,1,2
256,192,141892,12,2,143014
104,192,143218,5,0
80,288,143422,1,2
256,192,143831,1,2
200,280,144035,1,0
296,312,144239,1,2
456,192,144647,5,2
456,88,144851,1,0
376,248,145055,1,2
376,24,145259,1,0
296,192,145463,1,2
296,88,145667,1,0
376,136,145871,1,2
128,168,146279,5,2
144,72,146484,1,0
48,104,146688,1,2
464,104,147096,1,2
368,72,147300,1,0
384,168,147504,1,2
304,352,147912,5,2
208,352,148116,1,0
336,272,148320,1,2
176,272,148524,1,0
384,192,148728,1,2
256,80,148933,1,0
128,192,149137,1,2
416,336,149545,5,2
336,272,149749,1,0
256,336,149953,1,2
176,280,150157,1,0
80,280,150361,2,0,B|40:232|88:184,1,100,8|0
176,120,150769,1,2
176,248,150973,1,0
256,192,151177,2,0,B|299:234|259:282,1,100,8|0
360,312,151586,5,2
448,264,151790,1,0
368,200,151994,1,10
456,152,152198,1,0
376,96,152402,1,2
200,56,152810,5,10
112,104,153014,1,0
112,208,153218,1,2
392,176,153626,1,10
392,272,153831,1,0
312,328,154035,1,2
184,280,154443,5,10
112,352,154647,1,0
328,280,154851,1,2
400,352,155055,1,0
256,168,155259,1,10
256,72,155463,1,0
256,168,155667,1,2
352,40,156075,5,8
384,136,156279,1,0
480,104,156484,1,6
160,40,156892,1,10
128,136,157096,1,0
32,112,157300,1,2
184,224,157708,5,8
256,296,157912,1,0
328,224,158116,1,2
256,152,158320,1,0
216,248,158524,1,8
296,248,158728,1,0
256,152,158933,1,2
424,192,159341,5,10
464,280,159545,1,0
384,336,159749,1,2
88,192,160157,1,10
48,280,160361,1,0
128,336,160565,1,2
256,208,160973,5,8
184,96,161177,1,0
328,96,161382,1,2
184,168,161586,1,0
328,168,161790,1,10
256,48,161994,1,0
256,208,162198,1,2
448,320,162606,5,10
352,352,162810,1,0
384,256,163014,1,2
64,64,163422,1,10
160,32,163626,1,0
128,128,163831,1,2
256,256,164239,5,10
192,344,164443,1,0
88,344,164647,1,2
48,256,164851,1,0
96,168,165055,1,10
192,168,165259,1,0
256,256,165463,1,2
424,64,165871,5,10
448,160,166075,1,0
472,256,166279,1,2
88,64,166688,1,10
64,160,166892,1,0
40,256,167096,1,2
256,352,167504,5,10
344,304,167708,1,0
168,304,167912,1,2
312,224,168116,1,0
208,224,168320,1,10
256,136,168524,1,0
256,232,168728,1,2
256,32,169137,1,2
424,248,169545,5,6
480,160,169749,1,0
464,64,169953,1,0
368,32,170157,1,0
328,144,170361,1,2
176,144,170667,1,2
256,272,170973,1,2
88,136,171382,5,2
32,224,171586,1,0
56,320,171790,1,0
176,240,171994,1,2
328,240,172300,1,2
256,112,172606,1,2
344,72,172810,5,2
440,104,173014,1,0
480,200,173218,1,0
440,296,173422,1,0
344,312,173626,1,2
256,192,173933,1,2
168,312,174239,1,2
168,72,174647,5,2
72,88,174851,1,0
32,184,175055,1,0
88,264,175259,1,2
256,152,175565,1,2
424,264,175871,1,2
448,160,176075,5,6
344,152,176279,1,2
256,208,176484,1,0
168,264,176688,1,2
168,152,176892,1,2
256,312,177198,1,2
344,152,177504,1,2
256,32,177708,5,6
368,272,178014,1,6
144,272,178320,1,6
256,104,178728,1,2
304,192,178933,1,2
208,192,179137,1,6
336,232,179341,5,0
320,136,179545,1,2
176,232,179749,1,0
192,136,179953,1,2
256,72,180157,5,2
256,312,180463,1,2
256,72,180769,1,2
256,72,180973,1,2
408,192,181279,1,6
256,320,181586,1,4
96,192,181790,1,4
256,72,182198,1,2
168,248,182606,5,0
256,200,182810,1,0
344,248,183014,2,0,B|384:200|336:152,1,100,8|0
256,200,183422,1,0
256,296,183626,1,0
168,248,183831,2,0,B|125:207|165:159,1,100,8|0
256,200,184239,5,0
256,296,184443,1,0
344,248,184647,2,0,B|384:200|336:144,1,100,8|0
256,104,185055,1,0
256,200,185259,1,0
168,160,185463,2,0,B|129:209|179:263,1,100,8|0
256,304,185871,5,0
344,352,186075,1,0
344,248,186280,2,0,B|392:216|440:248,1,100,8|0
344,352,186688,1,0
256,304,186892,1,0
176,248,187096,2,0,B|128:216|80:248,1,100,8|0
256,208,187504,5,0
352,184,187708,1,0
400,96,187912,2,0,B|352:56|304:96,1,100,8|0
200,96,188320,1,2
56,192,188626,1,2
168,296,188933,1,2
256,248,189137,5,2
256,152,189341,1,0
344,200,189545,2,0,B|400:200|416:264,1,100,8|0
488,192,189953,1,2
488,96,190157,1,0
400,144,190361,2,0,B|376:96|312:96,1,100,8|0
256,176,190769,5,2
256,176,190973,1,0
193,96,191177,2,0,B|136:96|112:144,1,100,8|0
112,240,191586,1,2
192,304,191790,1,0
280,256,191994,2,0,B|280:360,1,100,8|0
368,304,192402,5,2
280,256,192606,1,0
368,208,192810,2,0,B|368:96,1,100,8|0
280,160,193218,1,2
440,48,193524,1,2
448,264,193831,1,2
352,328,194035,5,2
256,304,194239,1,0
160,328,194443,1,8
256,304,194647,1,0
256,160,194851,1,2
352,328,195157,1,2
160,328,195463,1,2
344,248,195667,5,2
256,200,195871,1,0
256,296,196075,2,0,B|208:336|160:288,1,100,8|0
256,200,196484,1,2
256,296,196688,1,0
256,200,196892,2,0,B|214:157|166:197,1,100,8|0
80,248,197300,5,2
80,152,197504,1,0
136,72,197708,2,0,B|184:32|240:80,1,100,8|0
320,32,198116,1,2
320,128,198320,1,0
408,80,198524,2,0,B|446:129|396:183,1,100,8|0
320,224,198933,5,2
320,320,199137,1,0
320,224,199341,2,0,B|272:192|224:224,1,100,8|0
320,320,199749,1,2
320,224,199953,1,0
320,320,200157,2,0,B|272:352|224:320,1,100,8|0
136,272,200565,5,2
72,200,200769,1,0
136,120,200973,2,0,B|184:80|232:120,1,100,8|0
328,120,201382,1,6
456,192,201688,1,6
344,296,201994,1,6
256,248,202198,5,2
256,152,202402,1,0
168,200,202606,2,0,B|112:200|96:264,1,100,8|0
24,192,203014,1,2
24,96,203218,1,0
112,144,203422,2,0,B|136:96|200:96,1,100,8|0
256,176,203831,5,2
256,176,204035,1,0
318,96,204239,2,0,B|376:96|400:144,1,100,8|0
400,240,204647,1,2
320,304,204851,1,0
232,256,205055,2,0,B|232:360,1,100,8|0
144,304,205463,5,2
232,256,205667,1,0
144,208,205871,2,0,B|144:96,1,100,8|0
232,160,206280,5,6
72,48,206586,1,6
64,264,206892,1,6
160,328,207096,5,2
256,304,207300,1,0
352,328,207504,1,8
256,304,207708,1,0
256,160,207912,1,2
160,328,208218,1,2
352,328,208524,1,2
256,160,208728,1,6
