osu file format v5

[General]
AudioFilename: Banzai-Zodiac.mp3
AudioLeadIn: 0
PreviewTime: 22429
Countdown: 0
SampleSet: Normal
StackLeniency: 0.7
Mode: 0
LetterboxInBreaks: 1

[Metadata]
Title:Zodiac
Artist:Banzai
Creator:Mogsworth
Version:Easy
Source:
Tags:

[Difficulty]
HPDrainRate:4
CircleSize:4
OverallDifficulty:3
SliderMultiplier:1.4
SliderTickRate:2

[Events]
//Background and Video events
0,0,"Zodiac-bg.png"
//Break Periods
2,58560,75104
//Storyboard Layer 0 (Background)
//Storyboard Layer 1 (Failing)
//Storyboard Layer 2 (Passing)
//Storyboard Layer 3 (Foreground)
//Storyboard Sound Samples
//Background Colour Transformations
3,100,0,0,0

[TimingPoints]
0,560.747663551402,4,1,0,70,1
20186,560.747663551402,4,2,0,70,1
22428,560.747663551402,4,1,0,70,1

[Colours]
Combo1 : 192,192,192
Combo2 : 255,128,64
Combo3 : 255,255,0
Combo4 : 255,0,0

[HitObjects]
104,72,4485,1,0
104,184,5046,1,8
200,136,5607,2,0,B|264:136,2,35
200,192,6168,1,10
200,248,6448,1,4
240,288,6728,5,0
352,288,7289,1,8
400,192,7850,2,0,B|400:128,2,35
344,192,8411,1,10
288,192,8691,1,4
248,152,8971,5,0
136,152,9532,1,8
40,104,10093,2,0,B|-24:104,2,35
40,160,10654,1,10
40,216,10934,1,4
0,256,11214,5,0
112,256,11775,1,8
224,256,12336,1,0
336,256,12897,2,14,B|392:192|272:192|296:120,1,140,14|6
176,144,14018,5,8
96,216,14579,2,0,L|40:216,2,35
136,256,15140,1,10
176,288,15420,1,4
232,288,15700,5,0
344,288,16261,1,8
424,208,16822,2,0,L|480:208,2,35
376,176,17383,2,14,B|320:152|296:248|224:144,1,140,14|6
136,168,18504,5,8
40,224,19065,2,0,B|40:264,2,35
88,248,19626,1,10
136,272,19906,1,4
184,296,20186,6,0,B|256:336|344:280,1,140,10|4
320,184,21307,2,0,B|256:152|168:184,1,140,10|4
72,184,22428,6,0,B|32:280,1,70
45,248,22988,1,8
160,248,23549,2,14,B|256:216|256:328|296:264,1,140,10|14
392,248,24670,6,0,B|440:168,1,70
428,187,25231,1,8
312,176,25792,2,14,B|284:226|284:114|188:146,1,140,10|14
88,176,26913,6,0,B|144:88,1,70
125,116,27474,1,8
232,112,28035,2,14,B|328:144|328:32|368:96,1,140,10|14
464,88,29156,6,0,B|464:168,1,70
464,158,29717,1,10
384,240,30278,1,10
296,312,30839,1,14
184,312,31399,6,0,B|144:216,1,70
157,248,31959,1,8
136,136,32520,2,14,B|232:168|232:56|272:120,1,140,10|14
368,104,33641,6,0,B|416:184,1,70
404,165,34202,1,8
288,176,34763,2,14,B|260:126|260:238|164:206,1,140,10|14
56,216,35884,6,0,B|112:304,1,70
93,276,36445,1,8
200,280,37006,2,14,B|296:248|296:360|336:296,1,140,10|14
432,312,38127,6,0,B|432:232,1,70
432,242,38689,1,10
352,160,39250,2,0,L|280:96,1,70
299,113,39811,1,14
160,48,40371,6,2,B|40:112|45:350|313:152|280:352,1,420,0|10
168,328,42614,2,2,B|138:150|406:348|411:110|291:46,1,420,2|10
184,48,44857,2,2,B|177:348|185:84|18:49|48:368,1,420,2|10
160,328,47100,2,2,B|440:356|405:189|141:197|440:189,1,420,2|14
392,80,49343,6,2,B|197:-2|276:158|276:236|40:88,1,420,2|10
56,200,51586,2,2,B|286:56|286:134|207:294|402:212,1,420,2|10
408,320,53829,2,10,B|360:352|304:320,2,105
408,320,54951,2,10,B|368:272|472:264|432:96|360:32|360:32|232:264,1,560,10|10
238,252,57755,1,10
238,252,58315,1,12
408,312,76259,5,0
408,200,76820,1,8
312,248,77381,2,0,B|248:248,2,35
312,192,77942,1,10
312,136,78222,1,4
272,96,78502,5,0
160,96,79063,1,8
112,192,79624,2,0,B|112:256,2,35
168,192,80185,1,10
224,192,80465,1,4
264,232,80745,5,0
376,232,81306,1,8
472,280,81867,2,0,B|536:280,2,35
472,224,82428,1,10
472,168,82708,1,4
432,128,82988,5,0
320,128,83549,1,10
208,128,84110,1,0
96,128,84670,1,14
24,208,85231,5,0
120,264,85792,1,8
224,304,86353,2,0,L|224:240,2,35
272,336,86914,1,10
320,304,87194,1,4
360,336,87474,5,0
448,264,88035,1,8
512,168,88596,2,0,B|560:168,2,35
472,128,89156,1,10
440,168,89437,1,0
400,128,89717,5,4
320,200,90278,1,8
248,280,90839,2,0,B|304:280,2,35
208,320,91399,1,10
168,280,91680,1,0
256,192,91960,12,12,93642
440,184,94203,6,0,B|482:208|440:256,1,70
450,243,94764,1,8
344,288,95324,2,14,L|248:368|208:304,1,140,10|14
216,248,96446,6,0,B|192:290|144:248,1,70
157,258,97007,1,8
112,152,97567,2,14,L|166:104|240:152,1,140,10|14
272,240,98689,6,0,B|296:282|344:240,1,70
331,250,99250,1,8
376,144,99810,2,14,L|456:48|392:8,1,140,10|14
328,40,100931,6,0,B|264:96,1,70
275,86,101493,1,10
176,144,102054,1,10
80,200,102615,1,14
184,232,103175,6,0,B|208:190|256:232,1,70
243,222,103736,1,8
264,328,104296,2,14,L|318:376|392:328,1,140,10|14
376,224,105418,6,0,B|400:266|448:224,1,70
435,234,105979,1,8
480,128,106539,2,14,L|426:80|352:128,1,140,10|14
264,88,107661,6,0,B|240:46|192:88,1,70
205,78,108222,1,8
128,160,108783,2,14,L|48:256|112:296,1,140,10|14
256,192,109904,12,4,112147
