osu file format v12

[General]
AudioFilename: Love is a Danger Zone Cranky mix.mp3
AudioLeadIn: 0
PreviewTime: 25015
Countdown: 0
SampleSet: None
StackLeniency: 0.2
Mode: 1
LetterboxInBreaks: 1

[Editor]
Bookmarks: 8176,40692,53079
DistanceSpacing: 1
BeatDivisor: 2
GridSize: 32

[Metadata]
Title:Love is a Danger Zone (Cranky Mix)
TitleUnicode:Love is a Danger Zone (Cranky Mix)
Artist:Banya, Cranky
ArtistUnicode:Banya, Cranky
Creator:Mintice
Version:Taiko Muzukashii
Source:Pump It Up 2013 Fiesta 2
Tags:HabiHolic Kanwa
BeatmapID:251685
BeatmapSetID:73294

[Difficulty]
HPDrainRate:4
CircleSize:3
OverallDifficulty:4
ApproachRate:7
SliderMultiplier:1.4
SliderTickRate:1

[Events]
//Background and Video events
0,0,"screenshot103.png",0,0
//Break Periods
//Storyboard Layer 0 (Background)
//Storyboard Layer 1 (Fail)
//Storyboard Layer 2 (Pass)
//Storyboard Layer 3 (Foreground)
//Storyboard Sound Samples
//Background Colour Transformations
3,100,163,162,255

[TimingPoints]
1983,387.096774193548,4,1,1,70,1,0
26757,-100,4,1,1,70,0,1
37595,-100,4,1,1,70,0,0
80950,-100,4,1,1,70,0,1
92950,-100,4,1,1,70,0,0
93337,-100,4,1,1,70,0,1
105724,-100,4,1,1,70,0,0

[Colours]
Combo1 : 0,255,255
Combo2 : 255,0,255
Combo3 : 0,128,255
Combo4 : 128,0,255

[HitObjects]
32,32,8176,1,0,0:0:0:0:
32,32,8563,1,0,0:0:0:0:
32,32,8950,1,0,0:0:0:0:
32,32,9337,1,0,0:0:0:0:
96,32,9724,1,8,0:0:0:0:
96,32,10112,1,8,0:0:0:0:
96,32,10499,1,8,0:0:0:0:
96,32,10886,1,8,0:0:0:0:
32,32,11273,1,0,0:0:0:0:
32,32,11660,1,0,0:0:0:0:
32,32,12047,1,0,0:0:0:0:
32,32,12434,1,0,0:0:0:0:
32,32,12821,1,0,0:0:0:0:
32,32,13208,1,0,0:0:0:0:
32,32,13595,1,0,0:0:0:0:
32,32,13789,1,0,0:0:0:0:
32,32,13982,1,0,0:0:0:0:
32,96,14370,5,4,0:0:0:0:
32,96,14757,1,0,0:0:0:0:
32,96,15144,1,0,0:0:0:0:
32,96,15337,1,0,0:0:0:0:
32,96,15531,1,0,0:0:0:0:
96,96,15918,1,8,0:0:0:0:
96,96,16305,1,8,0:0:0:0:
32,96,16692,1,0,0:0:0:0:
32,96,16886,1,0,0:0:0:0:
96,96,17079,1,8,0:0:0:0:
32,96,17466,1,0,0:0:0:0:
96,96,17853,1,8,0:0:0:0:
32,96,18241,1,0,0:0:0:0:
32,96,18434,1,0,0:0:0:0:
96,96,18628,1,8,0:0:0:0:
32,160,19015,2,0,L|480:160,1,420
480,352,20563,5,4,0:0:0:0:
480,352,20950,1,0,0:0:0:0:
480,352,21337,1,4,0:0:0:0:
480,352,21724,1,0,0:0:0:0:
416,352,22112,1,8,0:0:0:0:
480,352,22499,1,0,0:0:0:0:
480,352,22886,1,0,0:0:0:0:
480,352,23273,1,0,0:0:0:0:
480,352,23660,1,0,0:0:0:0:
480,352,24047,1,0,0:0:0:0:
480,352,24434,1,0,0:0:0:0:
480,352,24821,1,0,0:0:0:0:
480,352,25208,1,0,0:0:0:0:
480,352,25595,1,0,0:0:0:0:
480,352,25982,1,0,0:0:0:0:
416,352,26370,1,12,0:0:0:0:
480,288,26757,5,0,0:0:0:0:
480,288,26950,1,0,0:0:0:0:
416,288,27144,1,8,0:0:0:0:
416,288,27337,1,8,0:0:0:0:
480,288,27531,1,0,0:0:0:0:
480,288,27724,1,0,0:0:0:0:
416,288,27918,1,8,0:0:0:0:
480,288,28112,1,0,0:0:0:0:
480,288,28305,1,0,0:0:0:0:
480,288,28499,1,0,0:0:0:0:
480,288,28692,1,0,0:0:0:0:
480,288,28886,1,0,0:0:0:0:
416,288,29079,1,8,0:0:0:0:
416,288,29273,1,8,0:0:0:0:
480,288,29466,1,0,0:0:0:0:
480,288,29660,1,0,0:0:0:0:
480,224,29853,5,0,0:0:0:0:
480,224,30046,1,0,0:0:0:0:
416,224,30240,1,8,0:0:0:0:
416,224,30433,1,8,0:0:0:0:
480,224,30628,1,0,0:0:0:0:
480,224,30820,1,0,0:0:0:0:
416,224,31014,1,8,0:0:0:0:
416,224,31208,1,0,0:0:0:0:
480,224,31402,1,0,0:0:0:0:
480,224,31789,1,4,0:0:0:0:
480,224,32176,1,4,0:0:0:0:
480,224,32563,1,4,0:0:0:0:
480,160,32950,5,0,0:0:0:0:
480,160,33143,1,0,0:0:0:0:
416,160,33337,1,8,0:0:0:0:
416,160,33530,1,8,0:0:0:0:
480,160,33724,1,0,0:0:0:0:
480,160,33917,1,0,0:0:0:0:
416,160,34111,1,8,0:0:0:0:
480,160,34305,1,0,0:0:0:0:
480,160,34498,1,0,0:0:0:0:
480,160,34692,1,0,0:0:0:0:
480,160,34885,1,8,0:0:0:0:
480,160,35079,1,0,0:0:0:0:
416,160,35272,1,8,0:0:0:0:
416,160,35466,1,8,0:0:0:0:
480,160,35659,1,0,0:0:0:0:
416,160,35853,1,8,0:0:0:0:
480,96,36046,5,0,0:0:0:0:
480,96,36239,1,0,0:0:0:0:
416,96,36433,1,8,0:0:0:0:
416,96,36626,1,8,0:0:0:0:
480,96,36820,1,0,0:0:0:0:
480,96,37013,1,0,0:0:0:0:
416,96,37207,1,8,0:0:0:0:
480,96,37402,1,0,0:0:0:0:
480,96,37595,1,0,0:0:0:0:
480,96,37789,1,0,0:0:0:0:
480,96,37982,1,0,0:0:0:0:
480,96,38176,1,0,0:0:0:0:
480,96,38370,1,0,0:0:0:0:
480,96,38563,1,0,0:0:0:0:
480,96,38757,1,0,0:0:0:0:
480,96,38950,1,0,0:0:0:0:
256,192,39144,5,0,0:0:0:0:
192,128,39531,1,8,0:0:0:0:
256,192,39918,1,0,0:0:0:0:
256,192,40015,1,0,0:0:0:0:
256,192,40112,1,0,0:0:0:0:
256,192,40208,1,0,0:0:0:0:
256,192,40305,1,0,0:0:0:0:
256,192,40499,1,0,0:0:0:0:
352,192,40692,5,0,0:0:0:0:
352,192,40886,1,0,0:0:0:0:
352,96,41079,1,8,0:0:0:0:
352,192,41273,1,0,0:0:0:0:
352,96,41466,1,8,0:0:0:0:
352,192,41660,1,0,0:0:0:0:
352,96,41853,1,8,0:0:0:0:
352,96,42241,1,12,0:0:0:0:
352,192,42628,1,4,0:0:0:0:
352,96,43015,1,12,0:0:0:0:
352,192,43402,1,4,0:0:0:0:
352,192,43789,1,0,0:0:0:0:
352,192,43982,1,0,0:0:0:0:
352,96,44176,1,8,0:0:0:0:
352,192,44757,1,0,0:0:0:0:
352,192,44950,1,0,0:0:0:0:
352,192,45144,1,0,0:0:0:0:
352,96,45337,1,8,0:0:0:0:
352,96,45531,1,8,0:0:0:0:
352,192,45724,1,0,0:0:0:0:
352,192,45918,1,0,0:0:0:0:
352,96,46112,1,8,0:0:0:0:
352,192,46499,1,0,0:0:0:0:
352,192,46692,1,0,0:0:0:0:
128,192,46886,5,0,0:0:0:0:
128,192,47080,1,0,0:0:0:0:
128,96,47273,1,8,0:0:0:0:
128,192,47466,1,0,0:0:0:0:
128,96,47660,1,8,0:0:0:0:
128,192,47854,1,0,0:0:0:0:
128,96,48047,1,8,0:0:0:0:
128,96,48435,1,12,0:0:0:0:
128,192,48822,1,4,0:0:0:0:
128,96,49209,1,12,0:0:0:0:
128,192,49596,1,4,0:0:0:0:
128,192,49983,1,0,0:0:0:0:
128,192,50176,1,0,0:0:0:0:
128,96,50370,1,8,0:0:0:0:
128,96,50950,1,8,0:0:0:0:
128,96,51144,1,8,0:0:0:0:
128,96,51337,1,8,0:0:0:0:
256,192,51531,1,12,0:0:0:0:
256,192,51918,1,12,0:0:0:0:
256,192,52305,1,12,0:0:0:0:
256,192,52692,1,12,0:0:0:0:
192,320,53079,5,0,0:0:0:0:
192,320,53466,1,0,0:0:0:0:
192,320,53853,1,0,0:0:0:0:
320,320,54241,1,8,0:0:0:0:
192,320,54628,1,0,0:0:0:0:
192,320,55015,1,0,0:0:0:0:
192,320,55402,1,0,0:0:0:0:
192,320,55595,1,0,0:0:0:0:
192,320,55789,1,0,0:0:0:0:
192,320,55982,1,0,0:0:0:0:
192,320,56176,1,0,0:0:0:0:
192,320,56563,1,0,0:0:0:0:
320,320,56950,1,8,0:0:0:0:
320,320,57337,1,8,0:0:0:0:
192,320,57724,1,0,0:0:0:0:
192,320,58112,1,0,0:0:0:0:
192,320,58499,1,0,0:0:0:0:
192,320,58692,1,0,0:0:0:0:
192,320,58886,1,0,0:0:0:0:
192,320,59079,1,0,0:0:0:0:
192,64,59273,5,0,0:0:0:0:
192,64,59660,1,0,0:0:0:0:
192,64,60047,1,0,0:0:0:0:
320,64,60434,1,8,0:0:0:0:
192,64,60821,1,0,0:0:0:0:
192,64,61208,1,0,0:0:0:0:
192,64,61595,1,0,0:0:0:0:
320,64,61982,1,8,0:0:0:0:
192,64,62370,1,0,0:0:0:0:
192,64,62563,1,0,0:0:0:0:
320,64,62757,1,8,0:0:0:0:
320,64,62950,1,8,0:0:0:0:
320,64,63144,1,8,0:0:0:0:
192,64,63337,1,0,0:0:0:0:
192,64,63531,1,0,0:0:0:0:
192,64,63724,1,0,0:0:0:0:
192,64,63918,1,0,0:0:0:0:
320,64,64305,1,8,0:0:0:0:
320,64,64499,1,8,0:0:0:0:
192,64,64692,1,0,0:0:0:0:
192,64,64886,1,0,0:0:0:0:
192,64,65079,1,0,0:0:0:0:
320,64,65466,5,12,0:0:0:0:
192,192,65853,1,0,0:0:0:0:
192,192,66241,1,0,0:0:0:0:
192,192,66628,1,0,0:0:0:0:
192,192,67015,1,0,0:0:0:0:
192,192,67402,1,0,0:0:0:0:
192,192,67789,1,0,0:0:0:0:
192,192,68176,1,0,0:0:0:0:
192,192,68370,1,0,0:0:0:0:
192,192,68563,1,0,0:0:0:0:
192,192,68950,1,0,0:0:0:0:
192,192,69337,1,0,0:0:0:0:
192,192,69724,1,0,0:0:0:0:
192,192,70112,1,0,0:0:0:0:
192,192,70305,1,0,0:0:0:0:
192,192,70499,1,0,0:0:0:0:
192,192,70692,1,0,0:0:0:0:
320,192,70886,1,12,0:0:0:0:
320,192,71273,1,12,0:0:0:0:
192,320,71660,5,0,0:0:0:0:
320,320,72047,1,8,0:0:0:0:
192,320,72434,1,0,0:0:0:0:
192,320,72821,1,0,0:0:0:0:
192,320,73015,1,0,0:0:0:0:
192,320,73208,1,0,0:0:0:0:
320,320,73595,1,8,0:0:0:0:
192,320,73982,1,0,0:0:0:0:
320,320,74370,1,8,0:0:0:0:
320,320,74563,1,8,0:0:0:0:
192,320,74757,1,0,0:0:0:0:
192,320,75144,1,0,0:0:0:0:
192,320,75531,1,0,0:0:0:0:
192,320,75918,1,0,0:0:0:0:
256,192,76305,12,0,78628,0:0:0:0:
192,192,79402,5,0,0:0:0:0:
192,192,79789,1,0,0:0:0:0:
320,192,80176,1,8,0:0:0:0:
320,192,80370,1,8,0:0:0:0:
320,192,80563,1,12,0:0:0:0:
192,192,80950,1,0,0:0:0:0:
320,192,81144,1,8,0:0:0:0:
192,192,81337,1,0,0:0:0:0:
192,192,81531,1,0,0:0:0:0:
320,192,81724,1,8,0:0:0:0:
192,192,81918,1,0,0:0:0:0:
320,192,82112,1,8,0:0:0:0:
192,192,82305,1,0,0:0:0:0:
192,192,82499,1,0,0:0:0:0:
192,192,82692,1,0,0:0:0:0:
192,192,82886,1,8,0:0:0:0:
320,192,83079,1,8,0:0:0:0:
320,192,83273,1,8,0:0:0:0:
192,192,83466,1,0,0:0:0:0:
192,192,83660,1,0,0:0:0:0:
320,192,83853,1,8,0:0:0:0:
192,192,84047,1,0,0:0:0:0:
192,192,84241,1,0,0:0:0:0:
320,192,84434,1,8,0:0:0:0:
192,192,84628,1,0,0:0:0:0:
320,192,84821,1,8,0:0:0:0:
192,192,85015,1,0,0:0:0:0:
320,192,85208,1,8,0:0:0:0:
192,192,85402,1,0,0:0:0:0:
192,192,85595,1,4,0:0:0:0:
192,192,85982,1,4,0:0:0:0:
192,192,86370,1,4,0:0:0:0:
192,192,86757,1,4,0:0:0:0:
192,96,87144,5,0,0:0:0:0:
192,96,87337,1,0,0:0:0:0:
320,96,87531,1,8,0:0:0:0:
192,96,87724,1,0,0:0:0:0:
320,96,87918,1,8,0:0:0:0:
192,96,88112,1,0,0:0:0:0:
192,96,88305,1,0,0:0:0:0:
192,96,88499,1,0,0:0:0:0:
320,96,88692,1,8,0:0:0:0:
320,96,88886,1,8,0:0:0:0:
192,96,89079,1,0,0:0:0:0:
192,96,89273,1,0,0:0:0:0:
192,96,89466,1,0,0:0:0:0:
320,96,89660,1,8,0:0:0:0:
320,96,89853,1,8,0:0:0:0:
192,96,90047,1,0,0:0:0:0:
192,96,90241,1,0,0:0:0:0:
192,96,90434,1,0,0:0:0:0:
320,96,90628,1,8,0:0:0:0:
192,96,90821,1,0,0:0:0:0:
320,96,91015,1,8,0:0:0:0:
320,96,91208,1,8,0:0:0:0:
320,96,91402,1,8,0:0:0:0:
192,96,91595,1,0,0:0:0:0:
192,96,91789,1,4,0:0:0:0:
192,96,92176,1,4,0:0:0:0:
192,96,92563,1,4,0:0:0:0:
192,96,92950,1,4,0:0:0:0:
192,256,93337,5,0,0:0:0:0:
192,256,93531,1,0,0:0:0:0:
320,256,93724,1,8,0:0:0:0:
320,256,93918,1,8,0:0:0:0:
192,256,94112,1,0,0:0:0:0:
192,256,94305,1,0,0:0:0:0:
320,256,94499,1,8,0:0:0:0:
320,256,94692,1,8,0:0:0:0:
320,256,94886,1,8,0:0:0:0:
320,256,95079,1,8,0:0:0:0:
320,256,95273,1,8,0:0:0:0:
320,256,95466,1,8,0:0:0:0:
320,256,95660,1,8,0:0:0:0:
320,256,95853,1,8,0:0:0:0:
320,256,96047,1,8,0:0:0:0:
320,256,96241,1,8,0:0:0:0:
192,256,96434,1,0,0:0:0:0:
192,256,96628,1,0,0:0:0:0:
320,256,96821,1,8,0:0:0:0:
320,256,97015,1,8,0:0:0:0:
320,256,97208,1,8,0:0:0:0:
320,256,97402,1,8,0:0:0:0:
192,256,97595,1,0,0:0:0:0:
192,256,97789,1,0,0:0:0:0:
192,256,97982,1,4,0:0:0:0:
192,256,98370,1,4,0:0:0:0:
192,256,98757,1,4,0:0:0:0:
192,256,99144,1,4,0:0:0:0:
192,128,99531,5,0,0:0:0:0:
192,128,99725,1,0,0:0:0:0:
320,128,99918,1,8,0:0:0:0:
320,128,100112,1,8,0:0:0:0:
192,128,100306,1,0,0:0:0:0:
192,128,100499,1,0,0:0:0:0:
320,128,100693,1,8,0:0:0:0:
320,128,100886,1,8,0:0:0:0:
320,128,101080,1,8,0:0:0:0:
320,128,101273,1,8,0:0:0:0:
320,128,101467,1,8,0:0:0:0:
320,128,101660,1,8,0:0:0:0:
320,128,101854,1,8,0:0:0:0:
320,128,102047,1,8,0:0:0:0:
320,128,102241,1,8,0:0:0:0:
320,128,102435,1,8,0:0:0:0:
192,128,102628,1,0,0:0:0:0:
192,128,102822,1,0,0:0:0:0:
320,128,103015,1,8,0:0:0:0:
320,128,103209,1,8,0:0:0:0:
320,128,103402,1,8,0:0:0:0:
320,128,103596,1,8,0:0:0:0:
192,128,103789,1,0,0:0:0:0:
192,128,103983,1,0,0:0:0:0:
192,128,104176,1,4,0:0:0:0:
192,128,104564,1,4,0:0:0:0:
192,128,104951,1,4,0:0:0:0:
192,128,105338,1,4,0:0:0:0:
192,256,105724,5,4,0:0:0:0:
192,256,106112,1,0,0:0:0:0:
192,256,106499,1,0,0:0:0:0:
192,256,106886,1,0,0:0:0:0:
192,256,107273,1,0,0:0:0:0:
192,256,107563,1,0,0:0:0:0:
192,256,107853,1,0,0:0:0:0:
320,256,108047,1,8,0:0:0:0:
320,256,108337,1,8,0:0:0:0:
320,256,108627,1,8,0:0:0:0:
192,256,108821,1,4,0:0:0:0:
192,256,109209,1,0,0:0:0:0:
192,256,109596,1,0,0:0:0:0:
192,256,109983,1,0,0:0:0:0:
320,256,110370,1,8,0:0:0:0:
320,256,110563,1,8,0:0:0:0:
320,256,110757,1,8,0:0:0:0:
320,256,110950,1,8,0:0:0:0:
320,256,111144,1,8,0:0:0:0:
320,256,111337,1,8,0:0:0:0:
320,256,111531,1,8,0:0:0:0:
320,256,111724,1,8,0:0:0:0:
192,256,111918,5,0,0:0:0:0:
192,256,112306,1,0,0:0:0:0:
192,256,112693,1,0,0:0:0:0:
192,256,113080,1,0,0:0:0:0:
192,256,113467,1,0,0:0:0:0:
192,256,113757,1,0,0:0:0:0:
192,256,114047,1,0,0:0:0:0:
320,256,114241,1,8,0:0:0:0:
320,256,114531,1,8,0:0:0:0:
320,256,114821,1,8,0:0:0:0:
192,256,115015,1,4,0:0:0:0:
192,256,115403,1,0,0:0:0:0:
192,256,115790,1,0,0:0:0:0:
192,256,116177,1,0,0:0:0:0:
320,256,116564,1,8,0:0:0:0:
320,256,116757,1,8,0:0:0:0:
320,256,116951,1,8,0:0:0:0:
320,256,117144,1,8,0:0:0:0:
320,256,117338,1,8,0:0:0:0:
320,256,117531,1,8,0:0:0:0:
320,256,117725,1,8,0:0:0:0:
320,256,117918,1,8,0:0:0:0:
256,192,118112,12,0,119079,0:0:0:0:
