osu file format v4

[General]
AudioFilename: Winter.mp3
AudioLeadIn: 0
AudioHash: d2655eb3e6684f0d3582019c3c3c8d20
PreviewTime: -1
SampleSet: Normal

[Metadata]
Title:Winter
Artist:Banya
Creator:flyboy87
Version:Normal

[Difficulty]
HPDrainRate:6
CircleSize:5
OverallDifficulty:6
SliderMultiplier: 1
SliderTickRate: 4

[Events]
0,0,"Winter.JPG"
2,17337,22457
2,40456,43880
2,56255,65302
3,0,163,162,255

[TimingPoints]
8940,357.042857142857,4,1,0

[HitObjects]
32,32,8939,1,0
32,80,9297,1,0
32,128,9654,1,0
32,176,10011,1,0
32,224,10368,5,2
32,272,10725,1,0
32,296,10903,1,0
32,320,11082,1,0
56,320,11260,1,0
104,320,11617,5,0
128,320,11796,1,0
152,320,11974,1,0
200,320,12331,1,0
224,320,12510,1,0
248,320,12688,1,0
296,320,13045,5,0
320,320,13224,1,0
368,320,13581,1,0
416,320,13938,5,0
416,272,14295,1,0
416,224,14652,1,0
216,192,16080,5,0
264,192,16437,1,0
312,192,16794,2,2,B|312:192|312:312,1,100
32,176,23221,5,0
80,176,23578,1,0
128,176,23935,1,0
176,176,24292,1,0
224,176,24649,2,2,B|224:176|336:176,1,100
376,176,25363,2,2,B|376:176|376:296,1,100
376,328,26078,5,0
328,328,26435,1,0
280,328,26792,1,0
232,328,27149,1,0
184,328,27506,6,0,B|184:328|80:328,3,100
80,280,28934,5,0
80,232,29291,1,0
80,184,29648,1,0
80,136,30005,1,0
128,136,30362,6,0,B|128:136|248:136,1,100
280,136,31076,2,0,B|280:136|280:248,1,100
328,240,31790,5,0
328,288,32147,1,0
376,288,32504,1,0
424,288,32861,1,0
424,240,33218,5,0
424,216,33397,1,0
424,168,33754,1,0
400,152,33933,1,0
384,136,34111,1,0
368,120,34290,1,0
344,120,34468,1,0
320,120,34647,5,0
288,152,35004,1,0
288,200,35361,1,0
288,248,35718,1,0
288,296,36075,5,0
264,296,36253,1,0
216,296,36610,1,0
168,296,36967,2,0,B|168:296|168:368,2,50
144,296,37503,5,2
144,248,37860,1,2
144,200,38217,1,2
144,152,38574,1,2
184,128,38931,5,0
200,112,39110,1,0
248,112,39467,5,0
296,112,39824,2,0,B|296:112|368:112,2,50
256,192,44644,12,0,47500
448,112,48035,5,2
424,112,48214,1,2
376,112,48571,1,0
328,112,48928,1,0
304,112,49107,1,0
280,112,49285,1,0
256,112,49464,1,0
232,112,49642,1,0
152,112,50178,5,0
152,184,50714,1,0
152,256,51249,1,0
152,328,51785,1,0
248,328,52499,6,0,B|248:328|360:328,1,100
352,280,53213,2,0,B|352:280|464:280,1,100
456,232,53927,1,0
456,184,54284,6,0,B|456:184|352:184,1,100
304,184,54998,1,2
256,184,55355,2,0,B|256:184|192:96,1,100
168,64,56069,1,0
264,32,66066,5,0
240,32,66245,1,0
192,32,66602,5,0
168,32,66780,1,0
120,32,67137,5,0
96,32,67316,1,0
72,32,67495,2,2,B|72:32|72:176|136:304|304:312,1,400
344,312,69280,5,0
392,312,69637,1,0
416,312,69815,1,0
440,312,69994,1,0
480,312,70262,2,2,B|480:312|520:146|448:121|406:72|315:105|216:176,1,425
200,200,72136,5,0
168,240,72493,1,0
136,280,72850,1,0
184,280,73207,2,2,B|184:280|340:356|343:327|384:313|403:239|424:104,1,400
424,72,74903,5,0
360,72,75349,1,0
336,72,75528,1,0
312,72,75707,1,0
312,120,76064,5,0
312,168,76421,1,0
312,216,76778,1,0
312,264,77135,1,0
312,312,77492,1,0
264,312,77849,5,0
264,264,78206,1,0
216,264,78563,2,0,B|216:264|216:368,2,100
216,216,79634,5,0
216,168,79991,1,0
216,144,80170,1,0
216,120,80348,1,0
216,72,80705,1,0
