osu file format v14

[General]
AudioFilename: Banya - Caprice of Otada .mp3
AudioLeadIn: 0
PreviewTime: -1
Countdown: 1
SampleSet: None
StackLeniency: 0.7
Mode: 0
LetterboxInBreaks: 1
WidescreenStoryboard: 0

[Editor]
DistanceSpacing: 1
BeatDivisor: 4
GridSize: 8
TimelineZoom: 0.6999999

[Metadata]
Title:Caprice of Otada
TitleUnicode:Caprice of Otada
Artist:Banya
ArtistUnicode:Banya
Creator:vraksus
Version:Insane
Source:Pump it up
Tags:Banya pumpitup Piu
BeatmapID:701062
BeatmapSetID:314113

[Difficulty]
HPDrainRate:6
CircleSize:5
OverallDifficulty:7
ApproachRate:9
SliderMultiplier:2
SliderTickRate:1

[Events]
//Background and Video events
0,0,"Untitled.png",0,0
Video,-894,"PIU NX2 - BGA - Caprice of Otada - BanYa Productions.avi"
//Break Periods
//Storyboard Layer 0 (Background)
//Storyboard Layer 1 (Fail)
//Storyboard Layer 2 (Pass)
//Storyboard Layer 3 (Foreground)
//Storyboard Sound Samples

[TimingPoints]
6070,375,4,3,0,70,1,0
6170,-100,4,3,0,70,0,0
33070,-100,4,3,0,70,0,0

[HitObjects]
256,192,6070,5,0,0:0:0:0:
128,264,6351,1,0,0:0:0:0:
88,240,6445,1,0,0:0:0:0:
88,192,6538,1,0,0:0:0:0:
120,152,6632,1,0,0:0:0:0:
168,136,6726,1,0,0:0:0:0:
216,120,6820,5,0,0:0:0:0:
368,112,7101,5,0,0:0:0:0:
400,152,7195,1,0,0:0:0:0:
400,200,7288,1,0,0:0:0:0:
360,232,7382,1,0,0:0:0:0:
312,224,7476,1,0,0:0:0:0:
272,256,7570,5,0,0:0:0:0:
272,160,7851,5,0,0:0:0:0:
224,144,7945,1,0,0:0:0:0:
224,96,8038,1,0,0:0:0:0:
264,72,8132,1,0,0:0:0:0:
304,104,8226,1,0,0:0:0:0:
352,152,8320,6,0,P|387:112|350:45,1,100
280,48,8695,2,0,B|231:10|184:48|184:48,1,100
128,128,9070,5,0,0:0:0:0:
104,280,9351,5,0,0:0:0:0:
152,304,9445,1,0,0:0:0:0:
200,312,9538,1,0,0:0:0:0:
248,296,9632,1,0,0:0:0:0:
280,256,9726,1,0,0:0:0:0:
288,208,9820,21,0,0:0:0:0:
144,184,10101,5,0,0:0:0:0:
168,136,10195,1,0,0:0:0:0:
216,112,10288,1,0,0:0:0:0:
264,104,10382,1,0,0:0:0:0:
312,112,10476,1,0,0:0:0:0:
352,136,10570,5,0,0:0:0:0:
288,272,10851,5,0,0:0:0:0:
248,248,10945,1,0,0:0:0:0:
280,208,11038,1,0,0:0:0:0:
240,184,11132,1,0,0:0:0:0:
280,152,11226,1,0,0:0:0:0:
240,120,11320,2,0,B|176:120|176:184|176:216,1,100
192,280,11695,6,0,P|224:344|256:344,1,100
320,280,12070,5,0,0:0:0:0:
408,160,12351,5,0,0:0:0:0:
400,112,12445,1,0,0:0:0:0:
352,112,12538,1,0,0:0:0:0:
336,160,12632,1,0,0:0:0:0:
288,160,12726,1,0,0:0:0:0:
240,152,12820,5,0,0:0:0:0:
112,224,13101,1,0,0:0:0:0:
64,200,13195,1,0,0:0:0:0:
64,152,13288,1,0,0:0:0:0:
104,120,13382,1,0,0:0:0:0:
152,144,13476,1,0,0:0:0:0:
152,192,13570,5,0,0:0:0:0:
280,112,13851,1,0,0:0:0:0:
248,152,13945,1,0,0:0:0:0:
288,176,14038,1,0,0:0:0:0:
248,208,14132,1,0,0:0:0:0:
288,232,14226,1,0,0:0:0:0:
248,256,14320,5,0,0:0:0:0:
120,328,14601,1,0,0:0:0:0:
72,320,14695,1,0,0:0:0:0:
56,272,14788,1,0,0:0:0:0:
56,224,14882,1,0,0:0:0:0:
96,200,14976,1,0,0:0:0:0:
144,184,15070,5,0,0:0:0:0:
240,64,15351,1,0,0:0:0:0:
280,96,15445,1,0,0:0:0:0:
272,144,15538,1,0,0:0:0:0:
320,160,15632,1,0,0:0:0:0:
360,136,15726,1,0,0:0:0:0:
392,96,15820,5,0,0:0:0:0:
264,168,16101,1,0,0:0:0:0:
288,208,16195,1,0,0:0:0:0:
240,232,16288,1,0,0:0:0:0:
280,256,16382,1,0,0:0:0:0:
240,288,16476,1,0,0:0:0:0:
288,304,16570,5,0,0:0:0:0:
432,344,16851,1,0,0:0:0:0:
384,336,16945,1,0,0:0:0:0:
360,296,17038,1,0,0:0:0:0:
360,256,17132,1,0,0:0:0:0:
384,216,17226,1,0,0:0:0:0:
432,200,17320,1,0,0:0:0:0:
232,176,17695,5,0,0:0:0:0:
280,184,17788,1,0,0:0:0:0:
312,144,17882,1,0,0:0:0:0:
336,96,17976,1,0,0:0:0:0:
376,72,18070,2,0,L|472:168,1,100
392,224,18445,5,0,0:0:0:0:
352,200,18538,1,0,0:0:0:0:
304,200,18632,1,0,0:0:0:0:
296,248,18726,1,0,0:0:0:0:
264,288,18820,2,0,L|168:192,1,100
96,200,19195,1,0,0:0:0:0:
72,160,19288,1,0,0:0:0:0:
112,128,19382,1,0,0:0:0:0:
72,104,19476,1,0,0:0:0:0:
112,72,19570,6,0,L|240:72,1,100
312,72,19945,1,0,0:0:0:0:
344,104,20038,1,0,0:0:0:0:
352,152,20132,1,0,0:0:0:0:
312,184,20226,1,0,0:0:0:0:
264,184,20320,5,0,0:0:0:0:
176,144,20507,1,0,0:0:0:0:
200,104,20601,1,0,0:0:0:0:
240,80,20695,1,0,0:0:0:0:
288,72,20788,1,0,0:0:0:0:
336,80,20882,1,0,0:0:0:0:
376,112,20976,1,0,0:0:0:0:
384,128,21070,6,0,P|384:192|352:192,1,100
320,224,21445,1,0,0:0:0:0:
288,256,21538,1,0,0:0:0:0:
256,288,21632,1,0,0:0:0:0:
224,320,21726,1,0,0:0:0:0:
192,320,21820,2,0,P|128:320|128:288,1,100
128,224,22195,5,0,0:0:0:0:
160,256,22288,1,0,0:0:0:0:
192,224,22382,1,0,0:0:0:0:
224,256,22476,1,0,0:0:0:0:
288,256,22570,6,0,P|352:224|320:192,1,100
384,192,22945,5,0,0:0:0:0:
384,160,23038,1,0,0:0:0:0:
384,128,23132,1,0,0:0:0:0:
384,96,23226,1,0,0:0:0:0:
384,64,23320,1,0,0:0:0:0:
64,160,23695,5,0,0:0:0:0:
96,128,23788,1,0,0:0:0:0:
128,96,23882,1,0,0:0:0:0:
160,64,23976,1,0,0:0:0:0:
192,96,24070,6,0,L|288:192,1,100
384,352,24445,5,0,0:0:0:0:
352,320,24538,1,0,0:0:0:0:
384,288,24632,1,0,0:0:0:0:
352,256,24726,1,0,0:0:0:0:
384,224,24820,2,0,L|288:160,1,100
256,224,25195,1,0,0:0:0:0:
192,192,25570,6,0,P|160:128|192:96,1,100
256,96,25945,1,0,0:0:0:0:
256,128,26038,1,0,0:0:0:0:
256,160,26132,1,0,0:0:0:0:
256,192,26226,1,0,0:0:0:0:
256,224,26320,2,0,L|256:352,1,100
192,320,26695,1,0,0:0:0:0:
256,192,27070,6,0,P|192:192|192:160,1,100
192,96,27445,1,0,0:0:0:0:
256,96,27820,6,0,P|288:160|320:160,1,100
352,128,28195,1,0,0:0:0:0:
384,192,28570,6,0,P|352:256|320:288,1,100
256,288,28945,2,0,P|192:256|160:224,1,100
160,192,29320,1,0,0:0:0:0:
256,128,29507,1,0,0:0:0:0:
256,160,29601,1,0,0:0:0:0:
256,192,29695,1,0,0:0:0:0:
256,285,30070,2,0,B|212:254|226:218|312:177|184:127|214:74|216:87,1,200
312,128,30632,5,0,0:0:0:0:
288,176,30726,1,0,0:0:0:0:
192,200,30913,1,0,0:0:0:0:
152,176,31007,1,0,0:0:0:0:
104,88,31195,1,0,0:0:0:0:
304,88,31570,1,0,0:0:0:0:
360,168,31757,1,0,0:0:0:0:
264,200,31945,1,0,0:0:0:0:
328,280,32132,1,0,0:0:0:0:
240,336,32320,1,0,0:0:0:0:
144,304,32507,1,0,0:0:0:0:
160,208,32695,5,0,0:0:0:0:
192,176,32788,1,0,0:0:0:0:
240,160,32882,1,0,0:0:0:0:
288,168,32976,1,0,0:0:0:0:
336,184,33070,5,0,0:0:0:0:
352,280,33257,1,0,0:0:0:0:
264,328,33445,1,0,0:0:0:0:
192,256,33632,1,0,0:0:0:0:
112,320,33820,1,0,0:0:0:0:
40,256,34007,5,0,0:0:0:0:
112,184,34195,1,0,0:0:0:0:
32,120,34382,1,0,0:0:0:0:
112,64,34570,2,0,L|272:192,1,200
352,128,35132,5,0,0:0:0:0:
352,232,35320,1,0,0:0:0:0:
352,328,35507,1,0,0:0:0:0:
248,328,35695,1,0,0:0:0:0:
160,336,35882,1,0,0:0:0:0:
248,288,36070,6,0,B|179:270|397:142|106:188|196:101,1,200
96,72,36632,5,0,0:0:0:0:
96,176,36820,1,0,0:0:0:0:
96,272,37007,1,0,0:0:0:0:
184,224,37195,1,0,0:0:0:0:
256,152,37382,1,0,0:0:0:0:
328,224,37570,6,0,B|310:293|182:75|228:366|141:276,1,200
360,224,38320,5,0,0:0:0:0:
312,136,38507,1,0,0:0:0:0:
216,104,38695,1,0,0:0:0:0:
136,168,38882,1,0,0:0:0:0:
160,264,39070,2,0,B|182:363|276:186|240:387|306:375|313:278|346:302,1,200
384,224,39632,5,0,0:0:0:0:
448,144,39820,1,0,0:0:0:0:
368,88,40007,1,0,0:0:0:0:
304,160,40195,1,0,0:0:0:0:
216,120,40382,1,0,0:0:0:0:
208,224,40570,2,0,B|271:194|334:229|364:291|331:331,1,200
136,312,41320,5,0,0:0:0:0:
192,232,41507,1,0,0:0:0:0:
112,168,41695,1,0,0:0:0:0:
184,104,41882,1,0,0:0:0:0:
256,32,42070,5,0,0:0:0:0:
256,232,42445,1,0,0:0:0:0:
440,152,42820,1,0,0:0:0:0:
248,200,43195,5,0,0:0:0:0:
288,168,43288,1,0,0:0:0:0:
248,136,43382,1,0,0:0:0:0:
200,112,43476,1,0,0:0:0:0:
232,72,43570,1,0,0:0:0:0:
256,272,43945,5,0,0:0:0:0:
88,168,44320,5,0,0:0:0:0:
128,192,44413,1,0,0:0:0:0:
168,160,44507,1,0,0:0:0:0:
192,200,44601,1,0,0:0:0:0:
224,168,44695,1,0,0:0:0:0:
264,200,44788,1,0,0:0:0:0:
288,160,44882,1,0,0:0:0:0:
320,200,44976,1,0,0:0:0:0:
352,160,45070,1,0,0:0:0:0:
256,192,45257,5,0,0:0:0:0:
256,160,45351,1,0,0:0:0:0:
256,128,45445,1,0,0:0:0:0:
352,128,45632,5,0,0:0:0:0:
384,128,45726,1,0,0:0:0:0:
416,128,45820,1,0,0:0:0:0:
416,224,46007,5,0,0:0:0:0:
416,256,46101,1,0,0:0:0:0:
416,288,46195,1,0,0:0:0:0:
320,288,46382,5,0,0:0:0:0:
288,288,46476,1,0,0:0:0:0:
256,288,46570,1,0,0:0:0:0:
160,320,46757,5,0,0:0:0:0:
120,288,46851,1,0,0:0:0:0:
80,256,46945,1,0,0:0:0:0:
160,200,47132,5,0,0:0:0:0:
200,168,47226,1,0,0:0:0:0:
240,136,47320,1,0,0:0:0:0:
320,200,47507,5,0,0:0:0:0:
288,160,47601,1,0,0:0:0:0:
328,128,47695,1,0,0:0:0:0:
328,32,47882,5,0,0:0:0:0:
288,56,47976,1,0,0:0:0:0:
248,88,48070,1,0,0:0:0:0:
304,176,48257,5,0,0:0:0:0:
344,208,48351,1,0,0:0:0:0:
296,224,48445,1,0,0:0:0:0:
392,192,48632,1,0,0:0:0:0:
424,232,48726,1,0,0:0:0:0:
392,272,48820,1,0,0:0:0:0:
296,296,49007,5,0,0:0:0:0:
256,264,49101,1,0,0:0:0:0:
272,216,49195,1,0,0:0:0:0:
368,248,49382,5,0,0:0:0:0:
416,208,49476,1,0,0:0:0:0:
368,192,49570,1,0,0:0:0:0:
272,160,49757,5,0,0:0:0:0:
312,128,49851,1,0,0:0:0:0:
344,96,49945,1,0,0:0:0:0:
320,32,50132,5,0,0:0:0:0:
288,32,50226,1,0,0:0:0:0:
256,32,50320,1,0,0:0:0:0:
160,192,50695,2,0,L|384:192,1,200
352,128,51257,5,0,0:0:0:0:
320,128,51351,1,0,0:0:0:0:
288,128,51445,1,0,0:0:0:0:
256,128,51538,1,0,0:0:0:0:
224,128,51632,1,0,0:0:0:0:
192,128,51726,1,0,0:0:0:0:
160,128,51820,1,0,0:0:0:0:
160,224,52007,5,0,0:0:0:0:
192,224,52101,1,0,0:0:0:0:
224,224,52195,1,0,0:0:0:0:
256,224,52288,1,0,0:0:0:0:
288,224,52382,1,0,0:0:0:0:
320,224,52476,1,0,0:0:0:0:
352,224,52570,1,0,0:0:0:0:
352,128,52757,5,0,0:0:0:0:
352,96,52851,1,0,0:0:0:0:
352,64,52945,1,0,0:0:0:0:
352,32,53038,1,0,0:0:0:0:
320,32,53132,1,0,0:0:0:0:
288,32,53226,1,0,0:0:0:0:
256,32,53320,1,0,0:0:0:0:
256,128,53507,1,0,0:0:0:0:
256,256,53695,1,0,0:0:0:0:
352,192,53882,1,0,0:0:0:0:
256,192,54070,5,0,0:0:0:0:
208,184,54163,1,0,0:0:0:0:
184,152,54257,1,0,0:0:0:0:
192,104,54351,1,0,0:0:0:0:
232,72,54445,1,0,0:0:0:0:
280,72,54538,1,0,0:0:0:0:
320,104,54632,1,0,0:0:0:0:
328,152,54726,1,0,0:0:0:0:
328,200,54820,1,0,0:0:0:0:
304,248,54913,1,0,0:0:0:0:
256,256,55007,1,0,0:0:0:0:
208,256,55101,1,0,0:0:0:0:
168,224,55195,1,0,0:0:0:0:
152,176,55288,1,0,0:0:0:0:
160,128,55382,1,0,0:0:0:0:
184,80,55476,1,0,0:0:0:0:
232,64,55570,1,0,0:0:0:0:
280,56,55663,1,0,0:0:0:0:
328,80,55757,1,0,0:0:0:0:
352,120,55851,1,0,0:0:0:0:
352,168,55945,1,0,0:0:0:0:
352,216,56038,1,0,0:0:0:0:
312,248,56132,1,0,0:0:0:0:
272,272,56226,1,0,0:0:0:0:
224,280,56320,1,0,0:0:0:0:
176,264,56413,1,0,0:0:0:0:
136,232,56507,1,0,0:0:0:0:
112,192,56601,1,0,0:0:0:0:
104,144,56695,1,0,0:0:0:0:
104,96,56788,1,0,0:0:0:0:
144,64,56882,1,0,0:0:0:0:
192,48,56976,1,0,0:0:0:0:
240,32,57070,5,0,0:0:0:0:
304,48,57195,1,0,0:0:0:0:
336,104,57320,1,0,0:0:0:0:
392,136,57445,5,0,0:0:0:0:
424,192,57570,1,0,0:0:0:0:
384,240,57695,1,0,0:0:0:0:
328,200,57820,5,0,0:0:0:0:
272,240,57945,1,0,0:0:0:0:
216,200,58070,1,0,0:0:0:0:
168,240,58195,5,0,0:0:0:0:
136,184,58320,1,0,0:0:0:0:
176,128,58445,1,0,0:0:0:0:
240,136,58570,5,0,0:0:0:0:
288,88,58695,1,0,0:0:0:0:
336,136,58820,1,0,0:0:0:0:
384,96,58945,5,0,0:0:0:0:
336,48,59070,1,0,0:0:0:0:
272,48,59195,1,0,0:0:0:0:
208,48,59320,6,0,L|336:48,1,100
352,136,59695,6,0,L|128:136,1,200
104,184,60195,1,0,0:0:0:0:
72,240,60320,1,0,0:0:0:0:
136,264,60445,5,0,0:0:0:0:
168,320,60570,1,0,0:0:0:0:
232,296,60695,1,0,0:0:0:0:
288,328,60820,5,0,0:0:0:0:
344,296,60945,1,0,0:0:0:0:
312,240,61070,1,0,0:0:0:0:
376,208,61195,5,0,0:0:0:0:
336,152,61320,1,0,0:0:0:0:
400,128,61445,1,0,0:0:0:0:
336,96,61570,5,0,0:0:0:0:
280,56,61695,1,0,0:0:0:0:
240,104,61820,1,0,0:0:0:0:
176,112,61945,5,0,0:0:0:0:
216,168,62070,1,0,0:0:0:0:
168,216,62195,1,0,0:0:0:0:
232,248,62320,6,0,L|232:24,1,200
136,224,63070,1,0,0:0:0:0:
80,184,63195,1,0,0:0:0:0:
88,120,63320,1,0,0:0:0:0:
144,88,63445,5,0,0:0:0:0:
136,152,63570,1,0,0:0:0:0:
200,144,63695,1,0,0:0:0:0:
208,80,63820,5,0,0:0:0:0:
264,120,63945,1,0,0:0:0:0:
304,176,64070,1,0,0:0:0:0:
320,240,64195,5,0,0:0:0:0:
264,280,64320,1,0,0:0:0:0:
200,264,64445,1,0,0:0:0:0:
176,200,64570,5,0,0:0:0:0:
200,136,64695,1,0,0:0:0:0:
256,104,64820,1,0,0:0:0:0:
320,104,64945,5,0,0:0:0:0:
368,152,65070,1,0,0:0:0:0:
376,216,65195,1,0,0:0:0:0:
440,192,65320,5,0,0:0:0:0:
456,128,65445,1,0,0:0:0:0:
408,80,65570,1,0,0:0:0:0:
344,64,65695,5,0,0:0:0:0:
280,80,65820,1,0,0:0:0:0:
216,72,65945,1,0,0:0:0:0:
168,120,66070,5,0,0:0:0:0:
200,176,66195,1,0,0:0:0:0:
240,232,66320,1,0,0:0:0:0:
184,272,66445,5,0,0:0:0:0:
232,320,66570,1,0,0:0:0:0:
168,344,66695,1,0,0:0:0:0:
232,360,66820,5,0,0:0:0:0:
288,320,66945,1,0,0:0:0:0:
336,360,67070,1,0,0:0:0:0:
368,304,67195,5,0,0:0:0:0:
320,256,67320,1,0,0:0:0:0:
376,224,67445,1,0,0:0:0:0:
320,192,67570,5,0,0:0:0:0:
376,152,67695,1,0,0:0:0:0:
320,112,67820,1,0,0:0:0:0:
256,88,67945,5,0,0:0:0:0:
192,104,68070,1,0,0:0:0:0:
192,168,68195,1,0,0:0:0:0:
240,208,68320,6,0,L|240:336,2,100
184,16,69070,5,0,0:0:0:0:
272,72,69257,1,0,0:0:0:0:
184,128,69445,1,0,0:0:0:0:
272,168,69632,1,0,0:0:0:0:
192,224,69820,1,0,0:0:0:0:
280,264,70007,1,0,0:0:0:0:
360,320,70195,5,0,0:0:0:0:
432,256,70382,1,0,0:0:0:0:
344,208,70570,1,0,0:0:0:0:
432,168,70757,1,0,0:0:0:0:
360,104,70945,1,0,0:0:0:0:
264,120,71132,1,0,0:0:0:0:
160,120,71320,2,8,L|224:120,4,50
32,272,72070,5,0,0:0:0:0:
80,360,72257,1,0,0:0:0:0:
128,272,72445,1,0,0:0:0:0:
176,360,72632,1,0,0:0:0:0:
224,272,72820,1,0,0:0:0:0:
272,360,73007,1,0,0:0:0:0:
312,272,73195,1,0,0:0:0:0:
368,192,73382,1,0,0:0:0:0:
272,168,73570,1,0,0:0:0:0:
176,168,73757,1,0,0:0:0:0:
72,168,73945,1,0,0:0:0:0:
136,96,74132,1,0,0:0:0:0:
240,96,74320,6,8,L|240:160,4,50
144,272,75070,5,0,0:0:0:0:
240,248,75257,1,0,0:0:0:0:
280,280,75351,1,0,0:0:0:0:
320,248,75445,1,0,0:0:0:0:
304,152,75632,5,0,0:0:0:0:
208,120,75820,1,0,0:0:0:0:
128,184,76007,5,0,0:0:0:0:
112,232,76101,1,0,0:0:0:0:
160,248,76195,1,0,0:0:0:0:
256,264,76382,5,0,0:0:0:0:
360,264,76570,1,0,0:0:0:0:
456,280,76757,5,0,0:0:0:0:
456,232,76851,1,0,0:0:0:0:
456,184,76945,1,0,0:0:0:0:
368,136,77132,5,0,0:0:0:0:
272,120,77320,1,0,0:0:0:0:
176,136,77507,5,0,0:0:0:0:
160,184,77601,1,0,0:0:0:0:
200,216,77695,1,0,0:0:0:0:
224,120,77882,5,0,0:0:0:0:
328,120,78070,6,0,L|328:248,1,100
328,320,78445,2,0,L|456:320,1,100
424,216,78820,2,0,L|424:344|424:344,1,100
352,248,79195,2,0,L|224:248,1,100
152,264,79570,2,0,L|152:136,1,100
248,152,79945,2,0,L|376:152,1,100
264,208,80320,6,0,B|273:177|264:93|158:143|89:181|186:314|309:330|445:277|430:4|170:22|105:36|65:198|150:342|297:330|358:174,1,700
392,296,81820,5,0,0:0:0:0:
416,256,81913,1,0,0:0:0:0:
416,208,82007,1,0,0:0:0:0:
400,160,82101,1,0,0:0:0:0:
376,120,82195,1,0,0:0:0:0:
344,80,82288,1,0,0:0:0:0:
296,64,82382,1,0,0:0:0:0:
248,64,82476,1,0,0:0:0:0:
200,72,82570,1,0,0:0:0:0:
136,144,82757,1,0,0:0:0:0:
152,240,82945,5,0,0:0:0:0:
192,216,83038,1,0,0:0:0:0:
232,248,83132,1,0,0:0:0:0:
272,224,83226,1,0,0:0:0:0:
312,256,83320,5,0,0:0:0:0:
408,240,83507,1,0,0:0:0:0:
408,136,83695,1,0,0:0:0:0:
208,128,84070,5,0,0:0:0:0:
272,208,84257,1,0,0:0:0:0:
176,200,84445,5,0,0:0:0:0:
216,232,84538,1,0,0:0:0:0:
176,256,84632,1,0,0:0:0:0:
216,280,84726,1,0,0:0:0:0:
184,312,84820,5,0,0:0:0:0:
280,328,85007,1,0,0:0:0:0:
376,296,85195,1,0,0:0:0:0:
328,208,85382,5,0,0:0:0:0:
360,168,85476,1,0,0:0:0:0:
328,128,85570,1,0,0:0:0:0:
256,192,85757,5,0,0:0:0:0:
208,200,85851,1,0,0:0:0:0:
168,168,85945,1,0,0:0:0:0:
168,72,86132,5,0,0:0:0:0:
216,48,86226,1,0,0:0:0:0:
264,72,86320,1,0,0:0:0:0:
176,120,86507,5,0,0:0:0:0:
224,144,86601,1,0,0:0:0:0:
264,112,86695,1,0,0:0:0:0:
320,192,86882,5,0,0:0:0:0:
360,160,86976,1,0,0:0:0:0:
392,200,87070,1,0,0:0:0:0:
304,248,87257,5,0,0:0:0:0:
344,272,87351,1,0,0:0:0:0:
304,304,87445,1,0,0:0:0:0:
208,280,87632,5,0,0:0:0:0:
224,232,87726,1,0,0:0:0:0:
184,200,87820,1,0,0:0:0:0:
272,160,88007,5,0,0:0:0:0:
320,152,88101,1,0,0:0:0:0:
344,104,88195,1,0,0:0:0:0:
392,192,88382,5,0,0:0:0:0:
352,288,88570,1,0,0:0:0:0:
256,272,88757,5,0,0:0:0:0:
208,256,88851,1,0,0:0:0:0:
232,216,88945,1,0,0:0:0:0:
136,192,89132,5,0,0:0:0:0:
88,192,89226,1,0,0:0:0:0:
88,144,89320,1,0,0:0:0:0:
168,208,89507,5,0,0:0:0:0:
200,168,89601,1,0,0:0:0:0:
160,136,89695,1,0,0:0:0:0:
240,72,89882,5,0,0:0:0:0:
280,96,89976,1,0,0:0:0:0:
280,144,90070,1,0,0:0:0:0:
256,240,90257,5,0,0:0:0:0:
296,272,90351,1,0,0:0:0:0:
256,304,90445,1,0,0:0:0:0:
160,320,90632,5,0,0:0:0:0:
112,304,90726,1,0,0:0:0:0:
96,256,90820,1,0,0:0:0:0:
184,208,91007,5,0,0:0:0:0:
216,168,91101,1,0,0:0:0:0:
216,120,91195,1,0,0:0:0:0:
120,128,91382,1,0,0:0:0:0:
48,56,91570,5,0,0:0:0:0:
248,56,91945,5,0,0:0:0:0:
280,96,92038,1,0,0:0:0:0:
304,48,92132,1,0,0:0:0:0:
336,88,92226,1,0,0:0:0:0:
360,48,92320,1,0,0:0:0:0:
360,248,92695,5,0,0:0:0:0:
328,280,92788,1,0,0:0:0:0:
280,288,92882,1,0,0:0:0:0:
232,280,92976,1,0,0:0:0:0:
192,248,93070,5,0,0:0:0:0:
160,208,93163,1,0,0:0:0:0:
160,160,93257,1,0,0:0:0:0:
184,112,93351,1,0,0:0:0:0:
216,80,93445,1,0,0:0:0:0:
264,56,93538,1,0,0:0:0:0:
312,64,93632,1,0,0:0:0:0:
352,96,93726,1,0,0:0:0:0:
376,144,93820,1,0,0:0:0:0:
360,192,93913,1,0,0:0:0:0:
328,232,94007,1,0,0:0:0:0:
296,272,94101,1,0,0:0:0:0:
296,320,94195,1,0,0:0:0:0:
328,352,94288,1,0,0:0:0:0:
376,352,94382,1,0,0:0:0:0:
400,304,94476,1,0,0:0:0:0:
368,264,94570,1,0,0:0:0:0:
408,232,94663,1,0,0:0:0:0:
360,208,94757,1,0,0:0:0:0:
400,176,94851,1,0,0:0:0:0:
352,152,94945,1,0,0:0:0:0:
392,128,95038,1,0,0:0:0:0:
352,96,95132,1,0,0:0:0:0:
304,80,95226,1,0,0:0:0:0:
256,72,95320,1,0,0:0:0:0:
208,88,95413,1,0,0:0:0:0:
184,128,95507,1,0,0:0:0:0:
232,144,95601,1,0,0:0:0:0:
200,184,95695,1,0,0:0:0:0:
248,192,95788,1,0,0:0:0:0:
208,224,95882,1,0,0:0:0:0:
256,240,95976,1,0,0:0:0:0:
216,272,96070,1,0,0:0:0:0:
256,80,96445,5,0,0:0:0:0:
280,120,96538,5,0,0:0:0:0:
240,152,96632,5,0,0:0:0:0:
272,192,96726,5,0,0:0:0:0:
256,240,96820,5,0,0:0:0:0:
