osu file format v4

[General]
AudioFilename: Beethoven's Symphony Virus.mp3
AudioLeadIn: 0
AudioHash: 22f034f0b6d7cec2ad534d2349be9a67
PreviewTime: -1
SampleSet: Normal

[Metadata]
Title:Beethoven Virus
Artist:Banya
Creator:flyboy87
Version:Normal

[Difficulty]
HPDrainRate:6
CircleSize:5
OverallDifficulty:5
SliderMultiplier: 1
SliderTickRate: 1

[Events]
0,0,"beethoven.png"
2,41033,52966
2,59938,64834
3,0,163,162,255

[TimingPoints]
5298,370.347509412999,4,1,0

[HitObjects]
176,96,5297,2,0,B|176:96|288:96,2,100
144,176,6779,5,0,
224,176,7334,1,0,
256,176,7520,1,0,
336,176,8075,1,0,
368,176,8260,1,0,
80,176,9742,6,0,B|80:176|80:288,4,100
320,192,12334,5,0,
352,192,12519,1,0,
384,192,12704,1,0,
384,80,13445,1,0,
336,80,13815,1,0,
304,80,14001,1,0,
272,80,14186,1,0,
160,80,14927,1,0,
160,128,15297,5,0,
160,160,15482,1,0,
160,192,15667,1,0,
160,272,16223,1,0,
192,272,16408,1,0,
272,272,16963,1,0,
304,272,17149,1,0,
32,48,18630,5,0,
112,48,19186,1,0,
144,48,19371,1,0,
224,48,19926,1,0,
256,48,20111,1,0,
32,192,21593,6,0,B|32:192|32:304,4,100
272,208,24185,5,0,
240,208,24370,1,0,
208,208,24556,1,0,
208,320,25296,1,0,
256,320,25667,1,0,
288,320,25852,1,0,
320,320,26037,1,0,
432,320,26778,1,0,
432,272,27148,5,0,
432,240,27333,1,0,
432,208,27518,1,0,
432,128,28074,1,0,
432,96,28259,1,0,
352,96,28815,1,0,
320,96,29000,1,0,
144,96,30481,5,0,
144,144,30851,1,0,
144,192,31222,1,0,
256,192,31963,1,0,
256,144,32333,1,2,
256,96,32703,1,2,
368,96,33444,5,0,
368,144,33814,1,0,
368,192,34185,1,0,
368,240,34555,1,0,
320,272,34925,1,2,
272,272,35296,1,2,
224,272,35666,1,2,
224,96,37147,5,2,
224,144,37518,1,2,
400,96,38629,5,0,
160,96,40110,5,2,
160,144,40481,1,2,
96,48,54183,5,0,
144,48,54554,1,0,
192,48,54924,1,0,
304,48,55665,1,0,
352,48,56035,1,2,
400,48,56405,1,2,
400,160,57146,5,0,
400,208,57516,1,0,
400,256,57887,1,0,
288,256,58628,1,0,
288,304,58998,1,2,
240,304,59368,2,2,B|240:304|128:304,1,100
160,288,66034,6,0,B|160:288|160:176,2,100
336,192,67886,5,0,
176,192,68627,1,0,
176,304,69368,1,0,
224,304,69738,1,0,
336,304,70479,6,0,B|336:304|448:304,4,100
336,128,73071,5,0,
304,128,73256,1,0,
272,128,73441,1,0,
272,240,74182,1,2,
272,288,74552,1,0,
304,288,74738,1,0,
336,288,74923,1,0,
448,288,75664,1,2,
448,240,76034,5,0,
448,208,76219,1,0,
448,176,76404,1,0,
448,64,76960,1,0,
416,64,77145,1,0,
336,64,77700,1,0,
304,64,77886,1,0,
80,64,79737,5,0,
192,64,80478,1,0,
304,64,81219,1,0,
352,64,81589,1,0,
352,176,82330,6,0,B|352:176|352:288,4,100
176,176,84922,5,0,
208,176,85107,1,0,
240,176,85293,1,0,
240,64,86033,1,2,
288,64,86404,1,0,
320,64,86589,1,0,
352,64,86774,1,0,
352,176,87515,1,2,
352,224,87885,5,0,
352,256,88070,1,0,
352,288,88255,1,0,
272,288,88811,1,0,
240,288,88996,1,0,
160,288,89552,1,0,
128,288,89737,1,0,
128,128,91959,5,2,
400,128,93440,5,2,
288,128,94181,5,0,
288,208,94736,1,0,
288,240,94922,1,0,
288,320,95477,1,0,
288,352,95662,1,0,
240,352,96033,6,0,B|240:352|240:48,1,300
