osu file format v7

[General]
AudioFilename: Beethoven Virus.mp3
AudioLeadIn: 0
PreviewTime: 12091
Countdown: 0
SampleSet: Normal
StackLeniency: 0.7
Mode: 1
LetterboxInBreaks: 0

[Editor]
Bookmarks: 116092,116628,116792,116992,115360,115494,115664,115878,115930,116130,116316,116500,116710,8495,8678,8845,8994,62550,62683,62846,62982,63766,63915,64266,64428,90366,90518,90686,90850,91018,114955,115455,115618,115818,115986,8347,8531,8699,8831,9215,9395,8305,8457,8639,8805,8989,62409,62561,62729,62892,64361,64529,64745,64929,90697,90865,91030,114797,114965,115101,115265,115450,115633,8476,8662,8844,9032,8467,8651,8835,9015,9219,9401,8589,8806,62442,62627,62809,62978,63809,64194,64378,64562,90814,91014,91162,115414,115598
DistanceSpacing: 0.800000011920929
BeatDivisor: 4
GridSize: 8

[Metadata]
Title:Beethoven Virus (Full ver.)
Artist:Banya
Creator:wmfchris
Version:Taiko
Source:
Tags:Amethyst Wolf climbb65588 vikon aesopl19193 jameskong1 Angelhoney AHo

[Difficulty]
HPDrainRate:5
CircleSize:5
OverallDifficulty:5
SliderMultiplier:1.4
SliderTickRate:1

[Events]
//Background and Video events
0,0,"beethoven.png"
//Break Periods
//Storyboard Layer 0 (Background)
//Storyboard Layer 1 (Fail)
//Storyboard Layer 2 (Pass)
//Storyboard Layer 3 (Foreground)
//Storyboard Sound Samples
//Background Colour Transformations
3,100,163,162,255

[TimingPoints]
6707,384.615384615385,4,1,0,100,1,0
36899,-100,4,1,0,100,0,1
49303,-100,4,1,0,100,0,0

[Colours]
Combo1 : 248,211,171
Combo2 : 171,251,202
Combo3 : 175,211,254
Combo4 : 249,244,186
Combo5 : 240,80,81

[HitObjects]
432,72,6706,1,4
432,72,6899,1,0
432,72,7091,1,0
432,72,7283,1,4
432,72,7476,1,0
432,72,7668,1,0
256,192,7860,12,0,9591
416,72,9783,5,4
416,72,9976,1,0
416,72,10168,1,0
416,72,10360,1,4
416,72,10553,1,0
416,72,10745,1,0
416,72,10937,1,0
416,72,11130,1,2
416,72,11322,1,0
416,72,11418,1,0
416,72,11514,1,0
416,72,11610,1,0
416,72,11706,1,0
416,72,11803,1,0
416,72,11899,1,0
416,72,11995,1,0
416,72,12091,1,0
448,72,12283,1,2
448,72,12476,1,2
448,72,12668,1,0
448,72,12860,1,2
448,72,13437,1,2
448,72,13630,1,2
448,72,14206,1,2
448,72,14399,1,0
448,72,14783,1,2
448,72,15168,1,2
448,72,15360,1,0
448,72,15456,1,0
448,72,15553,1,2
448,72,15649,1,0
448,72,15745,1,0
448,72,15841,1,0
448,72,15937,1,2
448,72,16322,1,4
448,72,16706,1,4
448,72,17091,1,4
448,72,17476,1,4
448,72,17668,1,0
448,72,17860,1,0
448,72,18053,1,2
448,72,18245,1,0
448,72,18341,1,0
448,72,18437,1,2
448,72,18533,1,0
448,72,18630,1,0
448,72,18822,1,0
448,72,18918,1,0
448,72,19014,1,2
448,72,19206,1,0
448,72,19399,1,0
448,72,19591,1,2
448,72,19687,1,2
448,72,19783,1,0
448,72,19880,1,0
448,72,19976,1,0
448,72,20168,1,0
448,72,20264,1,0
448,72,20360,1,2
448,72,20553,1,2
448,72,20745,1,2
448,72,20937,1,0
448,72,21130,1,0
448,72,21322,1,4
448,72,21514,1,0
448,72,21707,1,2
448,72,21899,1,0
448,72,22091,1,6
448,72,22283,1,2
448,72,22476,1,0
448,72,22668,1,0
448,72,22764,1,0
448,72,22860,1,0
448,72,23053,1,0
448,72,23245,1,0
448,72,23437,1,2
448,72,23630,1,0
448,72,23726,1,0
448,72,23822,1,0
448,72,23918,1,0
448,72,24014,1,2
448,72,24110,1,0
448,72,24207,1,0
448,72,24303,1,0
448,72,24399,1,0
448,72,24591,1,2
448,72,24783,1,0
448,72,24976,1,0
448,72,25168,1,2
448,72,25553,1,0
448,72,25745,1,2
448,72,25937,1,0
448,72,26322,1,2
448,72,26514,1,0
448,72,26707,1,2
448,72,27091,1,0
448,72,27283,1,0
448,72,27380,1,0
448,72,27476,1,2
448,72,27668,1,0
448,72,27764,1,0
448,72,27860,1,2
448,72,27957,1,0
448,72,28053,1,0
448,72,28149,1,0
448,72,28245,1,2
448,72,28630,1,4
448,72,29014,1,6
448,72,29207,1,6
448,72,29399,1,6
448,72,29591,1,0
448,72,29783,1,2
448,72,29976,1,2
448,72,30168,1,2
448,72,30264,1,0
448,72,30360,1,0
448,72,30457,1,0
448,72,30553,1,2
448,72,30745,1,0
448,72,30937,1,2
448,72,31033,1,0
448,72,31130,1,0
448,72,31226,1,0
448,72,31322,1,2
448,72,31514,1,2
448,72,31610,1,0
448,72,31707,1,0
448,72,31899,1,2
448,72,31995,1,2
448,72,32091,1,2
448,72,32283,1,0
448,72,32476,1,2
448,72,32668,1,2
448,72,32860,1,2
448,72,32957,1,0
448,72,33053,1,0
448,72,33149,1,0
448,72,33245,1,0
448,72,33437,1,0
448,72,33630,1,0
448,72,33822,1,2
448,72,34014,1,0
448,72,34110,1,0
448,72,34207,1,0
448,72,34399,1,6
448,72,34591,1,0
448,72,34783,1,0
448,72,34976,1,6
448,72,35168,1,2
448,72,35264,1,0
448,72,35360,1,0
448,72,35553,1,0
448,72,35649,1,0
448,72,35745,1,2
448,72,35841,1,0
448,72,35937,1,0
448,72,36322,1,0
448,72,36707,1,0
448,72,36899,1,0
448,72,37091,1,0
448,72,37187,1,0
448,72,37283,1,0
448,72,37380,1,0
448,72,37476,1,2
448,72,37572,1,0
448,72,37668,1,0
448,72,37764,1,0
448,72,37860,1,0
448,72,37957,1,0
448,72,38053,1,0
448,72,38149,1,0
448,72,38245,1,2
448,72,38341,1,0
448,72,38437,1,0
448,72,38533,1,0
448,72,38630,1,2
448,72,38726,1,0
448,72,38822,1,0
448,72,38918,1,0
448,72,39014,1,2
448,72,39207,1,2
448,72,39303,1,0
448,72,39399,1,0
448,72,39495,1,0
448,72,39591,1,2
448,72,39687,1,0
448,72,39783,1,0
448,72,39880,1,0
448,72,39976,1,2
448,72,40168,1,0
448,72,40264,1,0
448,72,40360,1,2
448,72,40553,1,0
448,72,40649,1,0
448,72,40745,1,2
448,72,40841,1,0
448,72,40937,1,0
448,72,41033,1,2
448,72,41130,1,0
448,72,41226,1,0
448,72,41322,1,2
448,72,41514,1,0
448,72,41706,1,0
448,72,41803,1,0
448,72,41899,1,0
448,72,41995,1,0
448,72,42091,1,2
448,72,42187,1,0
448,72,42283,1,0
448,72,42380,1,0
448,72,42476,1,2
448,72,42572,1,0
448,72,42668,1,0
448,72,42764,1,0
448,72,42860,1,0
448,72,42956,1,0
448,72,43053,1,2
448,72,43149,1,0
448,72,43245,1,2
448,72,43341,1,2
448,72,43437,1,2
448,72,43533,1,2
448,72,43630,1,2
448,72,43822,1,2
448,72,43918,1,0
448,72,44014,1,0
448,72,44206,1,0
448,72,44303,1,0
448,72,44399,1,2
448,72,44591,1,2
448,72,44687,1,0
448,72,44783,1,0
448,72,44880,1,0
448,72,44976,1,2
448,72,45168,1,0
448,72,45264,1,2
448,72,45456,1,2
448,72,45553,1,0
448,72,45745,1,0
448,72,45841,1,0
448,72,45937,1,0
448,72,46130,1,0
448,72,46322,1,0
448,72,46514,1,0
448,72,46706,1,2
448,72,46803,1,0
448,72,46899,1,0
448,72,46995,1,0
448,72,47091,1,2
448,72,47283,1,2
448,72,47380,1,0
448,72,47476,1,0
448,72,47572,1,0
448,72,47668,1,0
448,72,47764,1,0
448,72,47860,1,0
448,72,47956,1,0
448,72,48053,1,0
448,72,48149,1,0
448,72,48245,1,2
448,72,48437,1,2
448,72,48533,1,0
448,72,48630,1,0
448,72,48822,1,0
448,72,48918,1,0
448,72,49014,1,0
448,72,49110,1,0
448,72,49206,1,2
448,72,49399,1,4
448,72,49591,1,0
448,72,49687,1,0
448,72,49783,1,2
448,72,50360,1,2
448,72,50456,1,0
448,72,50553,1,2
448,72,50745,1,0
448,72,50937,1,2
448,72,51130,1,0
448,72,51322,1,2
448,72,51514,1,0
448,72,51706,1,0
448,72,51899,1,0
448,72,52091,1,2
448,72,52283,1,0
448,72,52380,1,0
448,72,52476,1,2
448,72,52668,1,0
448,72,52860,1,6
448,72,53437,1,0
448,72,53533,1,2
448,72,53630,1,0
448,72,53822,1,2
448,72,53918,1,0
448,72,54014,1,0
448,72,54110,1,0
448,72,54206,1,0
448,72,54399,1,2
448,72,54591,1,0
448,72,54783,1,0
448,72,54976,1,0
448,72,55168,1,2
448,72,55360,1,0
448,72,55553,1,2
448,72,55745,1,0
448,72,55937,1,4
448,72,56514,1,2
448,72,56610,1,0
448,72,56706,1,2
448,72,56803,1,2
448,72,56899,1,2
448,72,56995,1,2
448,72,57091,1,0
448,72,57187,1,0
448,72,57283,1,0
448,72,57380,1,0
448,72,57476,1,0
448,72,57668,1,2
448,72,57764,1,2
448,72,57860,1,2
448,72,58053,1,2
448,72,58245,1,0
448,72,58437,1,0
448,72,58630,1,2
448,72,58822,1,0
448,72,59014,1,6
448,72,59591,1,0
448,72,59687,1,0
448,72,59783,1,2
448,72,59976,1,2
448,72,60072,1,0
448,72,60168,1,0
448,72,60360,1,0
448,72,60553,1,0
448,72,60649,1,0
448,72,60745,1,0
448,72,60841,1,0
448,72,60937,1,2
448,72,61033,1,0
448,72,61130,1,0
448,72,61226,1,0
448,72,61322,1,2
448,72,61418,1,0
448,72,61514,1,0
448,72,61610,1,0
448,72,61706,1,0
256,192,62091,12,0,63630
256,192,63726,12,0,65168
456,80,65553,5,4
456,80,65937,1,0
456,80,66130,1,0
456,80,66322,1,4
456,80,66706,1,4
456,80,66899,1,6
456,80,67091,1,4
456,80,67283,1,6
456,80,67476,1,4
456,80,67668,1,0
456,80,67860,1,0
456,80,68053,1,2
456,80,68245,1,4
456,80,68822,1,2
456,80,69014,1,0
456,80,69591,1,2
456,80,69783,1,0
456,80,70168,1,0
456,80,70553,1,0
456,80,70745,1,0
456,80,70841,1,0
456,80,70937,1,2
456,80,71033,1,0
456,80,71130,1,0
456,80,71226,1,0
456,80,71322,1,2
456,80,71706,1,4
456,80,72091,1,4
456,80,72476,1,4
456,80,72860,1,4
456,80,73053,1,0
456,80,73149,1,0
456,80,73245,1,2
456,80,73437,1,0
456,80,73533,1,0
456,80,73630,1,2
456,80,73726,1,0
456,80,73822,1,0
456,80,74014,1,0
456,80,74110,1,0
456,80,74206,1,0
456,80,74303,1,0
456,80,74399,1,2
456,80,74591,1,0
456,80,74783,1,2
456,80,74880,1,0
456,80,74976,1,0
456,80,75072,1,0
456,80,75168,1,2
456,80,75360,1,2
456,80,75553,1,2
456,80,75649,1,0
456,80,75745,1,2
456,80,75841,1,0
456,80,75937,1,2
456,80,76130,1,0
456,80,76322,1,0
456,80,76514,1,2
456,80,76706,1,2
456,80,76899,1,2
456,80,76995,1,2
456,80,77091,1,0
456,80,77283,1,0
456,80,77380,1,0
456,80,77476,1,2
456,80,77668,1,0
456,80,77860,1,2
456,80,78053,1,2
456,80,78245,1,0
456,80,78341,1,2
456,80,78533,1,2
456,80,78630,1,0
456,80,78822,1,2
456,80,79014,1,0
456,80,79206,1,0
456,80,79303,1,0
456,80,79399,1,2
456,80,79495,1,0
456,80,79591,1,0
456,80,79783,1,2
456,80,79976,1,0
456,80,80168,1,0
456,80,80360,1,0
456,80,80553,1,4
456,80,80745,1,2
456,80,80841,1,2
456,80,80937,1,2
456,80,81130,1,4
456,80,81322,1,0
456,80,81418,1,0
456,80,81514,1,0
456,80,81706,1,4
456,80,81899,1,0
456,80,81995,1,0
456,80,82091,1,2
456,80,82187,1,0
456,80,82283,1,0
456,80,82380,1,0
456,80,82476,1,2
456,80,82668,1,0
456,80,82860,1,2
456,80,82956,1,2
456,80,83053,1,2
456,80,83149,1,2
456,80,83341,1,2
456,80,83437,1,2
456,80,83630,1,4
456,80,83822,1,0
456,80,83918,1,0
456,80,84014,1,2
456,80,84206,1,4
456,80,84399,1,2
456,80,84495,1,0
456,80,84591,1,0
456,80,84783,1,4
456,80,84976,1,0
456,80,85072,1,0
456,80,85168,1,0
456,80,85264,1,0
456,80,85360,1,2
456,80,85553,1,0
456,80,85649,1,0
456,80,85745,1,2
456,80,85841,1,0
456,80,85937,1,0
456,80,86130,1,2
456,80,86226,1,0
456,80,86322,1,0
456,80,86418,1,0
456,80,86514,1,2
456,80,86706,1,4
456,80,86899,1,4
456,80,87091,1,0
456,80,87283,1,6
456,80,87476,1,6
456,80,87668,1,0
456,80,87860,1,4
456,80,88053,1,4
456,80,88245,1,4
456,80,88437,1,2
456,80,88630,1,0
456,80,88822,1,0
456,80,89014,1,0
456,80,89110,1,0
456,80,89206,1,0
456,80,89303,1,0
456,80,89399,1,2
456,80,89495,1,0
456,80,89591,1,0
456,80,89687,1,0
456,80,89783,1,2
256,192,89976,12,2,92091
448,88,92283,5,2
448,88,92476,1,0
448,88,92668,1,0
448,88,92860,1,2
448,88,93053,1,2
448,88,93149,1,0
448,88,93245,1,0
448,88,93437,1,0
448,88,93630,1,0
448,88,93726,1,0
448,88,93822,1,2
448,88,93918,1,0
448,88,94014,1,0
448,88,94206,1,0
448,88,94399,1,0
448,88,94591,1,2
448,88,94783,1,0
448,88,94976,1,0
448,88,95072,1,2
448,88,95168,1,0
448,88,95360,1,0
448,88,95456,1,0
448,88,95553,1,0
448,88,95649,1,0
448,88,95745,1,2
448,88,95937,1,4
448,88,96130,1,2
448,88,96226,1,2
448,88,96322,1,2
448,88,96514,1,0
448,88,96610,1,0
448,88,96706,1,0
448,88,96803,1,0
448,88,96899,1,2
448,88,97091,1,2
448,88,97283,1,0
448,88,97476,1,0
448,88,97668,1,2
448,88,97860,1,0
448,88,98053,1,2
448,88,98245,1,0
448,88,98437,1,2
448,88,98630,1,0
448,88,98726,1,0
448,88,98822,1,0
448,88,98918,1,0
448,88,99014,1,2
448,88,99206,1,2
448,88,99399,1,0
448,88,99495,1,0
448,88,99591,1,2
448,88,99783,1,2
448,88,99880,1,2
448,88,99976,1,2
448,88,100168,1,0
448,88,100264,1,0
448,88,100360,1,2
448,88,100553,1,0
448,88,100745,1,0
448,88,100937,1,2
448,88,101033,1,0
448,88,101130,1,0
448,88,101322,1,0
448,88,101514,1,0
448,88,101706,1,0
448,88,101899,1,2
448,88,102091,1,2
448,88,102283,1,2
448,88,102380,1,0
448,88,102476,1,0
448,88,102572,1,0
448,88,102668,1,2
448,88,102860,1,0
448,88,103053,1,0
448,88,103245,1,0
448,88,103437,1,4
448,88,103630,1,2
448,88,103726,1,0
448,88,103822,1,0
448,88,103918,1,0
448,88,104014,1,2
448,88,104110,1,0
448,88,104206,1,0
448,88,104303,1,0
448,88,104399,1,2
448,88,104495,1,2
448,88,104591,1,2
448,88,104687,1,2
448,88,104783,1,0
448,88,104880,1,0
448,88,104976,1,0
448,88,105072,1,0
448,88,105168,1,0
448,88,105360,1,0
448,88,105456,1,0
448,88,105553,1,0
448,88,105745,1,2
448,88,105937,1,0
448,88,106033,1,0
448,88,106130,1,0
448,88,106226,1,0
448,88,106322,1,0
448,88,106514,1,0
448,88,106610,1,0
448,88,106706,1,2
448,88,106803,1,0
448,88,106899,1,0
448,88,106995,1,0
448,88,107091,1,0
448,88,107187,1,0
448,88,107283,1,2
448,88,107380,1,0
448,88,107476,1,0
448,88,107572,1,0
448,88,107668,1,2
448,88,107860,1,2
448,88,107956,1,2
448,88,108053,1,2
448,88,108149,1,2
448,88,108245,1,0
448,88,108341,1,0
448,88,108437,1,0
448,88,108533,1,0
448,88,108630,1,2
448,88,108726,1,0
448,88,108822,1,0
448,88,108918,1,0
448,88,109014,1,2
448,88,109206,1,0
448,88,109303,1,0
448,88,109399,1,2
448,88,109591,1,2
448,88,109687,1,2
448,88,109783,1,0
448,88,109880,1,0
448,88,109976,1,2
448,88,110072,1,2
448,88,110168,1,2
448,88,110360,1,0
448,88,110456,1,0
448,88,110553,1,0
448,88,110649,1,0
448,88,110745,1,2
448,88,110841,1,2
448,88,110937,1,2
448,88,111033,1,2
448,88,111130,1,0
448,88,111322,1,2
448,88,111418,1,0
448,88,111514,1,0
448,88,111610,1,0
448,88,111706,1,0
448,88,111803,1,0
448,88,111899,1,0
448,88,111995,1,0
448,88,112091,1,2
448,88,112187,1,0
448,88,112283,1,0
448,88,112380,1,0
448,88,112476,1,0
448,88,112572,1,0
448,88,112668,1,0
448,88,112764,1,0
448,88,112860,1,2
448,88,112956,1,0
448,88,113053,1,0
448,88,113149,1,0
448,88,113245,1,2
448,88,113341,1,0
448,88,113437,1,0
448,88,113533,1,0
448,88,113630,1,2
448,88,113726,1,2
448,88,113822,1,2
448,88,113918,1,2
448,88,114014,1,0
448,88,114110,1,0
448,88,114206,1,2
448,88,114303,1,2
448,88,114399,1,0
256,192,114495,12,0,117091
456,96,117476,5,4
456,96,117668,1,0
456,96,117764,1,0
456,96,117860,1,2
456,96,118053,1,0
456,96,118245,1,2
456,96,118341,1,0
456,96,118437,1,0
456,96,118533,1,0
456,96,118630,1,2
456,96,118726,1,0
456,96,118822,1,0
456,96,119014,1,0
456,96,119110,1,0
456,96,119206,1,0
456,96,119303,1,0
456,96,119399,1,2
456,96,119495,1,0
456,96,119591,1,0
456,96,119687,1,0
456,96,119783,1,0
456,96,119880,1,0
456,96,119976,1,2
456,96,120072,1,0
456,96,120168,1,0
456,96,120264,1,0
456,96,120360,1,0
456,96,120456,1,0
456,96,120553,1,2
456,96,120745,1,2
456,96,120841,1,2
456,96,120937,1,0
456,96,121033,1,0
456,96,121130,1,0
456,96,121226,1,0
456,96,121322,1,0
456,96,121514,1,0
456,96,121706,1,2
456,96,121803,1,2
456,96,121899,1,0
456,96,121995,1,0
456,96,122091,1,2
456,96,122283,1,0
456,96,122380,1,0
456,96,122476,1,0
456,96,122572,1,0
456,96,122668,1,0
456,96,122764,1,0
456,96,122860,1,2
456,96,122956,1,0
456,96,123053,1,0
456,96,123149,1,0
456,96,123245,1,0
456,96,123630,1,6
456,96,123822,1,0
456,96,123918,1,0
456,96,124014,1,2
456,96,124110,1,0
456,96,124206,1,0
456,96,124303,1,0
456,96,124399,1,2
456,96,124495,1,0
456,96,124591,1,0
456,96,124687,1,0
456,96,124783,1,0
456,96,124880,1,0
456,96,124976,1,2
456,96,125072,1,0
456,96,125168,1,2
456,96,125360,1,0
456,96,125456,1,0
456,96,125553,1,2
456,96,125649,1,2
456,96,125745,1,2
456,96,125841,1,2
456,96,125937,1,0
456,96,126033,1,0
456,96,126130,1,0
456,96,126226,1,0
456,96,126322,1,2
456,96,126418,1,0
456,96,126514,1,2
456,96,126610,1,0
456,96,126706,1,2
456,96,126803,1,2
456,96,126899,1,2
456,96,126995,1,2
456,96,127091,1,0
456,96,127187,1,0
456,96,127283,1,0
456,96,127380,1,0
456,96,127476,1,2
456,96,127572,1,2
456,96,127668,1,0
456,96,127764,1,0
456,96,127860,1,2
456,96,127956,1,2
456,96,128053,1,0
456,96,128149,1,0
456,96,128245,1,0
456,96,128437,1,4
456,96,128630,1,4
456,96,128822,1,6
456,96,129014,1,6
456,96,129206,1,4
456,96,129399,1,4
456,96,129591,1,0
456,96,129687,1,0
456,96,129783,1,2
456,96,129976,1,0
456,96,130072,1,0
456,96,130168,1,2
456,96,130264,1,0
456,96,130360,1,0
456,96,130553,1,2
456,96,130649,1,2
456,96,130745,1,0
456,96,130841,1,0
456,96,130937,1,0
456,96,131033,1,0
456,96,131130,1,2
456,96,131226,1,2
456,96,131322,1,2
456,96,131514,1,0
456,96,131610,1,0
456,96,131706,1,0
456,96,131803,1,0
456,96,131899,1,2
456,96,131995,1,2
456,96,132091,1,2
456,96,132187,1,2
456,96,132283,1,0
456,96,132380,1,0
456,96,132476,1,2
456,96,132572,1,2
456,96,132668,1,0
456,96,132764,1,0
456,96,132860,1,0
456,96,133053,1,4
456,96,133245,1,2
456,96,133341,1,2
456,96,133437,1,0
456,96,133533,1,0
456,96,133630,1,0
456,96,133822,1,6
456,96,134014,1,2
456,96,134110,1,2
456,96,134206,1,2
456,96,134303,1,2
456,96,134399,1,0
456,96,134495,1,0
456,96,134591,1,0
456,96,134687,1,0
456,96,134783,1,2
456,96,134880,1,2
456,96,134976,1,2
456,96,135072,1,2
456,96,135168,1,0
456,96,135264,1,0
456,96,135360,1,2
456,96,135456,1,2
456,96,135553,1,0
456,96,135649,1,0
456,96,135745,1,0
456,96,135937,1,4
456,96,136130,1,0
456,96,136226,1,0
456,96,136322,1,2
456,96,136418,1,0
456,96,136514,1,0
456,96,136610,1,0
456,96,136706,1,0
456,96,136803,1,0
456,96,136899,1,0
456,96,136995,1,0
456,96,137091,1,2
456,96,137187,1,0
456,96,137283,1,0
456,96,137380,1,0
456,96,137476,1,0
456,96,137572,1,0
456,96,137668,1,0
456,96,137764,1,0
456,96,137860,1,2
456,96,137956,1,0
456,96,138053,1,0
456,96,138149,1,0
456,96,138245,1,2
456,96,138341,1,0
456,96,138437,1,0
456,96,138533,1,0
456,96,138630,1,2
456,96,138726,1,0
456,96,138822,1,2
456,96,138918,1,0
456,96,139014,1,2
456,96,139206,1,2
456,96,139303,1,2
456,96,139399,1,0
456,96,139495,1,0
456,96,139591,1,0
456,96,139687,1,0
456,96,139783,1,2
456,96,139880,1,0
456,96,139976,1,0
456,96,140072,1,0
456,96,140168,1,2
456,96,140264,1,0
456,96,140360,1,0
456,96,140456,1,0
456,96,140553,1,0
456,96,140745,1,4
456,96,140937,1,4
456,96,141130,1,6
456,96,141322,1,6
456,96,141514,1,0
456,96,141610,1,0
456,96,141706,1,2
456,96,142091,1,4
456,96,142283,1,4
456,96,142476,1,6
456,96,142668,1,6
456,96,142860,1,4
456,96,143053,1,0
456,96,143149,1,0
456,96,143245,1,2
456,96,143630,1,4
456,96,144014,1,4
456,96,144399,1,4
456,96,144783,1,6
456,96,144976,1,6
456,96,145168,1,6
456,96,145360,1,0
456,96,145456,1,0
456,96,145553,1,0
456,96,145745,1,2
456,96,145937,1,0
456,96,146033,1,0
456,96,146130,1,0
456,96,146226,1,0
456,96,146322,1,2
456,96,146514,1,2
456,96,146706,1,2
456,96,146803,1,0
456,96,146899,1,0
456,96,146995,1,0
456,96,147091,1,2
456,96,147187,1,0
456,96,147283,1,0
456,96,147380,1,0
456,96,147476,1,2
456,96,147668,1,0
456,96,147764,1,0
456,96,147860,1,2
456,96,148053,1,0
456,96,148149,1,2
456,96,148245,1,0
456,96,148437,1,2
456,96,148533,1,0
456,96,148630,1,2
456,96,148726,1,2
456,96,148822,1,2
456,96,148918,1,2
456,96,149014,1,0
456,96,149110,1,0
456,96,149206,1,0
456,96,149303,1,0
456,96,149399,1,0
456,96,149591,1,2
456,96,149783,1,0
456,96,149880,1,0
456,96,149976,1,2
456,96,150072,1,0
456,96,150168,1,0
456,96,150264,1,0
456,96,150360,1,0
456,96,150456,1,0
456,96,150553,1,2
456,96,150649,1,0
456,96,150745,1,0
456,96,150841,1,0
456,96,150937,1,2
456,96,151130,1,0
456,96,151322,1,2
456,96,151418,1,2
456,96,151514,1,0
456,96,151610,1,0
456,96,151706,1,2
456,96,151899,1,2
456,96,152091,1,2
456,96,152187,1,0
456,96,152380,1,0
456,96,152476,1,2
456,96,152572,1,0
456,96,152668,1,0
456,96,152764,1,0
456,96,152860,1,0
456,96,153053,1,0
456,96,153149,1,0
456,96,153245,1,2
456,96,153341,1,2
456,96,153437,1,2
456,96,153533,1,2
456,96,153630,1,0
456,96,153726,1,0
456,96,153822,1,0
456,96,153918,1,0
456,96,154014,1,0
456,96,154110,1,0
456,96,154206,1,0
456,96,154303,1,0
456,96,154399,1,0
456,96,154591,1,0
456,96,154687,1,0
456,96,154783,1,0
456,96,154880,1,0
456,96,154976,1,2
456,96,155072,1,0
456,96,155168,1,0
456,96,155264,1,0
456,96,155360,1,2
456,96,155456,1,0
456,96,155553,1,0
456,96,155649,1,0
456,96,155745,1,0
456,96,155841,1,0
456,96,155937,1,0
456,96,156130,1,2
456,96,156226,1,0
456,96,156322,1,0
456,96,156418,1,0
456,96,156514,1,2
456,96,156610,1,2
456,96,156706,1,2
