osu file format v12

[General]
AudioFilename: BanYa - Beethoven Virus - Full version (HQ).mp3
AudioLeadIn: 0
PreviewTime: -1
Countdown: 1
SampleSet: None
StackLeniency: 0.7
Mode: 3
LetterboxInBreaks: 1
SpecialStyle: 0
WidescreenStoryboard: 1

[Editor]
Bookmarks: 155289
DistanceSpacing: 0.7
BeatDivisor: 4
GridSize: 8

[Metadata]
Title:Beethoven Virus
TitleUnicode:Beethoven Virus
Artist:Banya
ArtistUnicode:Banya
Creator:CitrusKnight
Version:Normal
Source:
Tags:
BeatmapID:288371
BeatmapSetID:110300

[Difficulty]
HPDrainRate:7
CircleSize:7
OverallDifficulty:7
ApproachRate:5
SliderMultiplier:1.4
SliderTickRate:1

[Events]
//Background and Video events
0,0,"beethoven_virus_by_ciraxstudio-d4ua140.jpg",0,0
//Break Periods
//Storyboard Layer 0 (Background)
//Storyboard Layer 1 (Fail)
//Storyboard Layer 2 (Pass)
//Storyboard Layer 3 (Foreground)
//Storyboard Sound Samples
//Background Colour Transformations
3,100,163,162,255

[TimingPoints]
0,384.715384615385,4,2,0,0,1,0

[HitObjects]
36,192,673,1,0,0:0:0:0:
329,192,673,1,0,0:0:0:0:
475,192,673,1,0,0:0:0:0:
182,192,673,1,0,0:0:0:0:
329,192,865,1,0,0:0:0:0:
329,192,1057,1,0,0:0:0:0:
36,192,1250,1,0,0:0:0:0:
329,192,1250,1,0,0:0:0:0:
475,192,1250,1,0,0:0:0:0:
182,192,1250,1,0,0:0:0:0:
329,192,1442,1,0,0:0:0:0:
329,192,1635,1,0,0:0:0:0:
329,192,1827,1,0,0:0:0:0:
329,192,2019,1,0,0:0:0:0:
329,192,2212,1,0,0:0:0:0:
329,192,2404,1,0,0:0:0:0:
329,192,2596,1,0,0:0:0:0:
329,192,2789,1,0,0:0:0:0:
329,192,2981,1,0,0:0:0:0:
329,192,3173,1,0,0:0:0:0:
329,192,3366,1,0,0:0:0:0:
329,192,3558,1,0,0:0:0:0:
329,192,3750,1,0,0:0:0:0:
36,192,3750,1,0,0:0:0:0:
475,192,3750,1,0,0:0:0:0:
182,192,3750,1,0,0:0:0:0:
329,192,3943,1,0,0:0:0:0:
329,192,4135,1,0,0:0:0:0:
329,192,4328,1,0,0:0:0:0:
475,192,4328,1,0,0:0:0:0:
36,192,4328,1,0,0:0:0:0:
182,192,4328,1,0,0:0:0:0:
329,192,4520,1,0,0:0:0:0:
329,192,4712,1,0,0:0:0:0:
329,192,4905,1,0,0:0:0:0:
329,192,5097,1,0,0:0:0:0:
329,192,5289,1,0,0:0:0:0:
329,192,5482,1,0,0:0:0:0:
329,192,5674,1,0,0:0:0:0:
329,192,5866,1,0,0:0:0:0:
329,192,6059,1,0,0:0:0:0:
329,192,6251,1,0,0:0:0:0:
329,192,6443,1,0,0:0:0:0:
329,192,6636,1,0,0:0:0:0:
329,192,6828,1,0,0:0:0:0:
36,192,6828,1,0,0:0:0:0:
475,192,6828,1,0,0:0:0:0:
329,192,7021,1,0,0:0:0:0:
329,192,7213,1,0,0:0:0:0:
329,192,7405,1,0,0:0:0:0:
475,192,7405,1,0,0:0:0:0:
182,192,7405,1,0,0:0:0:0:
329,192,7598,1,0,0:0:0:0:
329,192,7790,1,0,0:0:0:0:
329,192,7982,1,0,0:0:0:0:
475,192,7982,1,0,0:0:0:0:
36,192,7982,1,0,0:0:0:0:
329,192,8175,1,0,0:0:0:0:
329,192,8367,1,0,0:0:0:0:
329,192,8559,1,0,0:0:0:0:
475,192,8559,1,0,0:0:0:0:
182,192,8559,1,0,0:0:0:0:
329,192,8752,1,0,0:0:0:0:
329,192,8944,1,0,0:0:0:0:
329,192,9136,1,0,0:0:0:0:
36,192,9136,1,0,0:0:0:0:
475,192,9136,1,0,0:0:0:0:
329,192,9329,1,0,0:0:0:0:
329,192,9521,1,0,0:0:0:0:
329,192,9714,1,0,0:0:0:0:
475,192,9714,1,0,0:0:0:0:
182,192,9714,1,0,0:0:0:0:
329,192,9906,1,0,0:0:0:0:
36,192,9906,1,0,0:0:0:0:
475,192,9906,1,0,0:0:0:0:
329,192,10098,1,0,0:0:0:0:
329,192,10291,1,0,0:0:0:0:
329,192,10483,1,0,0:0:0:0:
475,192,10483,1,0,0:0:0:0:
182,192,10483,1,0,0:0:0:0:
329,192,10675,1,0,0:0:0:0:
329,192,10868,1,0,0:0:0:0:
329,192,11060,1,0,0:0:0:0:
475,192,11060,1,0,0:0:0:0:
36,192,11060,1,0,0:0:0:0:
329,192,11252,1,0,0:0:0:0:
329,192,11445,1,0,0:0:0:0:
329,192,11637,1,0,0:0:0:0:
182,192,11637,1,0,0:0:0:0:
475,192,11637,1,0,0:0:0:0:
329,192,11829,1,0,0:0:0:0:
329,192,12022,1,0,0:0:0:0:
329,192,12214,1,0,0:0:0:0:
182,192,12214,1,0,0:0:0:0:
36,192,12214,1,0,0:0:0:0:
475,192,12214,1,0,0:0:0:0:
36,192,12407,128,0,12599:0:0:0:0:
109,192,12599,128,0,12791:0:0:0:0:
256,192,12791,128,0,12983:0:0:0:0:
402,192,12984,128,0,13561:0:0:0:0:
182,192,13368,1,0,0:0:0:0:
256,192,13368,1,0,0:0:0:0:
36,192,13561,128,0,13754:0:0:0:0:
402,192,13753,128,0,14329:0:0:0:0:
475,192,14138,1,0,0:0:0:0:
256,192,14138,1,0,0:0:0:0:
109,192,14330,128,0,14522:0:0:0:0:
36,192,14523,128,0,15292:0:0:0:0:
256,192,14907,1,0,0:0:0:0:
402,192,14907,1,0,0:0:0:0:
402,192,15292,1,0,0:0:0:0:
256,192,15292,1,0,0:0:0:0:
36,192,15580,1,0,0:0:0:0:
109,192,15677,1,0,0:0:0:0:
182,192,15773,1,0,0:0:0:0:
329,192,15773,1,0,0:0:0:0:
402,192,15869,1,0,0:0:0:0:
475,192,15965,1,0,0:0:0:0:
109,192,16061,128,0,16446:0:0:0:0:
182,192,16446,128,0,16831:0:0:0:0:
256,192,16831,128,0,17216:0:0:0:0:
329,192,17216,128,0,17600:0:0:0:0:
402,192,17600,128,0,18561:0:0:0:0:
36,192,18754,128,0,18947:0:0:0:0:
109,192,18947,128,0,19139:0:0:0:0:
475,192,19139,128,0,19908:0:0:0:0:
256,192,19524,1,0,0:0:0:0:
329,192,19524,1,0,0:0:0:0:
182,192,19909,128,0,20294:0:0:0:0:
329,192,20293,128,0,20485:0:0:0:0:
182,192,20486,128,0,20678:0:0:0:0:
329,192,20678,128,0,21447:0:0:0:0:
475,192,21063,1,0,0:0:0:0:
36,192,21063,1,0,0:0:0:0:
402,192,21447,128,0,21832:0:0:0:0:
36,192,21832,128,0,22024:0:0:0:0:
182,192,22024,128,0,22217:0:0:0:0:
475,192,22217,128,0,22601:0:0:0:0:
402,192,22602,128,0,22795:0:0:0:0:
109,192,22602,1,0,0:0:0:0:
36,192,22794,128,0,22986:0:0:0:0:
329,192,22986,128,0,23370:0:0:0:0:
36,192,23371,128,0,23564:0:0:0:0:
182,192,23371,1,0,0:0:0:0:
329,192,23563,128,0,23755:0:0:0:0:
475,192,23756,128,0,24525:0:0:0:0:
109,192,24140,1,0,0:0:0:0:
256,192,24140,1,0,0:0:0:0:
256,192,24717,128,0,24910:0:0:0:0:
109,192,24910,128,0,25102:0:0:0:0:
182,192,25102,128,0,25294:0:0:0:0:
109,192,25295,128,0,25872:0:0:0:0:
36,192,25679,1,0,0:0:0:0:
256,192,25679,1,0,0:0:0:0:
36,192,25872,128,0,26065:0:0:0:0:
329,192,26064,128,0,26640:0:0:0:0:
109,192,26449,1,0,0:0:0:0:
402,192,26449,1,0,0:0:0:0:
475,192,26641,128,0,26834:0:0:0:0:
36,192,26833,128,0,27602:0:0:0:0:
182,192,27218,1,0,0:0:0:0:
329,192,27218,1,0,0:0:0:0:
475,192,27795,1,0,0:0:0:0:
402,192,27891,1,0,0:0:0:0:
329,192,27988,1,0,0:0:0:0:
182,192,28084,1,0,0:0:0:0:
109,192,28180,1,0,0:0:0:0:
36,192,28276,1,0,0:0:0:0:
402,192,28372,128,0,28757:0:0:0:0:
329,192,28757,128,0,29142:0:0:0:0:
256,192,29142,128,0,29526:0:0:0:0:
182,192,29526,128,0,29911:0:0:0:0:
109,192,29911,128,0,30681:0:0:0:0:
182,192,31065,128,0,31257:0:0:0:0:
256,192,31258,128,0,31451:0:0:0:0:
109,192,31450,128,0,32219:0:0:0:0:
329,192,31835,1,0,0:0:0:0:
475,192,31835,1,0,0:0:0:0:
475,192,32219,128,0,32604:0:0:0:0:
109,192,32604,128,0,32796:0:0:0:0:
36,192,32796,128,0,32988:0:0:0:0:
402,192,32989,128,0,33758:0:0:0:0:
109,192,33374,1,0,0:0:0:0:
256,192,33374,1,0,0:0:0:0:
475,192,33758,128,0,34143:0:0:0:0:
256,192,34143,128,0,34335:0:0:0:0:
402,192,34335,128,0,34528:0:0:0:0:
475,192,34528,128,0,35104:0:0:0:0:
109,192,34912,1,0,0:0:0:0:
182,192,34912,1,0,0:0:0:0:
256,192,35105,128,0,35298:0:0:0:0:
36,192,35297,128,0,35874:0:0:0:0:
256,192,35682,1,0,0:0:0:0:
475,192,35682,1,0,0:0:0:0:
109,192,35874,128,0,36066:0:0:0:0:
475,192,36067,128,0,36644:0:0:0:0:
36,192,36451,1,0,0:0:0:0:
256,192,36451,1,0,0:0:0:0:
475,192,37028,1,0,0:0:0:0:
182,192,37028,1,0,0:0:0:0:
402,192,37221,1,0,0:0:0:0:
109,192,37221,1,0,0:0:0:0:
329,192,37413,1,0,0:0:0:0:
36,192,37413,1,0,0:0:0:0:
256,192,37605,1,0,0:0:0:0:
109,192,37605,1,0,0:0:0:0:
329,192,37798,1,0,0:0:0:0:
36,192,37798,1,0,0:0:0:0:
402,192,37990,1,0,0:0:0:0:
109,192,37990,1,0,0:0:0:0:
329,192,38183,1,0,0:0:0:0:
36,192,38183,1,0,0:0:0:0:
402,192,38375,1,0,0:0:0:0:
109,192,38375,1,0,0:0:0:0:
182,192,38567,1,0,0:0:0:0:
475,192,38567,1,0,0:0:0:0:
402,192,38760,1,0,0:0:0:0:
36,192,38760,1,0,0:0:0:0:
475,192,38952,1,0,0:0:0:0:
256,192,38952,1,0,0:0:0:0:
256,192,39144,1,0,0:0:0:0:
475,192,39144,1,0,0:0:0:0:
182,192,39337,1,0,0:0:0:0:
402,192,39337,1,0,0:0:0:0:
402,192,39529,1,0,0:0:0:0:
182,192,39529,1,0,0:0:0:0:
329,192,39721,1,0,0:0:0:0:
109,192,39721,1,0,0:0:0:0:
109,192,39914,1,0,0:0:0:0:
329,192,39914,1,0,0:0:0:0:
402,192,40106,1,0,0:0:0:0:
109,192,40106,1,0,0:0:0:0:
475,192,40298,1,0,0:0:0:0:
182,192,40298,1,0,0:0:0:0:
256,192,40491,1,0,0:0:0:0:
36,192,40491,1,0,0:0:0:0:
109,192,40683,1,0,0:0:0:0:
329,192,40683,1,0,0:0:0:0:
182,192,40876,1,0,0:0:0:0:
402,192,40876,1,0,0:0:0:0:
256,192,41068,1,0,0:0:0:0:
475,192,41068,1,0,0:0:0:0:
182,192,41260,1,0,0:0:0:0:
402,192,41260,1,0,0:0:0:0:
109,192,41453,1,0,0:0:0:0:
329,192,41453,1,0,0:0:0:0:
36,192,41645,1,0,0:0:0:0:
256,192,41645,1,0,0:0:0:0:
109,192,41837,1,0,0:0:0:0:
402,192,41837,1,0,0:0:0:0:
329,192,42030,1,0,0:0:0:0:
182,192,42030,1,0,0:0:0:0:
402,192,42222,1,0,0:0:0:0:
256,192,42222,1,0,0:0:0:0:
329,192,42414,1,0,0:0:0:0:
182,192,42414,1,0,0:0:0:0:
182,192,42607,1,0,0:0:0:0:
329,192,42607,1,0,0:0:0:0:
182,192,42799,1,0,0:0:0:0:
256,192,42799,1,0,0:0:0:0:
182,192,42991,1,0,0:0:0:0:
256,192,42991,1,0,0:0:0:0:
402,192,43184,1,0,0:0:0:0:
182,192,43184,1,0,0:0:0:0:
402,192,43376,1,0,0:0:0:0:
182,192,43376,1,0,0:0:0:0:
256,192,43569,1,0,0:0:0:0:
329,192,43569,1,0,0:0:0:0:
329,192,43761,1,0,0:0:0:0:
182,192,43761,1,0,0:0:0:0:
109,192,43953,1,0,0:0:0:0:
329,192,43953,1,0,0:0:0:0:
256,192,44146,1,0,0:0:0:0:
36,192,44146,1,0,0:0:0:0:
475,192,44338,1,0,0:0:0:0:
109,192,44338,1,0,0:0:0:0:
402,192,44530,128,0,44914:0:0:0:0:
329,192,44915,128,0,45300:0:0:0:0:
475,192,45300,1,0,0:0:0:0:
256,192,45300,1,0,0:0:0:0:
402,192,45492,1,0,0:0:0:0:
182,192,45492,1,0,0:0:0:0:
329,192,45684,1,0,0:0:0:0:
109,192,45684,1,0,0:0:0:0:
256,192,45877,1,0,0:0:0:0:
36,192,45877,1,0,0:0:0:0:
329,192,46069,1,0,0:0:0:0:
475,192,46069,1,0,0:0:0:0:
109,192,46262,1,0,0:0:0:0:
182,192,46262,1,0,0:0:0:0:
256,192,46454,1,0,0:0:0:0:
475,192,46454,1,0,0:0:0:0:
329,192,46646,1,0,0:0:0:0:
36,192,46646,1,0,0:0:0:0:
182,192,46839,1,0,0:0:0:0:
109,192,46839,1,0,0:0:0:0:
475,192,47031,1,0,0:0:0:0:
256,192,47031,1,0,0:0:0:0:
329,192,47223,1,0,0:0:0:0:
402,192,47223,1,0,0:0:0:0:
475,192,47416,1,0,0:0:0:0:
256,192,47416,1,0,0:0:0:0:
329,192,47608,128,0,47992:0:0:0:0:
36,192,47608,1,0,0:0:0:0:
109,192,47993,128,0,48378:0:0:0:0:
402,192,48377,128,0,48761:0:0:0:0:
109,192,48762,128,0,49147:0:0:0:0:
475,192,49147,128,0,49532:0:0:0:0:
36,192,49724,1,0,0:0:0:0:
182,192,49820,1,0,0:0:0:0:
475,192,49916,128,0,50493:0:0:0:0:
402,192,50493,1,0,0:0:0:0:
256,192,50590,1,0,0:0:0:0:
182,192,50686,1,0,0:0:0:0:
256,192,50878,1,0,0:0:0:0:
109,192,50878,1,0,0:0:0:0:
329,192,51070,1,0,0:0:0:0:
475,192,51070,1,0,0:0:0:0:
109,192,51263,1,0,0:0:0:0:
36,192,51263,1,0,0:0:0:0:
402,192,51455,1,0,0:0:0:0:
109,192,51551,1,0,0:0:0:0:
329,192,51648,1,0,0:0:0:0:
182,192,51744,1,0,0:0:0:0:
402,192,51840,1,0,0:0:0:0:
109,192,51936,1,0,0:0:0:0:
36,192,52032,1,0,0:0:0:0:
329,192,52128,1,0,0:0:0:0:
475,192,52225,1,0,0:0:0:0:
182,192,52321,1,0,0:0:0:0:
109,192,52417,1,0,0:0:0:0:
402,192,52513,1,0,0:0:0:0:
475,192,52609,1,0,0:0:0:0:
36,192,52706,1,0,0:0:0:0:
182,192,52802,1,0,0:0:0:0:
402,192,52994,128,0,53378:0:0:0:0:
329,192,53571,1,0,0:0:0:0:
256,192,53667,1,0,0:0:0:0:
36,192,53763,1,0,0:0:0:0:
475,192,53956,1,0,0:0:0:0:
329,192,54148,1,0,0:0:0:0:
182,192,54341,1,0,0:0:0:0:
36,192,54533,1,0,0:0:0:0:
182,192,54629,1,0,0:0:0:0:
402,192,54725,1,0,0:0:0:0:
329,192,54821,1,0,0:0:0:0:
36,192,54918,1,0,0:0:0:0:
109,192,55014,1,0,0:0:0:0:
475,192,55110,1,0,0:0:0:0:
402,192,55206,1,0,0:0:0:0:
109,192,55302,1,0,0:0:0:0:
182,192,55399,1,0,0:0:0:0:
402,192,55495,1,0,0:0:0:0:
329,192,55591,1,0,0:0:0:0:
109,192,55687,1,0,0:0:0:0:
36,192,55783,1,0,0:0:0:0:
329,192,55879,1,0,0:0:0:0:
475,192,55976,1,0,0:0:0:0:
109,192,56072,1,0,0:0:0:0:
182,192,56072,128,0,56456:0:0:0:0:
475,192,56649,1,0,0:0:0:0:
36,192,56745,1,0,0:0:0:0:
402,192,56841,1,0,0:0:0:0:
36,192,56937,1,0,0:0:0:0:
329,192,57034,1,0,0:0:0:0:
36,192,57130,1,0,0:0:0:0:
256,192,57226,1,0,0:0:0:0:
182,192,57322,1,0,0:0:0:0:
36,192,57418,1,0,0:0:0:0:
329,192,57514,1,0,0:0:0:0:
402,192,57611,1,0,0:0:0:0:
256,192,57803,1,0,0:0:0:0:
182,192,57899,1,0,0:0:0:0:
256,192,57995,1,0,0:0:0:0:
475,192,58188,1,0,0:0:0:0:
256,192,58380,1,0,0:0:0:0:
475,192,58572,1,0,0:0:0:0:
402,192,58765,1,0,0:0:0:0:
109,192,58957,1,0,0:0:0:0:
329,192,59149,128,0,59534:0:0:0:0:
182,192,59149,128,0,59534:0:0:0:0:
182,192,59727,1,0,0:0:0:0:
256,192,59823,1,0,0:0:0:0:
402,192,59919,1,0,0:0:0:0:
36,192,60111,1,0,0:0:0:0:
109,192,60111,1,0,0:0:0:0:
256,192,60304,1,0,0:0:0:0:
475,192,60304,1,0,0:0:0:0:
109,192,60496,1,0,0:0:0:0:
36,192,60496,1,0,0:0:0:0:
36,192,60688,1,0,0:0:0:0:
475,192,60688,1,0,0:0:0:0:
109,192,60785,1,0,0:0:0:0:
402,192,60785,1,0,0:0:0:0:
182,192,60881,1,0,0:0:0:0:
329,192,60881,1,0,0:0:0:0:
256,192,60977,1,0,0:0:0:0:
329,192,61073,1,0,0:0:0:0:
182,192,61073,1,0,0:0:0:0:
402,192,61169,1,0,0:0:0:0:
109,192,61169,1,0,0:0:0:0:
475,192,61265,1,0,0:0:0:0:
36,192,61265,1,0,0:0:0:0:
256,192,61362,1,0,0:0:0:0:
475,192,61458,1,0,0:0:0:0:
36,192,61458,1,0,0:0:0:0:
402,192,61554,1,0,0:0:0:0:
109,192,61554,1,0,0:0:0:0:
329,192,61650,1,0,0:0:0:0:
182,192,61650,1,0,0:0:0:0:
256,192,61746,1,0,0:0:0:0:
182,192,61842,1,0,0:0:0:0:
329,192,61842,1,0,0:0:0:0:
109,192,61939,1,0,0:0:0:0:
402,192,61939,1,0,0:0:0:0:
36,192,62035,1,0,0:0:0:0:
475,192,62035,1,0,0:0:0:0:
256,192,62227,1,0,0:0:0:0:
329,192,62420,1,0,0:0:0:0:
256,192,62612,1,0,0:0:0:0:
329,192,62804,1,0,0:0:0:0:
256,192,62997,1,0,0:0:0:0:
329,192,63189,1,0,0:0:0:0:
256,192,63381,1,0,0:0:0:0:
329,192,63574,1,0,0:0:0:0:
36,192,63766,1,0,0:0:0:0:
256,192,63766,1,0,0:0:0:0:
329,192,63958,1,0,0:0:0:0:
256,192,64151,1,0,0:0:0:0:
36,192,64151,1,0,0:0:0:0:
329,192,64343,1,0,0:0:0:0:
36,192,64536,1,0,0:0:0:0:
256,192,64536,1,0,0:0:0:0:
329,192,64728,1,0,0:0:0:0:
256,192,64920,1,0,0:0:0:0:
36,192,64920,1,0,0:0:0:0:
329,192,65113,1,0,0:0:0:0:
256,192,65305,1,0,0:0:0:0:
109,192,65305,1,0,0:0:0:0:
36,192,65305,1,0,0:0:0:0:
329,192,65305,1,0,0:0:0:0:
475,192,65305,1,0,0:0:0:0:
256,192,65497,1,0,0:0:0:0:
329,192,65497,1,0,0:0:0:0:
475,192,65497,1,0,0:0:0:0:
256,192,65690,1,0,0:0:0:0:
109,192,65690,1,0,0:0:0:0:
36,192,65690,1,0,0:0:0:0:
329,192,65690,1,0,0:0:0:0:
475,192,65690,1,0,0:0:0:0:
256,192,65882,1,0,0:0:0:0:
329,192,65882,1,0,0:0:0:0:
475,192,65882,1,0,0:0:0:0:
256,192,66074,1,0,0:0:0:0:
109,192,66074,1,0,0:0:0:0:
36,192,66074,1,0,0:0:0:0:
329,192,66074,1,0,0:0:0:0:
475,192,66074,1,0,0:0:0:0:
256,192,66267,1,0,0:0:0:0:
329,192,66267,1,0,0:0:0:0:
475,192,66267,1,0,0:0:0:0:
256,192,66459,1,0,0:0:0:0:
109,192,66459,1,0,0:0:0:0:
36,192,66459,1,0,0:0:0:0:
329,192,66459,1,0,0:0:0:0:
256,192,66651,1,0,0:0:0:0:
329,192,66651,1,0,0:0:0:0:
475,192,66651,1,0,0:0:0:0:
256,192,66844,128,0,67613:0:0:0:0:
475,192,67613,1,0,0:0:0:0:
36,192,67613,1,0,0:0:0:0:
36,192,67806,128,0,67998:0:0:0:0:
402,192,67998,128,0,68191:0:0:0:0:
475,192,68190,128,0,68382:0:0:0:0:
402,192,68383,128,0,68960:0:0:0:0:
36,192,68767,1,0,0:0:0:0:
256,192,68767,1,0,0:0:0:0:
182,192,68960,128,0,69152:0:0:0:0:
36,192,69152,128,0,69729:0:0:0:0:
256,192,69537,1,0,0:0:0:0:
475,192,69537,1,0,0:0:0:0:
402,192,69729,128,0,69921:0:0:0:0:
475,192,69922,128,0,70499:0:0:0:0:
329,192,70306,1,0,0:0:0:0:
109,192,70306,1,0,0:0:0:0:
36,192,70883,1,0,0:0:0:0:
109,192,70979,1,0,0:0:0:0:
182,192,71076,1,0,0:0:0:0:
329,192,71172,1,0,0:0:0:0:
402,192,71268,1,0,0:0:0:0:
475,192,71364,1,0,0:0:0:0:
109,192,71460,128,0,71845:0:0:0:0:
182,192,71845,128,0,72230:0:0:0:0:
256,192,72230,128,0,72615:0:0:0:0:
329,192,72615,128,0,72999:0:0:0:0:
402,192,72999,128,0,73769:0:0:0:0:
109,192,74153,128,0,74345:0:0:0:0:
182,192,74346,128,0,74539:0:0:0:0:
475,192,74538,128,0,75307:0:0:0:0:
36,192,74923,1,0,0:0:0:0:
109,192,74923,1,0,0:0:0:0:
402,192,75308,128,0,75693:0:0:0:0:
109,192,75692,128,0,75884:0:0:0:0:
475,192,75885,128,0,76077:0:0:0:0:
36,192,76077,128,0,76846:0:0:0:0:
256,192,76462,1,0,0:0:0:0:
475,192,76462,1,0,0:0:0:0:
329,192,76846,128,0,77231:0:0:0:0:
182,192,77231,128,0,77423:0:0:0:0:
475,192,77423,128,0,77616:0:0:0:0:
109,192,77616,128,0,78193:0:0:0:0:
475,192,78001,1,0,0:0:0:0:
402,192,78001,1,0,0:0:0:0:
329,192,78193,128,0,78385:0:0:0:0:
402,192,78385,128,0,78962:0:0:0:0:
182,192,78770,1,0,0:0:0:0:
256,192,78770,1,0,0:0:0:0:
109,192,78962,128,0,79154:0:0:0:0:
475,192,79155,128,0,79732:0:0:0:0:
256,192,79539,1,0,0:0:0:0:
329,192,79539,1,0,0:0:0:0:
475,192,80116,1,0,0:0:0:0:
182,192,80116,1,0,0:0:0:0:
109,192,80213,1,0,0:0:0:0:
402,192,80213,1,0,0:0:0:0:
329,192,80309,1,0,0:0:0:0:
36,192,80309,1,0,0:0:0:0:
256,192,80405,1,0,0:0:0:0:
182,192,80501,1,0,0:0:0:0:
475,192,80501,1,0,0:0:0:0:
402,192,80597,1,0,0:0:0:0:
109,192,80597,1,0,0:0:0:0:
36,192,80694,1,0,0:0:0:0:
329,192,80694,1,0,0:0:0:0:
36,192,81271,1,0,0:0:0:0:
475,192,81271,1,0,0:0:0:0:
109,192,81848,1,0,0:0:0:0:
402,192,81848,1,0,0:0:0:0:
36,192,83771,1,0,0:0:0:0:
109,192,83771,1,0,0:0:0:0:
329,192,83771,1,0,0:0:0:0:
475,192,84348,1,0,0:0:0:0:
402,192,84348,1,0,0:0:0:0:
182,192,84348,1,0,0:0:0:0:
36,192,84925,1,0,0:0:0:0:
475,192,84925,1,0,0:0:0:0:
256,192,84925,1,0,0:0:0:0:
36,192,86849,1,0,0:0:0:0:
475,192,86849,1,0,0:0:0:0:
182,192,87426,1,0,0:0:0:0:
329,192,87426,1,0,0:0:0:0:
256,192,88196,128,0,88580:0:0:0:0:
36,192,89927,1,0,0:0:0:0:
109,192,89927,1,0,0:0:0:0:
329,192,89927,1,0,0:0:0:0:
402,192,89927,1,0,0:0:0:0:
109,192,90504,1,0,0:0:0:0:
182,192,90504,1,0,0:0:0:0:
402,192,90504,1,0,0:0:0:0:
475,192,90504,1,0,0:0:0:0:
36,192,91273,1,0,0:0:0:0:
109,192,91273,1,0,0:0:0:0:
402,192,91273,1,0,0:0:0:0:
329,192,91273,1,0,0:0:0:0:
329,192,92427,128,0,92620:0:0:0:0:
475,192,92620,128,0,92812:0:0:0:0:
256,192,92812,128,0,93004:0:0:0:0:
36,192,93004,128,0,93389:0:0:0:0:
329,192,93389,128,0,93485:0:0:0:0:
475,192,93582,128,0,93967:0:0:0:0:
109,192,93966,128,0,94062:0:0:0:0:
36,192,94159,128,0,94544:0:0:0:0:
475,192,94159,128,0,94544:0:0:0:0:
109,192,95120,128,0,95216:0:0:0:0:
36,192,95217,128,0,95313:0:0:0:0:
109,192,95313,128,0,95505:0:0:0:0:
475,192,95505,128,0,95698:0:0:0:0:
402,192,95697,128,0,95889:0:0:0:0:
329,192,95890,128,0,96082:0:0:0:0:
256,192,96082,128,0,96275:0:0:0:0:
36,192,96275,128,0,96467:0:0:0:0:
109,192,96467,128,0,96659:0:0:0:0:
256,192,96659,128,0,96851:0:0:0:0:
475,192,96852,128,0,97044:0:0:0:0:
402,192,97044,128,0,97236:0:0:0:0:
36,192,98775,128,0,98967:0:0:0:0:
109,192,98968,128,0,99160:0:0:0:0:
182,192,99160,128,0,99737:0:0:0:0:
36,192,99160,128,0,99737:0:0:0:0:
109,192,99737,128,0,100122:0:0:0:0:
402,192,99737,128,0,100122:0:0:0:0:
475,192,100122,128,0,100314:0:0:0:0:
329,192,100314,128,0,100506:0:0:0:0:
402,192,100314,128,0,100506:0:0:0:0:
36,192,100506,128,0,100699:0:0:0:0:
182,192,100506,128,0,100699:0:0:0:0:
182,192,100891,128,0,101083:0:0:0:0:
475,192,100891,128,0,101083:0:0:0:0:
329,192,101853,128,0,102046:0:0:0:0:
402,192,102045,128,0,102237:0:0:0:0:
36,192,102238,128,0,102815:0:0:0:0:
256,192,102238,128,0,102815:0:0:0:0:
182,192,102815,128,0,103200:0:0:0:0:
402,192,102815,128,0,103200:0:0:0:0:
36,192,103199,128,0,103583:0:0:0:0:
329,192,103199,128,0,103583:0:0:0:0:
36,192,103969,1,0,0:0:0:0:
256,192,103969,128,0,104546:0:0:0:0:
109,192,104065,1,0,0:0:0:0:
182,192,104161,1,0,0:0:0:0:
329,192,104354,1,0,0:0:0:0:
402,192,104450,1,0,0:0:0:0:
475,192,104546,1,0,0:0:0:0:
182,192,105315,1,0,0:0:0:0:
256,192,105412,1,0,0:0:0:0:
329,192,105508,1,0,0:0:0:0:
402,192,105604,1,0,0:0:0:0:
475,192,105700,1,0,0:0:0:0:
402,192,105796,1,0,0:0:0:0:
475,192,105892,1,0,0:0:0:0:
402,192,105989,1,0,0:0:0:0:
329,192,106085,1,0,0:0:0:0:
182,192,106181,1,0,0:0:0:0:
109,192,106277,1,0,0:0:0:0:
329,192,106373,1,0,0:0:0:0:
182,192,106566,1,0,0:0:0:0:
109,192,106662,1,0,0:0:0:0:
36,192,106758,1,0,0:0:0:0:
109,192,106854,1,0,0:0:0:0:
36,192,106950,1,0,0:0:0:0:
109,192,107047,1,0,0:0:0:0:
475,192,107143,1,0,0:0:0:0:
402,192,107239,1,0,0:0:0:0:
182,192,107335,1,0,0:0:0:0:
475,192,107527,1,0,0:0:0:0:
36,192,107624,1,0,0:0:0:0:
329,192,107720,1,0,0:0:0:0:
36,192,107816,1,0,0:0:0:0:
182,192,107912,1,0,0:0:0:0:
329,192,108008,1,0,0:0:0:0:
256,192,108105,1,0,0:0:0:0:
402,192,108201,1,0,0:0:0:0:
36,192,108297,1,0,0:0:0:0:
475,192,108393,1,0,0:0:0:0:
109,192,108489,1,0,0:0:0:0:
329,192,108585,1,0,0:0:0:0:
475,192,108682,1,0,0:0:0:0:
182,192,108778,1,0,0:0:0:0:
109,192,108874,1,0,0:0:0:0:
36,192,108970,1,0,0:0:0:0:
109,192,109066,1,0,0:0:0:0:
475,192,109162,1,0,0:0:0:0:
36,192,109259,1,0,0:0:0:0:
109,192,109355,1,0,0:0:0:0:
329,192,109451,1,0,0:0:0:0:
256,192,109547,1,0,0:0:0:0:
475,192,109643,1,0,0:0:0:0:
402,192,109740,1,0,0:0:0:0:
475,192,109836,1,0,0:0:0:0:
402,192,109932,1,0,0:0:0:0:
36,192,110028,1,0,0:0:0:0:
182,192,110124,1,0,0:0:0:0:
109,192,110220,1,0,0:0:0:0:
36,192,110317,1,0,0:0:0:0:
109,192,110413,1,0,0:0:0:0:
182,192,110509,1,0,0:0:0:0:
109,192,110605,1,0,0:0:0:0:
36,192,110701,1,0,0:0:0:0:
109,192,110798,1,0,0:0:0:0:
256,192,110894,1,0,0:0:0:0:
182,192,110990,1,0,0:0:0:0:
109,192,111086,1,0,0:0:0:0:
36,192,111182,1,0,0:0:0:0:
109,192,111278,1,0,0:0:0:0:
256,192,111375,1,0,0:0:0:0:
475,192,111471,1,0,0:0:0:0:
109,192,111471,1,0,0:0:0:0:
402,192,111567,1,0,0:0:0:0:
475,192,111663,1,0,0:0:0:0:
402,192,111759,1,0,0:0:0:0:
329,192,111855,1,0,0:0:0:0:
402,192,111952,1,0,0:0:0:0:
475,192,112048,1,0,0:0:0:0:
329,192,112144,1,0,0:0:0:0:
402,192,112240,1,0,0:0:0:0:
109,192,112336,1,0,0:0:0:0:
36,192,112433,1,0,0:0:0:0:
329,192,112433,1,0,0:0:0:0:
402,192,112529,1,0,0:0:0:0:
36,192,112625,1,0,0:0:0:0:
329,192,112721,1,0,0:0:0:0:
182,192,112817,1,0,0:0:0:0:
329,192,112913,1,0,0:0:0:0:
109,192,113010,1,0,0:0:0:0:
402,192,113106,1,0,0:0:0:0:
36,192,113202,1,0,0:0:0:0:
182,192,113298,1,0,0:0:0:0:
475,192,113394,1,0,0:0:0:0:
109,192,113491,1,0,0:0:0:0:
475,192,113587,1,0,0:0:0:0:
402,192,113683,1,0,0:0:0:0:
36,192,113779,1,0,0:0:0:0:
402,192,113875,1,0,0:0:0:0:
109,192,113971,1,0,0:0:0:0:
329,192,113971,1,0,0:0:0:0:
36,192,114068,1,0,0:0:0:0:
182,192,114164,1,0,0:0:0:0:
36,192,114260,1,0,0:0:0:0:
109,192,114356,1,0,0:0:0:0:
36,192,114452,1,0,0:0:0:0:
256,192,114452,1,0,0:0:0:0:
109,192,114645,1,0,0:0:0:0:
256,192,114741,1,0,0:0:0:0:
329,192,114837,1,0,0:0:0:0:
36,192,114933,1,0,0:0:0:0:
109,192,115029,1,0,0:0:0:0:
182,192,115126,1,0,0:0:0:0:
256,192,115222,1,0,0:0:0:0:
475,192,115414,1,0,0:0:0:0:
402,192,115510,1,0,0:0:0:0:
256,192,115606,1,0,0:0:0:0:
182,192,115703,1,0,0:0:0:0:
36,192,115799,1,0,0:0:0:0:
475,192,115895,1,0,0:0:0:0:
402,192,115991,1,0,0:0:0:0:
329,192,116184,1,0,0:0:0:0:
256,192,116280,1,0,0:0:0:0:
402,192,116376,1,0,0:0:0:0:
109,192,116472,1,0,0:0:0:0:
182,192,116568,1,0,0:0:0:0:
109,192,116664,1,0,0:0:0:0:
256,192,116761,1,0,0:0:0:0:
475,192,116857,1,0,0:0:0:0:
256,192,116953,1,0,0:0:0:0:
36,192,117049,1,0,0:0:0:0:
36,192,117242,1,0,0:0:0:0:
256,192,117242,1,0,0:0:0:0:
256,192,117626,1,0,0:0:0:0:
475,192,117626,1,0,0:0:0:0:
256,192,117819,1,0,0:0:0:0:
329,192,117915,1,0,0:0:0:0:
402,192,118011,1,0,0:0:0:0:
256,192,118203,1,0,0:0:0:0:
475,192,118203,1,0,0:0:0:0:
256,192,118396,1,0,0:0:0:0:
36,192,118396,1,0,0:0:0:0:
329,192,118588,1,0,0:0:0:0:
402,192,118684,1,0,0:0:0:0:
329,192,118780,1,0,0:0:0:0:
256,192,118877,1,0,0:0:0:0:
329,192,118973,1,0,0:0:0:0:
402,192,119069,1,0,0:0:0:0:
182,192,119165,1,0,0:0:0:0:
329,192,119165,1,0,0:0:0:0:
36,192,119357,1,0,0:0:0:0:
109,192,119454,1,0,0:0:0:0:
256,192,119550,1,0,0:0:0:0:
402,192,119646,1,0,0:0:0:0:
475,192,119742,1,0,0:0:0:0:
402,192,119838,1,0,0:0:0:0:
36,192,119935,1,0,0:0:0:0:
182,192,120031,1,0,0:0:0:0:
256,192,120127,1,0,0:0:0:0:
182,192,120223,1,0,0:0:0:0:
36,192,120319,1,0,0:0:0:0:
475,192,120415,1,0,0:0:0:0:
182,192,120512,1,0,0:0:0:0:
109,192,120608,1,0,0:0:0:0:
256,192,120704,1,0,0:0:0:0:
329,192,120896,1,0,0:0:0:0:
402,192,120992,1,0,0:0:0:0:
109,192,121089,1,0,0:0:0:0:
182,192,121185,1,0,0:0:0:0:
256,192,121281,1,0,0:0:0:0:
182,192,121377,1,0,0:0:0:0:
36,192,121473,1,0,0:0:0:0:
36,192,121666,1,0,0:0:0:0:
402,192,121762,1,0,0:0:0:0:
256,192,121858,1,0,0:0:0:0:
182,192,121954,1,0,0:0:0:0:
256,192,122050,1,0,0:0:0:0:
475,192,122147,1,0,0:0:0:0:
402,192,122243,1,0,0:0:0:0:
475,192,122435,1,0,0:0:0:0:
182,192,122531,1,0,0:0:0:0:
109,192,122628,1,0,0:0:0:0:
36,192,122724,1,0,0:0:0:0:
475,192,122820,1,0,0:0:0:0:
36,192,122916,1,0,0:0:0:0:
109,192,123012,1,0,0:0:0:0:
256,192,123108,1,0,0:0:0:0:
475,192,123205,1,0,0:0:0:0:
109,192,123301,1,0,0:0:0:0:
182,192,123397,1,0,0:0:0:0:
182,192,123782,1,0,0:0:0:0:
256,192,123878,1,0,0:0:0:0:
329,192,123974,1,0,0:0:0:0:
402,192,124070,1,0,0:0:0:0:
475,192,124166,1,0,0:0:0:0:
402,192,124263,1,0,0:0:0:0:
329,192,124359,1,0,0:0:0:0:
475,192,124455,1,0,0:0:0:0:
36,192,124551,1,0,0:0:0:0:
402,192,124647,1,0,0:0:0:0:
475,192,124743,1,0,0:0:0:0:
329,192,124840,1,0,0:0:0:0:
36,192,124936,1,0,0:0:0:0:
109,192,125032,1,0,0:0:0:0:
182,192,125128,1,0,0:0:0:0:
109,192,125224,1,0,0:0:0:0:
36,192,125321,1,0,0:0:0:0:
256,192,125417,1,0,0:0:0:0:
182,192,125513,1,0,0:0:0:0:
109,192,125609,1,0,0:0:0:0:
182,192,125705,1,0,0:0:0:0:
402,192,125801,1,0,0:0:0:0:
36,192,125801,1,0,0:0:0:0:
256,192,125898,1,0,0:0:0:0:
475,192,125994,1,0,0:0:0:0:
402,192,126090,1,0,0:0:0:0:
475,192,126186,1,0,0:0:0:0:
402,192,126282,1,0,0:0:0:0:
329,192,126379,1,0,0:0:0:0:
36,192,126475,1,0,0:0:0:0:
329,192,126571,1,0,0:0:0:0:
36,192,126667,1,0,0:0:0:0:
182,192,126763,1,0,0:0:0:0:
475,192,126859,1,0,0:0:0:0:
329,192,127052,1,0,0:0:0:0:
402,192,127148,1,0,0:0:0:0:
475,192,127244,1,0,0:0:0:0:
36,192,127340,1,0,0:0:0:0:
109,192,127436,1,0,0:0:0:0:
402,192,127533,1,0,0:0:0:0:
475,192,127629,1,0,0:0:0:0:
109,192,127725,1,0,0:0:0:0:
36,192,127821,1,0,0:0:0:0:
109,192,127917,1,0,0:0:0:0:
182,192,128014,1,0,0:0:0:0:
256,192,128110,1,0,0:0:0:0:
109,192,128206,1,0,0:0:0:0:
402,192,128302,1,0,0:0:0:0:
36,192,128398,1,0,0:0:0:0:
256,192,128398,1,0,0:0:0:0:
475,192,128398,1,0,0:0:0:0:
182,192,128783,1,0,0:0:0:0:
329,192,128783,1,0,0:0:0:0:
256,192,128783,1,0,0:0:0:0:
182,192,129168,1,0,0:0:0:0:
329,192,129168,1,0,0:0:0:0:
109,192,129168,1,0,0:0:0:0:
402,192,129168,1,0,0:0:0:0:
36,192,129360,1,0,0:0:0:0:
109,192,129408,1,0,0:0:0:0:
182,192,129456,1,0,0:0:0:0:
256,192,129504,1,0,0:0:0:0:
329,192,129552,1,0,0:0:0:0:
256,192,129937,1,0,0:0:0:0:
36,192,129937,1,0,0:0:0:0:
256,192,130129,1,0,0:0:0:0:
475,192,130226,1,0,0:0:0:0:
329,192,130322,1,0,0:0:0:0:
182,192,130322,1,0,0:0:0:0:
329,192,130514,1,0,0:0:0:0:
475,192,130514,1,0,0:0:0:0:
109,192,130707,1,0,0:0:0:0:
329,192,130707,1,0,0:0:0:0:
402,192,130899,1,0,0:0:0:0:
36,192,130899,1,0,0:0:0:0:
36,192,131091,1,0,0:0:0:0:
256,192,131091,1,0,0:0:0:0:
475,192,131187,1,0,0:0:0:0:
402,192,131187,1,0,0:0:0:0:
256,192,131284,1,0,0:0:0:0:
182,192,131284,1,0,0:0:0:0:
36,192,131380,1,0,0:0:0:0:
475,192,131380,1,0,0:0:0:0:
402,192,131476,1,0,0:0:0:0:
475,192,131668,1,0,0:0:0:0:
36,192,131668,1,0,0:0:0:0:
475,192,131861,1,0,0:0:0:0:
109,192,131957,1,0,0:0:0:0:
329,192,131957,1,0,0:0:0:0:
182,192,132053,1,0,0:0:0:0:
475,192,132053,1,0,0:0:0:0:
329,192,132149,1,0,0:0:0:0:
256,192,132149,1,0,0:0:0:0:
109,192,132245,1,0,0:0:0:0:
256,192,132342,1,0,0:0:0:0:
329,192,132342,1,0,0:0:0:0:
109,192,132438,1,0,0:0:0:0:
402,192,132438,1,0,0:0:0:0:
36,192,132534,1,0,0:0:0:0:
109,192,132630,1,0,0:0:0:0:
256,192,132630,1,0,0:0:0:0:
36,192,132726,1,0,0:0:0:0:
256,192,132822,1,0,0:0:0:0:
475,192,132822,1,0,0:0:0:0:
182,192,132919,1,0,0:0:0:0:
109,192,133015,1,0,0:0:0:0:
475,192,133207,1,0,0:0:0:0:
329,192,133207,1,0,0:0:0:0:
475,192,133400,1,0,0:0:0:0:
402,192,133496,1,0,0:0:0:0:
256,192,133496,1,0,0:0:0:0:
475,192,133592,1,0,0:0:0:0:
182,192,133592,1,0,0:0:0:0:
256,192,133688,1,0,0:0:0:0:
36,192,133688,1,0,0:0:0:0:
475,192,133784,1,0,0:0:0:0:
36,192,133977,1,0,0:0:0:0:
182,192,133977,1,0,0:0:0:0:
36,192,134169,1,0,0:0:0:0:
109,192,134169,1,0,0:0:0:0:
329,192,134265,1,0,0:0:0:0:
402,192,134265,1,0,0:0:0:0:
36,192,134361,1,0,0:0:0:0:
256,192,134361,1,0,0:0:0:0:
109,192,134458,1,0,0:0:0:0:
402,192,134554,1,0,0:0:0:0:
109,192,134650,1,0,0:0:0:0:
256,192,134650,1,0,0:0:0:0:
402,192,134746,1,0,0:0:0:0:
475,192,134746,1,0,0:0:0:0:
256,192,134842,1,0,0:0:0:0:
109,192,134938,1,0,0:0:0:0:
256,192,135035,1,0,0:0:0:0:
402,192,135035,1,0,0:0:0:0:
109,192,135131,1,0,0:0:0:0:
329,192,135131,1,0,0:0:0:0:
36,192,135227,1,0,0:0:0:0:
256,192,135227,1,0,0:0:0:0:
329,192,135323,1,0,0:0:0:0:
36,192,135419,1,0,0:0:0:0:
256,192,135419,1,0,0:0:0:0:
475,192,135515,1,0,0:0:0:0:
182,192,135515,1,0,0:0:0:0:
329,192,135612,1,0,0:0:0:0:
36,192,135612,1,0,0:0:0:0:
182,192,135708,1,0,0:0:0:0:
182,192,136093,1,0,0:0:0:0:
109,192,136093,1,0,0:0:0:0:
475,192,136285,1,0,0:0:0:0:
182,192,136285,1,0,0:0:0:0:
475,192,136477,1,0,0:0:0:0:
109,192,136573,1,0,0:0:0:0:
402,192,136573,1,0,0:0:0:0:
329,192,136670,1,0,0:0:0:0:
36,192,136670,1,0,0:0:0:0:
402,192,136766,1,0,0:0:0:0:
109,192,136766,1,0,0:0:0:0:
36,192,136862,1,0,0:0:0:0:
475,192,136862,1,0,0:0:0:0:
109,192,137054,1,0,0:0:0:0:
256,192,137054,1,0,0:0:0:0:
182,192,137247,1,0,0:0:0:0:
109,192,137343,1,0,0:0:0:0:
402,192,137343,1,0,0:0:0:0:
329,192,137439,1,0,0:0:0:0:
36,192,137439,1,0,0:0:0:0:
109,192,137535,1,0,0:0:0:0:
402,192,137535,1,0,0:0:0:0:
256,192,137824,1,0,0:0:0:0:
36,192,137824,1,0,0:0:0:0:
109,192,138016,1,0,0:0:0:0:
475,192,138016,1,0,0:0:0:0:
402,192,138112,1,0,0:0:0:0:
109,192,138209,1,0,0:0:0:0:
182,192,138209,1,0,0:0:0:0:
475,192,138305,1,0,0:0:0:0:
329,192,138305,1,0,0:0:0:0:
402,192,138401,1,0,0:0:0:0:
36,192,138497,1,0,0:0:0:0:
329,192,138497,1,0,0:0:0:0:
402,192,138593,1,0,0:0:0:0:
256,192,138593,1,0,0:0:0:0:
475,192,138689,1,0,0:0:0:0:
329,192,138689,1,0,0:0:0:0:
36,192,138786,1,0,0:0:0:0:
109,192,138882,1,0,0:0:0:0:
329,192,138882,1,0,0:0:0:0:
36,192,138978,1,0,0:0:0:0:
475,192,138978,1,0,0:0:0:0:
36,192,139170,1,0,0:0:0:0:
329,192,139170,1,0,0:0:0:0:
402,192,139363,1,0,0:0:0:0:
256,192,139363,1,0,0:0:0:0:
256,192,139555,1,0,0:0:0:0:
36,192,139555,1,0,0:0:0:0:
402,192,139651,1,0,0:0:0:0:
182,192,139651,1,0,0:0:0:0:
256,192,139747,1,0,0:0:0:0:
475,192,139747,1,0,0:0:0:0:
182,192,139844,1,0,0:0:0:0:
402,192,139844,1,0,0:0:0:0:
256,192,139940,1,0,0:0:0:0:
402,192,140132,1,0,0:0:0:0:
256,192,140132,1,0,0:0:0:0:
109,192,140132,1,0,0:0:0:0:
329,192,140324,1,0,0:0:0:0:
182,192,140324,1,0,0:0:0:0:
256,192,140517,1,0,0:0:0:0:
256,192,140709,1,0,0:0:0:0:
256,192,140902,1,0,0:0:0:0:
256,192,141094,1,0,0:0:0:0:
256,192,141286,1,0,0:0:0:0:
256,192,141479,1,0,0:0:0:0:
329,192,141671,1,0,0:0:0:0:
402,192,141767,1,0,0:0:0:0:
475,192,141863,1,0,0:0:0:0:
256,192,142248,1,0,0:0:0:0:
256,192,142440,1,0,0:0:0:0:
256,192,142633,1,0,0:0:0:0:
256,192,142825,1,0,0:0:0:0:
256,192,143017,1,0,0:0:0:0:
182,192,143210,1,0,0:0:0:0:
109,192,143306,1,0,0:0:0:0:
36,192,143402,1,0,0:0:0:0:
109,192,144172,128,0,145326:0:0:0:0:
402,192,144556,128,0,145325:0:0:0:0:
329,192,144941,128,0,145326:0:0:0:0:
109,192,145518,1,0,0:0:0:0:
475,192,145518,1,0,0:0:0:0:
36,192,145710,1,0,0:0:0:0:
109,192,145710,1,0,0:0:0:0:
182,192,145903,1,0,0:0:0:0:
36,192,145903,1,0,0:0:0:0:
109,192,146095,1,0,0:0:0:0:
475,192,146095,1,0,0:0:0:0:
36,192,146288,1,0,0:0:0:0:
402,192,146288,1,0,0:0:0:0:
109,192,146480,1,0,0:0:0:0:
475,192,146480,1,0,0:0:0:0:
402,192,146480,1,0,0:0:0:0:
329,192,146672,1,0,0:0:0:0:
36,192,146672,1,0,0:0:0:0:
36,192,146865,1,0,0:0:0:0:
475,192,146865,1,0,0:0:0:0:
475,192,147057,1,0,0:0:0:0:
329,192,147057,1,0,0:0:0:0:
36,192,147249,1,0,0:0:0:0:
329,192,147249,1,0,0:0:0:0:
36,192,147442,1,0,0:0:0:0:
475,192,147442,1,0,0:0:0:0:
329,192,147634,1,0,0:0:0:0:
402,192,147634,1,0,0:0:0:0:
475,192,147826,1,0,0:0:0:0:
402,192,147826,1,0,0:0:0:0:
256,192,148019,1,0,0:0:0:0:
402,192,148019,1,0,0:0:0:0:
36,192,148211,1,0,0:0:0:0:
402,192,148211,1,0,0:0:0:0:
329,192,148403,1,0,0:0:0:0:
109,192,148403,1,0,0:0:0:0:
36,192,148596,1,0,0:0:0:0:
475,192,148596,1,0,0:0:0:0:
475,192,148788,1,0,0:0:0:0:
402,192,148788,1,0,0:0:0:0:
36,192,148981,1,0,0:0:0:0:
475,192,148981,1,0,0:0:0:0:
109,192,149173,1,0,0:0:0:0:
182,192,149173,1,0,0:0:0:0:
109,192,149365,1,0,0:0:0:0:
256,192,149365,1,0,0:0:0:0:
329,192,149558,1,0,0:0:0:0:
182,192,149558,1,0,0:0:0:0:
402,192,149750,1,0,0:0:0:0:
475,192,149750,1,0,0:0:0:0:
329,192,149942,1,0,0:0:0:0:
182,192,149942,1,0,0:0:0:0:
256,192,150135,1,0,0:0:0:0:
402,192,150135,1,0,0:0:0:0:
475,192,150327,1,0,0:0:0:0:
36,192,150327,1,0,0:0:0:0:
109,192,150519,1,0,0:0:0:0:
402,192,150519,1,0,0:0:0:0:
36,192,150712,1,0,0:0:0:0:
109,192,150712,1,0,0:0:0:0:
182,192,150904,1,0,0:0:0:0:
36,192,150904,1,0,0:0:0:0:
109,192,151096,1,0,0:0:0:0:
475,192,151096,1,0,0:0:0:0:
402,192,151289,1,0,0:0:0:0:
36,192,151289,1,0,0:0:0:0:
329,192,151481,1,0,0:0:0:0:
475,192,151481,1,0,0:0:0:0:
475,192,151674,1,0,0:0:0:0:
402,192,151674,1,0,0:0:0:0:
256,192,151674,1,0,0:0:0:0:
109,192,151866,1,0,0:0:0:0:
402,192,151866,1,0,0:0:0:0:
475,192,152058,1,0,0:0:0:0:
329,192,152058,1,0,0:0:0:0:
475,192,152251,128,0,152636:0:0:0:0:
256,192,152635,128,0,153019:0:0:0:0:
109,192,153020,1,0,0:0:0:0:
475,192,153020,1,0,0:0:0:0:
475,192,153212,1,0,0:0:0:0:
36,192,153212,1,0,0:0:0:0:
182,192,153405,1,0,0:0:0:0:
329,192,153405,1,0,0:0:0:0:
475,192,153597,1,0,0:0:0:0:
36,192,153597,1,0,0:0:0:0:
256,192,153789,1,0,0:0:0:0:
109,192,153789,1,0,0:0:0:0:
109,192,153982,1,0,0:0:0:0:
182,192,153982,1,0,0:0:0:0:
475,192,154174,1,0,0:0:0:0:
329,192,154174,1,0,0:0:0:0:
182,192,154367,1,0,0:0:0:0:
475,192,154367,1,0,0:0:0:0:
256,192,154559,1,0,0:0:0:0:
109,192,154559,1,0,0:0:0:0:
36,192,154751,1,0,0:0:0:0:
402,192,154751,1,0,0:0:0:0:
475,192,154944,1,0,0:0:0:0:
182,192,154944,1,0,0:0:0:0:
36,192,155136,1,0,0:0:0:0:
109,192,155136,1,0,0:0:0:0:
36,192,155328,128,0,155713:0:0:0:0:
182,192,155713,1,0,0:0:0:0:
402,192,155713,1,0,0:0:0:0:
109,192,155713,128,0,156097:0:0:0:0:
475,192,156098,1,0,0:0:0:0:
182,192,156098,1,0,0:0:0:0:
402,192,156098,128,0,156483:0:0:0:0:
475,192,156482,1,0,0:0:0:0:
36,192,156482,128,0,156866:0:0:0:0:
256,192,156482,1,0,0:0:0:0:
475,192,156867,128,0,157252:0:0:0:0:
256,192,156867,1,0,0:0:0:0:
109,192,156867,1,0,0:0:0:0:
36,192,157444,1,0,0:0:0:0:
109,192,157492,1,0,0:0:0:0:
182,192,157540,1,0,0:0:0:0:
256,192,157589,1,0,0:0:0:0:
475,192,157637,128,0,158021:0:0:0:0:
256,192,158214,1,0,0:0:0:0:
329,192,158310,1,0,0:0:0:0:
402,192,158406,1,0,0:0:0:0:
109,192,158598,1,0,0:0:0:0:
256,192,158598,1,0,0:0:0:0:
36,192,158791,1,0,0:0:0:0:
182,192,158791,1,0,0:0:0:0:
109,192,158983,1,0,0:0:0:0:
475,192,158983,1,0,0:0:0:0:
329,192,159175,1,0,0:0:0:0:
36,192,159272,1,0,0:0:0:0:
402,192,159368,1,0,0:0:0:0:
109,192,159464,1,0,0:0:0:0:
182,192,159560,1,0,0:0:0:0:
329,192,159656,1,0,0:0:0:0:
402,192,159753,1,0,0:0:0:0:
475,192,159849,1,0,0:0:0:0:
36,192,159945,1,0,0:0:0:0:
256,192,160041,1,0,0:0:0:0:
329,192,160137,1,0,0:0:0:0:
475,192,160233,1,0,0:0:0:0:
402,192,160330,1,0,0:0:0:0:
256,192,160426,1,0,0:0:0:0:
182,192,160522,1,0,0:0:0:0:
109,192,160618,1,0,0:0:0:0:
36,192,160714,128,0,161291:0:0:0:0:
329,192,161291,1,0,0:0:0:0:
402,192,161388,1,0,0:0:0:0:
475,192,161484,1,0,0:0:0:0:
109,192,161676,1,0,0:0:0:0:
329,192,161676,1,0,0:0:0:0:
36,192,161868,1,0,0:0:0:0:
256,192,161868,1,0,0:0:0:0:
475,192,162061,1,0,0:0:0:0:
182,192,162061,1,0,0:0:0:0:
109,192,162253,1,0,0:0:0:0:
36,192,162349,1,0,0:0:0:0:
402,192,162446,1,0,0:0:0:0:
109,192,162542,1,0,0:0:0:0:
402,192,162638,1,0,0:0:0:0:
475,192,162734,1,0,0:0:0:0:
36,192,162830,1,0,0:0:0:0:
109,192,162926,1,0,0:0:0:0:
475,192,162926,1,0,0:0:0:0:
402,192,163023,1,0,0:0:0:0:
36,192,163119,1,0,0:0:0:0:
109,192,163215,1,0,0:0:0:0:
402,192,163311,1,0,0:0:0:0:
475,192,163407,1,0,0:0:0:0:
402,192,163504,1,0,0:0:0:0:
329,192,163600,1,0,0:0:0:0:
256,192,163696,1,0,0:0:0:0:
36,192,163792,128,0,164368:0:0:0:0:
475,192,163792,128,0,164368:0:0:0:0:
109,192,164369,1,0,0:0:0:0:
182,192,164465,1,0,0:0:0:0:
256,192,164562,1,0,0:0:0:0:
329,192,164658,1,0,0:0:0:0:
402,192,164754,1,0,0:0:0:0:
475,192,164850,1,0,0:0:0:0:
329,192,164946,1,0,0:0:0:0:
256,192,165042,1,0,0:0:0:0:
182,192,165139,1,0,0:0:0:0:
109,192,165235,1,0,0:0:0:0:
36,192,165331,1,0,0:0:0:0:
329,192,165523,1,0,0:0:0:0:
475,192,165716,1,0,0:0:0:0:
36,192,165908,1,0,0:0:0:0:
182,192,166100,1,0,0:0:0:0:
182,192,166293,1,0,0:0:0:0:
329,192,166485,1,0,0:0:0:0:
329,192,166677,1,0,0:0:0:0:
475,192,166870,128,0,167447:0:0:0:0:
36,192,167447,1,0,0:0:0:0:
182,192,167447,1,0,0:0:0:0:
109,192,167543,1,0,0:0:0:0:
256,192,167543,1,0,0:0:0:0:
182,192,167639,1,0,0:0:0:0:
329,192,167639,1,0,0:0:0:0:
109,192,167832,1,0,0:0:0:0:
402,192,167832,1,0,0:0:0:0:
329,192,168024,1,0,0:0:0:0:
36,192,168024,1,0,0:0:0:0:
182,192,168216,1,0,0:0:0:0:
475,192,168216,1,0,0:0:0:0:
36,192,168409,1,0,0:0:0:0:
329,192,168409,1,0,0:0:0:0:
109,192,168505,1,0,0:0:0:0:
402,192,168505,1,0,0:0:0:0:
182,192,168601,1,0,0:0:0:0:
475,192,168601,1,0,0:0:0:0:
109,192,168697,1,0,0:0:0:0:
402,192,168697,1,0,0:0:0:0:
36,192,168793,1,0,0:0:0:0:
329,192,168793,1,0,0:0:0:0:
182,192,168890,1,0,0:0:0:0:
475,192,168890,1,0,0:0:0:0:
109,192,168986,1,0,0:0:0:0:
402,192,168986,1,0,0:0:0:0:
36,192,169082,1,0,0:0:0:0:
329,192,169082,1,0,0:0:0:0:
109,192,169178,1,0,0:0:0:0:
402,192,169178,1,0,0:0:0:0:
182,192,169274,1,0,0:0:0:0:
475,192,169274,1,0,0:0:0:0:
402,192,169370,1,0,0:0:0:0:
109,192,169370,1,0,0:0:0:0:
36,192,169467,1,0,0:0:0:0:
329,192,169467,1,0,0:0:0:0:
109,192,169563,1,0,0:0:0:0:
402,192,169563,1,0,0:0:0:0:
182,192,169659,1,0,0:0:0:0:
475,192,169659,1,0,0:0:0:0:
109,192,169755,1,0,0:0:0:0:
402,192,169755,1,0,0:0:0:0:
182,192,169851,1,0,0:0:0:0:
475,192,169851,1,0,0:0:0:0:
36,192,169948,1,0,0:0:0:0:
329,192,169948,1,0,0:0:0:0:
475,192,170140,1,0,0:0:0:0:
256,192,170236,1,0,0:0:0:0:
329,192,170236,1,0,0:0:0:0:
182,192,170332,1,0,0:0:0:0:
36,192,170428,1,0,0:0:0:0:
475,192,170428,1,0,0:0:0:0:
329,192,170525,1,0,0:0:0:0:
256,192,170621,1,0,0:0:0:0:
182,192,170621,1,0,0:0:0:0:
109,192,170717,1,0,0:0:0:0:
256,192,170813,1,0,0:0:0:0:
402,192,170813,1,0,0:0:0:0:
109,192,170909,1,0,0:0:0:0:
329,192,171005,1,0,0:0:0:0:
475,192,171005,1,0,0:0:0:0:
402,192,171102,1,0,0:0:0:0:
36,192,171198,1,0,0:0:0:0:
182,192,171198,1,0,0:0:0:0:
475,192,171294,1,0,0:0:0:0:
182,192,171390,1,0,0:0:0:0:
402,192,171390,1,0,0:0:0:0:
36,192,171486,1,0,0:0:0:0:
256,192,171583,1,0,0:0:0:0:
402,192,171583,1,0,0:0:0:0:
329,192,171679,1,0,0:0:0:0:
256,192,171775,1,0,0:0:0:0:
109,192,171775,1,0,0:0:0:0:
329,192,171871,1,0,0:0:0:0:
475,192,171967,1,0,0:0:0:0:
36,192,171967,1,0,0:0:0:0:
256,192,172063,1,0,0:0:0:0:
329,192,172160,1,0,0:0:0:0:
182,192,172160,1,0,0:0:0:0:
36,192,172256,1,0,0:0:0:0:
256,192,172352,1,0,0:0:0:0:
402,192,172352,1,0,0:0:0:0:
475,192,172448,1,0,0:0:0:0:
182,192,172544,1,0,0:0:0:0:
402,192,172544,1,0,0:0:0:0:
36,192,172641,1,0,0:0:0:0:
182,192,172737,1,0,0:0:0:0:
329,192,172737,1,0,0:0:0:0:
475,192,172833,1,0,0:0:0:0:
182,192,172929,1,0,0:0:0:0:
329,192,172929,1,0,0:0:0:0:
36,192,173025,1,0,0:0:0:0:
182,192,173121,1,0,0:0:0:0:
329,192,173121,1,0,0:0:0:0:
475,192,173218,1,0,0:0:0:0:
36,192,173314,1,0,0:0:0:0:
182,192,173314,1,0,0:0:0:0:
475,192,173410,1,0,0:0:0:0:
109,192,173506,1,0,0:0:0:0:
256,192,173506,1,0,0:0:0:0:
475,192,173602,1,0,0:0:0:0:
256,192,173698,1,0,0:0:0:0:
109,192,173698,1,0,0:0:0:0:
329,192,173795,1,0,0:0:0:0:
36,192,173891,1,0,0:0:0:0:
475,192,173891,1,0,0:0:0:0:
256,192,173987,1,0,0:0:0:0:
475,192,174083,1,0,0:0:0:0:
329,192,174083,1,0,0:0:0:0:
109,192,174179,1,0,0:0:0:0:
402,192,174276,1,0,0:0:0:0:
182,192,174276,1,0,0:0:0:0:
256,192,174372,1,0,0:0:0:0:
329,192,174468,1,0,0:0:0:0:
475,192,174468,1,0,0:0:0:0:
36,192,174564,1,0,0:0:0:0:
256,192,174564,1,0,0:0:0:0:
109,192,174660,1,0,0:0:0:0:
329,192,174660,1,0,0:0:0:0:
475,192,174756,1,0,0:0:0:0:
182,192,174756,1,0,0:0:0:0:
402,192,174853,1,0,0:0:0:0:
109,192,174853,1,0,0:0:0:0:
182,192,174949,1,0,0:0:0:0:
475,192,174949,1,0,0:0:0:0:
402,192,175045,1,0,0:0:0:0:
36,192,175045,1,0,0:0:0:0:
329,192,175141,1,0,0:0:0:0:
109,192,175141,1,0,0:0:0:0:
182,192,175237,1,0,0:0:0:0:
256,192,175237,1,0,0:0:0:0:
475,192,175334,1,0,0:0:0:0:
36,192,175334,1,0,0:0:0:0:
109,192,175430,1,0,0:0:0:0:
402,192,175430,1,0,0:0:0:0:
329,192,175526,1,0,0:0:0:0:
182,192,175526,1,0,0:0:0:0:
256,192,175622,1,0,0:0:0:0:
109,192,175622,1,0,0:0:0:0:
402,192,175718,1,0,0:0:0:0:
36,192,175718,1,0,0:0:0:0:
475,192,175814,1,0,0:0:0:0:
109,192,175814,1,0,0:0:0:0:
402,192,175911,1,0,0:0:0:0:
182,192,175911,1,0,0:0:0:0:
329,192,176007,1,0,0:0:0:0:
109,192,176007,1,0,0:0:0:0:
36,192,176103,1,0,0:0:0:0:
256,192,176103,1,0,0:0:0:0:
329,192,176199,1,0,0:0:0:0:
475,192,176199,1,0,0:0:0:0:
182,192,176295,1,0,0:0:0:0:
329,192,176392,1,0,0:0:0:0:
475,192,176392,1,0,0:0:0:0:
256,192,176488,1,0,0:0:0:0:
329,192,176584,1,0,0:0:0:0:
475,192,176584,1,0,0:0:0:0:
402,192,176680,1,0,0:0:0:0:
329,192,176776,1,0,0:0:0:0:
475,192,176776,1,0,0:0:0:0:
36,192,176872,1,0,0:0:0:0:
329,192,176969,1,0,0:0:0:0:
475,192,176969,1,0,0:0:0:0:
402,192,177065,1,0,0:0:0:0:
329,192,177161,1,0,0:0:0:0:
475,192,177161,1,0,0:0:0:0:
109,192,177257,1,0,0:0:0:0:
329,192,177353,1,0,0:0:0:0:
475,192,177353,1,0,0:0:0:0:
402,192,177449,1,0,0:0:0:0:
329,192,177546,1,0,0:0:0:0:
475,192,177546,1,0,0:0:0:0:
36,192,177642,1,0,0:0:0:0:
475,192,177738,1,0,0:0:0:0:
329,192,177738,1,0,0:0:0:0:
182,192,177834,1,0,0:0:0:0:
402,192,177930,1,0,0:0:0:0:
256,192,177930,1,0,0:0:0:0:
36,192,178027,1,0,0:0:0:0:
329,192,178123,1,0,0:0:0:0:
109,192,178123,1,0,0:0:0:0:
182,192,178219,1,0,0:0:0:0:
109,192,178315,1,0,0:0:0:0:
256,192,178315,1,0,0:0:0:0:
36,192,178411,1,0,0:0:0:0:
329,192,178507,1,0,0:0:0:0:
109,192,178507,1,0,0:0:0:0:
182,192,178604,1,0,0:0:0:0:
475,192,178700,1,0,0:0:0:0:
256,192,178700,1,0,0:0:0:0:
36,192,178796,1,0,0:0:0:0:
329,192,178892,1,0,0:0:0:0:
109,192,178892,1,0,0:0:0:0:
256,192,178988,1,0,0:0:0:0:
182,192,179085,1,0,0:0:0:0:
36,192,179085,1,0,0:0:0:0:
475,192,179181,1,0,0:0:0:0:
329,192,179181,1,0,0:0:0:0:
402,192,179277,1,0,0:0:0:0:
182,192,179277,1,0,0:0:0:0:
36,192,179373,1,0,0:0:0:0:
256,192,179373,1,0,0:0:0:0:
182,192,179469,1,0,0:0:0:0:
475,192,179469,1,0,0:0:0:0:
109,192,179565,1,0,0:0:0:0:
402,192,179565,1,0,0:0:0:0:
182,192,179662,1,0,0:0:0:0:
329,192,179662,1,0,0:0:0:0:
256,192,179758,1,0,0:0:0:0:
36,192,179758,1,0,0:0:0:0:
329,192,179854,1,0,0:0:0:0:
109,192,179854,1,0,0:0:0:0:
475,192,179950,1,0,0:0:0:0:
182,192,179950,1,0,0:0:0:0:
402,192,180046,1,0,0:0:0:0:
256,192,180046,1,0,0:0:0:0:
36,192,180142,1,0,0:0:0:0:
329,192,180142,1,0,0:0:0:0:
402,192,180239,1,0,0:0:0:0:
109,192,180239,1,0,0:0:0:0:
182,192,180335,1,0,0:0:0:0:
475,192,180335,1,0,0:0:0:0:
256,192,180431,1,0,0:0:0:0:
402,192,180431,1,0,0:0:0:0:
329,192,180527,1,0,0:0:0:0:
109,192,180527,1,0,0:0:0:0:
182,192,180623,1,0,0:0:0:0:
475,192,180623,1,0,0:0:0:0:
36,192,180720,1,0,0:0:0:0:
329,192,180720,1,0,0:0:0:0:
109,192,180816,1,0,0:0:0:0:
402,192,180816,1,0,0:0:0:0:
475,192,180912,1,0,0:0:0:0:
182,192,180912,1,0,0:0:0:0:
329,192,181008,1,0,0:0:0:0:
36,192,181008,1,0,0:0:0:0:
256,192,181104,1,0,0:0:0:0:
475,192,181104,1,0,0:0:0:0:
109,192,181200,1,0,0:0:0:0:
402,192,181200,1,0,0:0:0:0:
256,192,181297,1,0,0:0:0:0:
36,192,181297,1,0,0:0:0:0:
182,192,181393,1,0,0:0:0:0:
402,192,181393,1,0,0:0:0:0:
36,192,181489,1,0,0:0:0:0:
475,192,181489,1,0,0:0:0:0:
36,192,182258,128,0,182739:0:0:0:0:
475,192,182258,128,0,182739:0:0:0:0:
256,192,182258,1,0,0:0:0:0:
182,192,182643,128,0,182931:0:0:0:0:
329,192,182643,128,0,182931:0:0:0:0:
256,192,182643,1,0,0:0:0:0:
36,192,183028,128,0,183317:0:0:0:0:
475,192,183028,128,0,183317:0:0:0:0:
256,192,183028,1,0,0:0:0:0:
36,192,183413,1,0,0:0:0:0:
182,192,183413,1,0,0:0:0:0:
109,192,183605,1,0,0:0:0:0:
256,192,183605,1,0,0:0:0:0:
402,192,184182,1,0,0:0:0:0:
109,192,184182,1,0,0:0:0:0:
256,192,184182,1,0,0:0:0:0:
109,192,184374,128,0,184567:0:0:0:0:
36,192,184567,128,0,185144:0:0:0:0:
109,192,184951,1,0,0:0:0:0:
329,192,184951,1,0,0:0:0:0:
475,192,184951,1,0,0:0:0:0:
182,192,185144,128,0,185336:0:0:0:0:
109,192,185336,128,0,186105:0:0:0:0:
36,192,185721,1,0,0:0:0:0:
256,192,185721,1,0,0:0:0:0:
402,192,185721,1,0,0:0:0:0:
36,192,186106,1,0,0:0:0:0:
256,192,186106,1,0,0:0:0:0:
402,192,186106,1,0,0:0:0:0:
256,192,186298,1,0,0:0:0:0:
402,192,186298,1,0,0:0:0:0:
329,192,186394,1,0,0:0:0:0:
475,192,186394,1,0,0:0:0:0:
402,192,186490,1,0,0:0:0:0:
36,192,186490,1,0,0:0:0:0:
475,192,186586,1,0,0:0:0:0:
109,192,186586,1,0,0:0:0:0:
36,192,186683,1,0,0:0:0:0:
182,192,186683,1,0,0:0:0:0:
109,192,186779,1,0,0:0:0:0:
256,192,186779,1,0,0:0:0:0:
182,192,186875,1,0,0:0:0:0:
329,192,186875,128,0,187260:0:0:0:0:
109,192,187260,1,0,0:0:0:0:
256,192,187260,128,0,187645:0:0:0:0:
36,192,187644,1,0,0:0:0:0:
182,192,187644,128,0,188028:0:0:0:0:
475,192,188029,1,0,0:0:0:0:
256,192,188029,128,0,188414:0:0:0:0:
36,192,188414,128,0,189183:0:0:0:0:
36,192,189568,128,0,189760:0:0:0:0:
182,192,189760,128,0,189952:0:0:0:0:
475,192,189953,128,0,190723:0:0:0:0:
109,192,190337,1,0,0:0:0:0:
256,192,190337,1,0,0:0:0:0:
402,192,190337,1,0,0:0:0:0:
109,192,190722,128,0,191106:0:0:0:0:
182,192,190722,128,0,191106:0:0:0:0:
36,192,191107,128,0,191300:0:0:0:0:
475,192,191299,128,0,191491:0:0:0:0:
109,192,191492,128,0,192261:0:0:0:0:
256,192,191876,1,0,0:0:0:0:
402,192,191876,1,0,0:0:0:0:
475,192,191876,1,0,0:0:0:0:
182,192,192261,128,0,192646:0:0:0:0:
475,192,192261,128,0,192646:0:0:0:0:
329,192,192646,128,0,192838:0:0:0:0:
402,192,192838,128,0,193030:0:0:0:0:
36,192,193030,128,0,193607:0:0:0:0:
182,192,193415,1,0,0:0:0:0:
329,192,193415,1,0,0:0:0:0:
475,192,193415,1,0,0:0:0:0:
182,192,193608,128,0,193801:0:0:0:0:
402,192,193800,128,0,194376:0:0:0:0:
329,192,194185,1,0,0:0:0:0:
182,192,194185,1,0,0:0:0:0:
36,192,194185,1,0,0:0:0:0:
256,192,194377,128,0,194570:0:0:0:0:
475,192,194569,128,0,195338:0:0:0:0:
36,192,194954,1,0,0:0:0:0:
182,192,194954,1,0,0:0:0:0:
329,192,194954,1,0,0:0:0:0:
256,192,195531,1,0,0:0:0:0:
475,192,195627,1,0,0:0:0:0:
402,192,195723,1,0,0:0:0:0:
329,192,195820,1,0,0:0:0:0:
402,192,195916,1,0,0:0:0:0:
475,192,196012,1,0,0:0:0:0:
329,192,196108,128,0,196685:0:0:0:0:
36,192,196108,1,0,0:0:0:0:
402,192,196108,1,0,0:0:0:0:
36,192,196493,1,0,0:0:0:0:
256,192,196493,1,0,0:0:0:0:
475,192,196493,1,0,0:0:0:0:
402,192,196685,128,0,196877:0:0:0:0:
109,192,196878,128,0,197455:0:0:0:0:
36,192,197262,1,0,0:0:0:0:
182,192,197262,1,0,0:0:0:0:
329,192,197262,1,0,0:0:0:0:
36,192,197455,128,0,197648:0:0:0:0:
475,192,197647,128,0,198416:0:0:0:0:
36,192,198032,1,0,0:0:0:0:
256,192,198032,1,0,0:0:0:0:
402,192,198032,1,0,0:0:0:0:
402,192,198416,1,0,0:0:0:0:
256,192,198416,1,0,0:0:0:0:
36,192,198416,1,0,0:0:0:0:
329,192,198609,1,0,0:0:0:0:
109,192,198609,1,0,0:0:0:0:
256,192,198705,1,0,0:0:0:0:
36,192,198705,1,0,0:0:0:0:
182,192,198801,1,0,0:0:0:0:
475,192,198801,1,0,0:0:0:0:
109,192,198897,1,0,0:0:0:0:
402,192,198897,1,0,0:0:0:0:
36,192,198994,1,0,0:0:0:0:
329,192,198994,1,0,0:0:0:0:
475,192,199090,1,0,0:0:0:0:
256,192,199090,1,0,0:0:0:0:
402,192,199186,1,0,0:0:0:0:
182,192,199186,128,0,199571:0:0:0:0:
475,192,199571,1,0,0:0:0:0:
256,192,199571,128,0,199955:0:0:0:0:
36,192,199955,1,0,0:0:0:0:
182,192,199955,128,0,200340:0:0:0:0:
109,192,200340,1,0,0:0:0:0:
256,192,200340,128,0,200725:0:0:0:0:
475,192,200725,128,0,201494:0:0:0:0:
182,192,200725,1,0,0:0:0:0:
329,192,201879,128,0,202072:0:0:0:0:
402,192,202071,128,0,202263:0:0:0:0:
475,192,202264,128,0,203033:0:0:0:0:
36,192,202648,1,0,0:0:0:0:
182,192,202648,1,0,0:0:0:0:
329,192,202648,1,0,0:0:0:0:
36,192,203033,128,0,203418:0:0:0:0:
329,192,203033,128,0,203418:0:0:0:0:
182,192,203418,128,0,203610:0:0:0:0:
109,192,203610,128,0,203803:0:0:0:0:
182,192,203802,128,0,204571:0:0:0:0:
36,192,204187,1,0,0:0:0:0:
256,192,204187,1,0,0:0:0:0:
402,192,204187,1,0,0:0:0:0:
36,192,204572,128,0,204956:0:0:0:0:
402,192,204572,128,0,204956:0:0:0:0:
182,192,204957,128,0,205150:0:0:0:0:
256,192,205149,128,0,205341:0:0:0:0:
475,192,205341,128,0,205918:0:0:0:0:
36,192,205726,1,0,0:0:0:0:
182,192,205726,1,0,0:0:0:0:
329,192,205726,1,0,0:0:0:0:
256,192,205918,128,0,206110:0:0:0:0:
109,192,206111,128,0,206688:0:0:0:0:
256,192,206495,1,0,0:0:0:0:
402,192,206495,1,0,0:0:0:0:
475,192,206495,1,0,0:0:0:0:
475,192,206688,128,0,206880:0:0:0:0:
402,192,206880,128,0,207457:0:0:0:0:
36,192,207265,1,0,0:0:0:0:
182,192,207265,1,0,0:0:0:0:
329,192,207265,1,0,0:0:0:0:
475,192,207842,1,0,0:0:0:0:
109,192,207842,1,0,0:0:0:0:
402,192,207938,1,0,0:0:0:0:
329,192,207938,1,0,0:0:0:0:
182,192,208034,1,0,0:0:0:0:
475,192,208034,1,0,0:0:0:0:
109,192,208131,1,0,0:0:0:0:
402,192,208131,1,0,0:0:0:0:
329,192,208227,1,0,0:0:0:0:
109,192,208323,1,0,0:0:0:0:
402,192,208323,1,0,0:0:0:0:
475,192,208419,128,0,209188:0:0:0:0:
36,192,208419,1,0,0:0:0:0:
256,192,208419,1,0,0:0:0:0:
36,192,208804,1,0,0:0:0:0:
182,192,208804,1,0,0:0:0:0:
329,192,208804,1,0,0:0:0:0:
109,192,209188,128,0,209573:0:0:0:0:
182,192,209188,128,0,209573:0:0:0:0:
475,192,209573,128,0,209765:0:0:0:0:
402,192,209766,128,0,209958:0:0:0:0:
182,192,209958,128,0,210728:0:0:0:0:
256,192,210343,1,0,0:0:0:0:
329,192,210343,1,0,0:0:0:0:
402,192,210343,1,0,0:0:0:0:
36,192,210727,128,0,211111:0:0:0:0:
475,192,210727,128,0,211111:0:0:0:0:
256,192,211112,128,0,211305:0:0:0:0:
109,192,211304,128,0,211496:0:0:0:0:
475,192,211497,128,0,212074:0:0:0:0:
36,192,211881,1,0,0:0:0:0:
182,192,211881,1,0,0:0:0:0:
329,192,211881,1,0,0:0:0:0:
329,192,212074,128,0,212266:0:0:0:0:
475,192,212266,128,0,212843:0:0:0:0:
182,192,212651,1,0,0:0:0:0:
256,192,212651,1,0,0:0:0:0:
36,192,212651,1,0,0:0:0:0:
109,192,212843,128,0,213035:0:0:0:0:
402,192,212843,128,0,213035:0:0:0:0:
36,192,213036,128,0,213998:0:0:0:0:
182,192,213036,128,0,213998:0:0:0:0:
329,192,213036,128,0,213998:0:0:0:0:
475,192,213036,128,0,213998:0:0:0:0:
36,192,214382,1,0,0:0:0:0:
475,192,214382,1,0,0:0:0:0:
402,192,214430,1,0,0:0:0:0:
109,192,214430,1,0,0:0:0:0:
182,192,214478,1,0,0:0:0:0:
329,192,214478,1,0,0:0:0:0:
256,192,214526,1,0,0:0:0:0:
36,192,214575,1,0,0:0:0:0:
475,192,214575,1,0,0:0:0:0:
