osu file format v14

[General]
AudioFilename: aozora days.mp3
AudioLeadIn: 0
PreviewTime: -1
Countdown: 1
SampleSet: Normal
StackLeniency: 0.7
Mode: 0
LetterboxInBreaks: 1
WidescreenStoryboard: 0

[Editor]
DistanceSpacing: 1.4
BeatDivisor: 4
GridSize: 4
TimelineZoom: 1.9

[Metadata]
Title:Aozora Days
TitleUnicode:アオゾラデイズ
Artist:Banshi
ArtistUnicode:ばんし
Creator:n2468txd
Version:Insane
Source:
Tags:shades of mythology aozora days banshi ginkiha
BeatmapID:668853
BeatmapSetID:298005

[Difficulty]
HPDrainRate:5
CircleSize:4
OverallDifficulty:5
ApproachRate:9
SliderMultiplier:1.4
SliderTickRate:1

[Events]
//Background and Video events
0,0,"landscapes-scenic_00293350.jpg",0,0
//Break Periods
2,66122,67784
//Storyboard Layer 0 (Background)
//Storyboard Layer 1 (Fail)
//Storyboard Layer 2 (Pass)
//Storyboard Layer 3 (Foreground)
//Storyboard Sound Samples

[TimingPoints]
692,307.692307692308,4,1,0,100,1,0

[HitObjects]
60,204,692,5,0,0:0:0:0:
176,160,845,1,0,0:0:0:0:
168,272,999,1,0,0:0:0:0:
280,208,1153,1,0,0:0:0:0:
412,308,1461,1,0,0:0:0:0:
428,164,1768,1,0,0:0:0:0:
428,152,1845,1,0,0:0:0:0:
360,80,2076,1,0,0:0:0:0:
252,56,2230,1,0,0:0:0:0:
160,56,2538,2,0,P|104:60|40:144,1,140
252,56,3153,5,0,0:0:0:0:
396,172,3307,1,0,0:0:0:0:
252,272,3461,1,0,0:0:0:0:
120,176,3615,1,0,0:0:0:0:
252,176,3922,1,0,0:0:0:0:
384,68,4230,6,0,L|328:221,1,140
288,268,4845,2,0,P|236:284|164:228,1,140
64,144,5615,5,0,0:0:0:0:
184,212,5769,1,0,0:0:0:0:
48,264,5922,1,0,0:0:0:0:
208,332,6076,1,0,0:0:0:0:
320,264,6384,1,0,0:0:0:0:
436,324,6692,1,0,0:0:0:0:
436,208,6999,2,0,L|388:136,1,70
332,64,7461,2,0,L|168:24,1,140
108,56,8076,5,0,0:0:0:0:
208,140,8230,1,0,0:0:0:0:
80,196,8538,1,0,0:0:0:0:
192,264,8845,1,0,0:0:0:0:
324,320,9153,1,0,0:0:0:0:
344,216,9615,2,0,B|492:104|404:207,1,140
176,280,10538,5,0,0:0:0:0:
252,60,10692,1,0,0:0:0:0:
332,280,10845,1,0,0:0:0:0:
148,136,10999,1,0,0:0:0:0:
352,132,11307,1,0,0:0:0:0:
448,208,11615,1,0,0:0:0:0:
392,304,11922,2,0,L|300:324,1,70
208,320,12384,2,0,L|76:276,1,140
48,96,12999,5,0,0:0:0:0:
176,128,13153,1,0,0:0:0:0:
88,212,13307,2,0,L|140:272,1,70
196,324,13768,1,0,0:0:0:0:
288,328,14076,2,0,L|452:332,1,140
452,248,14692,2,0,L|388:88,1,140
108,76,15461,5,0,0:0:0:0:
212,164,15615,1,0,0:0:0:0:
316,100,15768,2,0,L|380:164,1,70
432,228,16230,1,0,0:0:0:0:
344,312,16538,1,0,0:0:0:0:
224,272,16845,1,0,0:0:0:0:
136,200,16999,1,0,0:0:0:0:
76,80,17307,2,0,P|160:40|228:48,1,140
316,56,17922,5,0,0:0:0:0:
440,128,18076,1,0,0:0:0:0:
288,180,18384,1,0,0:0:0:0:
376,272,18692,1,0,0:0:0:0:
300,320,18999,2,0,L|216:304,1,70
144,280,19307,2,0,L|92:200,1,70
72,152,19615,2,0,L|116:72,1,70
216,48,19922,1,0,0:0:0:0:
320,96,20230,1,0,0:0:0:0:
429,93,20384,5,0,0:0:0:0:
424,200,20538,1,0,0:0:0:0:
424,320,20845,1,0,0:0:0:0:
272,324,21153,1,0,0:0:0:0:
152,264,21461,1,0,0:0:0:0:
76,168,21768,1,0,0:0:0:0:
72,40,21922,1,0,0:0:0:0:
160,48,22230,2,0,P|241:61|317:72,1,140
256,192,22692,12,0,23461,0:0:0:0:
112,160,23615,5,0,0:0:0:0:
328,92,23768,1,0,0:0:0:0:
412,132,24076,2,0,P|408:168|356:272,1,140
264,312,24692,1,0,0:0:0:0:
120,264,24999,1,0,0:0:0:0:
80,104,25153,1,0,0:0:0:0:
196,156,25307,1,0,0:0:0:0:
280,64,25461,1,0,0:0:0:0:
364,144,25615,1,0,0:0:0:0:
448,56,25769,1,0,0:0:0:0:
80,152,26384,5,0,0:0:0:0:
144,236,26538,2,0,L|288:312,1,140
384,292,27153,1,0,0:0:0:0:
368,148,27461,1,0,0:0:0:0:
252,68,27768,2,0,P|188:88|132:148,1,140
136,248,28230,1,0,0:0:0:0:
140,252,28307,1,0,0:0:0:0:
144,256,28384,2,0,P|180:284|276:288,1,140
368,264,28999,5,0,0:0:0:0:
320,88,29307,1,0,0:0:0:0:
148,148,29615,1,0,0:0:0:0:
196,308,29922,1,0,0:0:0:0:
320,240,30076,1,0,0:0:0:0:
344,108,30230,2,0,L|252:88,1,70
160,144,30538,2,0,L|100:180,1,70
56,228,31307,5,0,0:0:0:0:
128,296,31461,1,0,0:0:0:0:
224,224,31768,1,0,0:0:0:0:
308,308,32076,2,0,L|396:192,1,140
412,108,32692,2,0,L|272:40,1,140
184,56,33307,2,0,B|163:83|175:103|175:107|143:83|143:83|158:127|158:127|131:99|131:99|138:131|138:131|115:110,1,210,0|0,0:3|0:3,0:3:0:0:
72,220,33922,5,0,0:0:0:0:
172,288,34230,1,0,0:0:0:0:
232,184,34538,1,0,0:0:0:0:
328,280,34692,1,0,0:0:0:0:
420,184,34845,1,0,0:0:0:0:
352,96,34999,2,0,L|196:44,1,140
104,72,35615,2,0,P|88:148|120:216,1,140
152,280,36692,5,0,0:0:0:0:
240,336,36845,1,0,0:0:0:0:
336,272,36999,2,0,L|396:188,1,70
396,100,37461,1,0,0:0:0:0:
300,52,37768,1,0,0:0:0:0:
208,120,38076,1,0,0:0:0:0:
88,60,38384,1,0,0:0:0:0:
60,164,38538,1,0,0:0:0:0:
96,268,38692,2,0,P|136:288|176:288,1,70
240,328,39153,5,0,0:0:0:0:
336,304,39461,2,0,L|404:236,1,70
440,168,39768,5,0,0:0:0:0:
372,84,39922,1,0,0:0:0:0:
248,112,40076,2,0,L|184:164,1,70
116,220,40538,2,0,P|172:260|268:280,1,140
72,96,41461,5,0,0:0:0:0:
176,144,41615,1,0,0:0:0:0:
236,48,41768,1,0,0:0:0:0:
312,116,41922,2,0,L|340:184,1,70
428,260,42384,1,0,0:0:0:0:
316,336,42692,1,0,0:0:0:0:
204,284,42845,2,0,L|128:224,1,70
152,156,43307,6,0,L|248:156,1,70
400,152,43768,2,0,P|316:64|144:52,1,280
220,80,44999,1,0,0:0:0:0:
80,144,45153,1,0,0:0:0:0:
240,216,45307,1,0,0:0:0:0:
124,304,45461,1,0,0:0:0:0:
252,336,45615,1,0,0:0:0:0:
376,264,45922,1,0,0:0:0:0:
452,216,46230,6,0,P|440:88|284:68,1,280
252,68,47461,1,0,0:0:0:0:
128,128,47615,1,0,0:0:0:0:
260,192,47768,1,0,0:0:0:0:
156,296,47922,1,0,0:0:0:0:
344,320,48076,1,0,0:0:0:0:
356,212,48384,6,0,L|356:132,1,70
324,72,48692,5,0,0:0:0:0:
268,156,48845,1,0,0:0:0:0:
200,80,48999,1,0,0:0:0:0:
120,160,49153,1,0,0:0:0:0:
200,260,49307,1,0,0:0:0:0:
336,260,49461,1,0,0:0:0:0:
400,148,49615,2,0,L|320:92,1,70
232,92,50076,2,0,P|173:110|92:164,1,140
64,244,50692,1,0,0:0:0:0:
240,188,50999,5,0,0:0:0:0:
244,48,51153,1,0,0:0:0:0:
152,44,51307,1,0,0:0:0:0:
72,144,51461,1,0,0:0:0:0:
120,252,51615,1,0,0:0:0:0:
240,176,51768,2,0,L|332:128,1,70
412,152,52076,2,0,L|416:252,1,70
408,324,52538,6,0,L|288:244,1,140
276,84,53153,1,0,0:0:0:0:
208,156,53307,1,0,0:0:0:0:
140,116,53461,1,0,0:0:0:0:
76,172,53615,5,0,0:0:0:0:
184,272,53768,1,0,0:0:0:0:
260,136,53922,1,0,0:0:0:0:
348,256,54076,1,0,0:0:0:0:
368,136,54384,5,0,0:0:0:0:
272,272,54538,1,0,0:0:0:0:
172,184,54692,2,0,L|64:308,1,140
144,324,55307,2,0,L|252:208,1,140
280,152,55768,1,0,0:0:0:0:
408,248,55922,1,0,0:0:0:0:
304,292,56076,5,0,0:0:0:0:
212,220,56230,1,0,0:0:0:0:
128,288,56384,1,0,0:0:0:0:
304,256,56538,1,0,0:0:0:0:
212,188,56692,1,0,0:0:0:0:
128,256,56845,1,0,0:0:0:0:
212,136,56999,1,0,0:0:0:0:
208,72,57153,6,0,L|304:72,1,70
396,116,57461,1,0,0:0:0:0:
248,196,57615,1,0,0:0:0:0:
84,152,57768,1,0,0:0:0:0:
136,304,57922,1,0,0:0:0:0:
312,312,58153,2,0,L|404:236,1,105
240,336,58538,5,0,0:0:0:0:
152,300,58692,1,0,0:0:0:0:
56,224,58845,1,0,0:0:0:0:
144,156,58999,1,0,0:0:0:0:
232,244,59153,1,0,0:0:0:0:
292,144,59307,1,0,0:0:0:0:
400,244,59461,1,0,0:0:0:0:
384,156,59615,2,0,P|272:48|112:64,1,315
300,208,60999,5,0,0:0:0:0:
224,272,61153,1,0,0:0:0:0:
152,208,61307,1,0,0:0:0:0:
300,168,61461,1,0,0:0:0:0:
224,224,61615,1,0,0:0:0:0:
152,172,61769,1,0,0:0:0:0:
224,148,61922,1,0,0:0:0:0:
224,92,62076,2,0,L|224:320,1,210
64,128,63461,6,0,L|132:260,1,140
204,328,64076,2,0,L|264:280,1,70
308,228,64538,2,0,L|348:156,1,70
364,92,64999,2,0,P|261:46|40:220,1,420
60,288,68384,5,0,0:0:0:0:
164,232,68538,1,0,0:0:0:0:
256,168,68692,1,0,0:0:0:0:
344,104,68845,1,0,0:0:0:0:
432,36,69153,1,0,0:0:0:0:
428,144,69461,1,0,0:0:0:0:
336,264,69768,2,0,L|248:304,1,70
100,272,70230,1,0,0:0:0:0:
88,128,70538,1,0,0:0:0:0:
156,64,70845,5,0,0:0:0:0:
216,172,70999,1,0,0:0:0:0:
280,64,71153,1,0,0:0:0:0:
348,164,71307,1,0,0:0:0:0:
416,56,71615,1,0,0:0:0:0:
456,184,71922,2,0,P|432:272|380:320,1,140
216,316,72538,1,0,0:0:0:0:
96,216,72845,1,0,0:0:0:0:
184,284,73307,5,0,0:0:0:0:
252,56,73461,1,0,0:0:0:0:
312,292,73615,1,0,0:0:0:0:
136,152,73768,1,0,0:0:0:0:
356,148,74076,1,0,0:0:0:0:
184,284,74384,1,0,0:0:0:0:
60,184,74692,1,0,0:0:0:0:
60,184,74768,1,0,0:0:0:0:
168,56,75153,2,0,L|324:56,1,140
412,112,75768,5,0,0:0:0:0:
348,232,75922,1,0,0:0:0:0:
220,292,76230,1,0,0:0:0:0:
72,156,76538,1,0,0:0:0:0:
148,104,76768,2,0,L|228:48,1,70
284,40,77153,1,0,0:0:0:0:
376,104,77307,2,0,P|360:176|300:240,1,140
164,248,78384,5,0,0:0:0:0:
272,328,78538,1,0,0:0:0:0:
368,256,78692,1,0,0:0:0:0:
388,152,78845,1,0,0:0:0:0:
256,72,78999,1,0,0:0:0:0:
108,152,79307,1,0,0:0:0:0:
108,152,79384,1,0,0:0:0:0:
192,244,79615,2,0,L|272:276,1,70
376,240,80076,2,0,P|408:176|404:104,1,140
64,76,80845,5,0,0:0:0:0:
124,136,80999,2,0,L|224:136,1,70
248,64,81307,2,0,L|344:64,1,70
384,140,81768,1,0,0:0:0:0:
368,240,82076,1,0,0:0:0:0:
272,328,82384,1,0,0:0:0:0:
156,288,82692,1,0,0:0:0:0:
80,236,82845,2,0,P|76:196|88:144,1,70
412,92,83461,5,0,0:0:0:0:
328,180,83768,5,0,0:0:0:0:
248,128,83922,1,0,0:0:0:0:
204,208,84076,1,0,0:0:0:0:
116,176,84230,1,0,0:0:0:0:
44,240,84538,2,0,P|88:276|184:280,1,140
244,288,85153,1,0,0:0:0:0:
268,290,85229,1,0,0:0:0:0:
292,292,85306,1,0,0:0:0:0:
317,295,85383,1,0,0:0:0:0:
341,297,85460,1,0,0:0:0:0:
365,300,85537,1,0,0:0:0:0:
390,302,85614,1,0,0:0:0:0:
408,304,85692,5,0,0:0:0:0:
448,168,85922,1,0,0:0:0:0:
352,84,86230,1,0,0:0:0:0:
248,56,86384,1,0,0:0:0:0:
136,120,86692,1,0,0:0:0:0:
160,244,86999,2,0,L|248:280,1,70
360,240,87461,1,0,0:0:0:0:
373,222,87537,1,0,0:0:0:0:
384,204,87614,1,0,0:0:0:0:
393,185,87691,1,0,0:0:0:0:
398,164,87768,1,0,0:0:0:0:
144,80,87999,5,0,0:0:0:0:
144,80,88076,1,0,0:0:0:0:
144,80,88153,2,0,L|391:136,1,245
372,223,89153,1,0,0:0:0:0:
372,223,89230,1,0,0:0:0:0:
372,223,89307,2,0,L|96:160,1,280
204,316,90384,1,0,0:0:0:0:
204,316,90461,1,0,0:0:0:0:
204,316,90538,2,0,L|456:220,1,245
452,136,91461,1,0,0:0:0:0:
400,76,91615,2,0,L|264:112,1,140
208,152,92230,2,0,L|72:228,1,140
160,284,92999,5,0,0:0:0:0:
256,332,93153,1,0,0:0:0:0:
328,256,93307,1,0,0:0:0:0:
424,320,93461,1,0,0:0:0:0:
436,212,93768,1,0,0:0:0:0:
400,108,94076,2,0,L|340:84,1,35
300,64,94384,1,0,0:0:0:0:
192,56,94538,1,0,0:0:0:0:
104,112,94845,2,0,P|84:184|100:252,1,140
152,308,95461,5,0,0:0:0:0:
248,312,95615,2,0,L|324:272,1,70
392,232,95922,1,0,0:0:0:0:
397,122,96230,1,0,0:0:0:0:
304,64,96384,1,0,0:0:0:0:
304,64,96461,1,0,0:0:0:0:
304,64,96538,2,0,L|240:103,1,70
256,192,96922,12,0,97768,0:0:0:0:
120,256,97922,5,0,0:0:0:0:
264,328,98076,1,0,0:0:0:0:
320,196,98384,1,0,0:0:0:0:
172,144,98692,1,0,0:0:0:0:
272,88,98999,1,0,0:0:0:0:
372,56,99307,1,0,0:0:0:0:
444,140,99461,2,0,L|440:216,1,70
408,288,99768,1,0,0:0:0:0:
312,248,100076,5,0,0:0:0:0:
168,288,100307,1,0,0:0:0:0:
168,288,100384,1,0,0:0:0:0:
168,288,100461,1,0,0:0:0:0:
256,192,100615,12,0,103845,0:0:0:0:
