osu file format v9

[General]
AudioFilename: Bangsili - Ah! Salvia.mp3
AudioLeadIn: 2000
PreviewTime: 10363
Countdown: 0
SampleSet: Normal
StackLeniency: 0.4
Mode: 0
LetterboxInBreaks: 1

[Editor]
Bookmarks: 10476,24348,38220,52092,65964,79836,105845,121451,135323,149195,163067,176938
DistanceSpacing: 1.5
BeatDivisor: 4
GridSize: 8

[Metadata]
Title:Ah! Salvia (DJ Cheori Remix Ver.)
Artist:Bangsili
Creator:ykcarrot
Version:Insane
Source:
Tags:trot ppongjjak sarubia Shino KRZY dksslqj

[Difficulty]
HPDrainRate:7
CircleSize:4
OverallDifficulty:7
ApproachRate:7
SliderMultiplier:2
SliderTickRate:2

[Events]
//Background and Video events
0,0,"sarubia.jpg"
//Break Periods
2,93907,105812
//Storyboard Layer 0 (Background)
//Storyboard Layer 1 (Fail)
//Storyboard Layer 2 (Pass)
//Storyboard Layer 3 (Foreground)
//Storyboard Sound Samples
//Background Colour Transformations
3,100,162,162,255

[TimingPoints]
73,433.494689690051,4,1,0,60,1,0
10476,-100,4,1,0,60,0,1
15787,-100,4,2,0,60,0,1
17196,-100,4,1,0,60,0,1
24348,-100,4,1,0,60,0,0
79836,-100,4,1,0,60,0,1
85146,-100,4,2,0,60,0,1
86555,-100,4,1,0,60,0,1
93707,-100,4,1,0,60,0,0
163067,-100,4,1,0,60,0,1
168377,-100,4,2,0,60,0,1
169786,-100,4,1,0,60,0,1
174988,-100,4,1,0,60,0,0
176938,-100,4,1,0,60,0,1
182249,-100,4,2,0,60,0,1
183658,-100,4,1,0,60,0,1
191460,-100,4,1,0,60,0,0

[Colours]
Combo1 : 213,0,0
Combo2 : 75,0,151
Combo3 : 219,0,109

[HitObjects]
56,160,73,1,2
56,56,289,1,0
56,160,506,2,0,L|64:168|56:176|64:184|56:192|64:200|56:208|64:216|56:224|64:232,1,100,2|0
160,264,939,1,2
160,160,1156,1,0
160,264,1373,2,0,L|168:272|160:280|168:288|160:296|168:304|160:312|168:320|160:328|168:336,1,100,2|0
256,376,1806,6,2,B|344:376|384:296,1,150,2|0
379,304,2240,2,0,B|379:176,1,100,2|0
376,104,2673,1,10
256,16,2890,1,8
136,104,3107,2,0,L|128:112|136:120|128:128|136:136|128:144|136:152|128:160|136:168|128:176|136:184,1,100,10|0
128,272,3540,6,2,B|152:320|216:328,1,100,6|0
256,336,3866,1,0
304,328,3974,2,2,B|376:312|392:248,1,100,2|0
424,184,4407,1,6
328,72,4624,1,0
256,208,4841,1,2
184,72,5058,1,0
88,184,5274,2,0,B|-16:184|-16:360,2,200,6|0|0
88,80,6358,6,0,B|32:80|8:16,2,100,0|0|0
184,104,7008,1,4
184,104,7225,1,0
280,128,7442,1,0
280,128,7659,1,0
376,152,7875,1,0
376,152,8092,1,0
472,176,8309,1,0
472,176,8526,1,0
472,272,8742,6,0,B|408:272,3,50
376,296,9176,2,0,B|320:264,3,50,0|0|0|0
288,288,9609,2,0,B|256:224,3,50,0|0|8|0
256,192,10043,2,0,B|256:120,2,50,8|8|8
184,264,10476,6,0,B|64:264|32:128,1,200,4|8
32,48,11127,1,0
32,48,11235,1,0
32,48,11343,2,0,B|152:48,1,100
336,48,11777,2,2,B|208:48,1,100,10|2
152,232,12427,5,0
152,232,12535,1,0
152,232,12644,2,0,B|120:288|160:344,1,100,8|0
152,128,13077,2,0,B|120:72|160:16,1,100
285,180,13511,2,2,B|173:180,1,100,10|2
384,184,14161,5,0
384,184,14269,1,0
384,184,14378,2,0,B|384:296,1,100,8|0
288,288,14811,1,0
336,376,15028,1,0
432,376,15245,1,8
480,288,15462,1,0
480,192,15678,1,0
480,88,15895,5,2
480,88,16003,1,2
480,88,16112,1,2
376,88,16329,1,2
376,88,16437,1,2
376,88,16545,2,0,B|272:40|168:96,1,200,2|0
32,224,17412,6,0,B|32:352|168:352,1,200,0|8
256,352,18063,1,0
256,352,18171,1,0
256,352,18279,2,0,B|256:224,1,100
256,48,18713,2,2,B|256:168,1,100,10|2
456,112,19363,5,0
456,112,19471,1,0
456,112,19580,2,0,L|408:112|344:72,1,100,8|0
456,272,20013,2,0,L|408:272|344:312,1,100
192,192,20447,2,2,L|312:192,1,100,10|2
96,240,21097,5,0
96,240,21205,1,0
96,240,21314,2,0,B|56:184|112:120,1,100,8|0
160,72,21747,1,0
256,40,21964,1,0
352,72,22181,1,8
416,144,22397,1,0
416,248,22614,5,0
392,280,22723,1,0
360,304,22831,1,0
328,328,22939,1,0
288,344,23048,1,0
248,352,23156,1,0
208,352,23264,1,0
168,344,23373,1,0
136,328,23481,1,2
256,40,23915,1,2
40,248,24348,1,4
336,192,24998,5,0
440,192,25215,2,0,B|440:256|376:288,1,100
296,296,25649,2,0,B|312:352|368:368,2,100,0|0|0
256,208,26299,2,0,B|256:152|312:120,1,100,2|0
200,120,26732,2,0,B|224:64|304:56,1,100,2|0
376,56,27166,1,0
376,56,27383,2,2,B|496:56,2,100,2|0|2
272,56,28033,5,0
176,72,28250,1,0
112,152,28466,1,0
112,256,28683,2,0,B|120:320|184:352,1,100,0|8
256,376,29117,1,8
256,376,29333,2,2,B|256:160,1,200,6|0
208,88,29984,2,0,B|264:48|328:104,2,100,2|0|2
256,176,30634,5,0
256,200,30742,1,0
256,224,30851,1,0
256,248,30959,1,0
256,272,31067,1,0
256,296,31176,1,0
256,320,31284,1,0
456,320,31718,5,0
456,320,31934,2,2,B|344:288|344:152,1,200,2|0
344,72,32585,2,2,B|224:72|192:184,1,200,2|2
160,272,33235,1,0
96,344,33452,1,0
32,272,33668,1,0
32,168,33885,2,0,B|80:72|200:72,1,200,0|0
296,72,34535,6,2,B|336:144|256:200|312:280,1,200,6|0
368,344,35186,2,0,B|416:312|400:248,2,100,2|0|0
272,360,35836,2,0,B|208:352|200:264,2,100,2|0|2
368,344,36486,5,0
405,330,36594,1,0
438,308,36703,1,0
457,273,36811,1,0
462,233,36920,1,0
464,193,37028,1,0
460,153,37136,1,0
451,113,37245,1,0
430,78,37353,1,0
399,51,37461,1,0
360,39,37570,1,0
320,43,37678,1,0
282,57,37787,1,0
261,90,37895,1,0
265,129,38003,1,0
291,158,38112,1,0
329,169,38220,1,4
128,352,38870,6,2,B|32:320|32:192,1,200,2|0
32,193,39521,1,2
480,192,40171,1,2
224,40,40604,1,2
224,344,41038,1,2
224,344,41254,2,2,B|280:256|168:224|240:128,1,200,0|2
392,40,42121,6,0,B|488:40|488:144,2,150,0|0|0
392,240,43205,2,2,B|384:312|240:312|240:232,1,200,2|0
240,144,43855,2,2,B|232:72|88:72|88:152,1,200,2|2
88,240,44506,1,0
88,336,44722,5,2
104,336,44831,1,0
120,336,44939,1,0
136,336,45048,1,0
152,336,45156,2,0,B|264:336,1,100
352,336,45589,2,0,B|400:312|400:256,1,100,2|0
480,312,46023,2,0,B|496:256|448:200,1,100,0|0
392,144,46456,2,2,B|296:216|192:136,1,200,2|2
144,64,47107,2,0,B|88:88|104:160,2,100,0|0|0
248,64,47757,2,2,B|368:72|368:272|232:272,1,300,2|2
247,271,48624,1,0
144,272,48841,5,2
56,216,49057,1,0
56,120,49274,1,2
144,64,49491,1,0
144,168,49708,2,2,B|272:168,2,100,2|0|2
344,168,50575,2,0,B|472:168,2,100,2|0|2
240,168,51225,1,0
240,168,51333,1,0
240,168,51442,1,0
240,168,51550,1,0
240,168,51658,1,0
240,272,51875,5,0
240,272,51983,1,0
240,272,52092,1,4
296,352,52309,1,0
392,352,52525,1,0
448,272,52742,1,0
344,272,52959,2,2,B|344:56,1,200,2|0
344,72,53609,1,2
144,72,54043,5,0
144,72,54151,1,0
144,72,54259,1,0
144,72,54368,1,0
144,72,54476,1,0
144,72,54584,1,0
144,72,54693,1,8
448,328,55126,5,12
448,128,55560,5,0
392,48,55777,1,0
296,48,55993,1,0
240,128,56210,1,0
344,128,56427,2,2,B|344:344,1,200,2|0
344,328,57077,1,2
144,328,57511,5,0
144,328,57619,1,0
144,328,57727,1,0
144,328,57836,1,0
144,328,57944,1,0
144,328,58052,1,0
144,328,58161,1,8
448,64,58594,5,12
248,64,59028,5,0
192,144,59245,1,0
136,64,59461,1,2
80,144,59678,1,0
24,64,59895,1,0
24,64,60112,1,2
192,304,60545,5,4
192,304,60979,1,0
288,336,61195,1,0
384,296,61412,1,0
448,224,61629,2,2,B|448:104|336:56,1,200,2|0
344,168,62279,2,2,B|280:264|160:224,1,200,6|0
72,200,62929,2,0,B|40:144|80:96,1,100,2|0
152,40,63363,6,0,B|96:40,2,50,0|0|0
256,40,63796,1,2
360,40,64013,2,0,B|424:40,2,50,0|0|0
256,40,64446,2,0,B|256:144,1,100,0|2
256,240,64880,1,0
256,240,64988,1,0
256,240,65097,5,0
256,280,65205,1,0
248,320,65313,1,0
208,336,65422,1,0
168,344,65530,1,0
128,336,65639,1,0
88,320,65747,1,0
80,280,65855,1,0
80,240,65964,6,0,B|88:96|256:96|256:264,3,300,4|0|0|2
256,336,68131,2,0,B|136:336,2,100,0|2|0
360,336,68781,6,2,B|480:336|480:184,1,200
416,128,69432,1,0
320,96,69648,2,0,B|320:24|400:16,2,100,0|2|0
320,200,70299,2,0,B|320:272|240:280,1,100,0|2
168,272,70732,1,0
168,272,70949,2,2,B|40:272|28:120,1,200,2|0
32,56,71599,6,0,B|144:56,1,100,2|0
272,104,72033,2,0,B|160:104,1,100,2|0
32,152,72466,2,0,B|160:152,1,100,2|0
200,224,72900,6,0,B|200:352|352:352,2,200,0|2|0
200,120,73983,1,0
120,64,74200,2,0,B|72:32|8:32,2,100,2|0|2
456,280,75067,1,4
456,280,75501,5,0
456,176,75717,1,0
456,176,75826,1,0
456,176,75934,1,0
456,72,76151,1,0
456,72,76368,1,4
360,80,76584,5,0
382,113,76693,1,0
388,153,76801,1,0
365,187,76909,1,0
331,210,77018,1,0
292,204,77126,1,0
258,181,77235,1,0
256,80,77451,1,0
222,57,77560,1,0
182,51,77668,1,0
148,74,77776,1,0
125,108,77885,1,0
131,147,77993,1,0
154,181,78102,5,0
176,216,78210,1,0
200,248,78318,1,0
224,280,78427,1,0
248,312,78535,1,0
280,336,78643,1,0
320,352,78752,1,0
360,360,78860,1,0
400,352,78969,1,0
416,320,79077,1,0
416,280,79185,1,0
416,240,79294,1,0
416,200,79402,1,0
416,160,79510,1,0
416,120,79619,1,0
416,80,79727,1,0
416,40,79836,6,0,B|320:-16|208:48,1,200,4|8
136,88,80486,1,0
136,88,80594,1,0
136,88,80703,2,0,B|80:104|80:168,1,100
184,336,81136,2,2,B|240:320|240:256,1,100,10|2
48,192,81786,5,0
48,192,81895,1,0
48,192,82003,2,0,B|160:192,1,100,8|0
328,280,82436,2,0,B|272:312|216:272,1,100
328,104,82870,2,2,B|272:72|216:112,1,100,10|2
416,192,83520,5,0
416,192,83629,1,0
416,192,83737,2,0,B|296:192,1,100,8|0
312,296,84170,1,0
224,240,84387,1,0
224,144,84604,1,8
312,88,84821,1,0
408,88,85037,1,0
472,160,85254,5,2
472,160,85363,1,2
472,160,85471,1,2
456,256,85688,1,2
456,256,85796,1,2
456,256,85904,2,0,B|400:328|272:328,1,200,2|0
80,280,86771,6,0,B|32:176|88:72,1,200,0|8
176,48,87422,1,0
176,48,87530,1,0
176,48,87638,2,0,B|240:48|256:112,1,100
328,288,88072,2,2,B|264:288|248:224,1,100,10|2
424,136,88722,5,0
424,136,88831,1,0
424,136,88939,2,0,B|304:136,1,100,8|0
136,208,89372,2,0,L|176:248|240:248,1,100
136,64,89806,2,2,L|176:24|240:24,1,100,10|2
56,136,90456,5,0
56,136,90565,1,0
56,136,90673,2,0,B|24:184|64:248,1,100,8|0
104,320,91106,1,0
192,360,91323,1,0
296,360,91540,1,8
384,320,91757,2,0,B|440:304|440:216,1,100
440,144,92190,5,8
440,144,92407,1,8
256,296,92840,1,8
256,296,92949,1,8
256,296,93057,1,8
160,224,93274,1,8
160,224,93491,1,8
72,144,93707,1,4
256,48,106712,5,2
256,248,107146,1,2
256,344,107362,1,0
256,344,107471,1,0
256,344,107579,1,4
448,112,108229,5,0
448,216,108446,2,0,B|352:288|248:208,1,200,0|0
248,120,109096,2,0,B|184:120|168:192,1,100
72,176,109530,2,0,B|96:304|240:264,2,200,2|2|0
72,72,110614,2,2,B|176:16|280:80,1,200,2|2
352,112,111264,5,0
424,184,111481,1,0
496,112,111697,1,0
424,40,111914,2,0,B|304:40,1,100,0|8
224,40,112348,1,8
224,40,112564,2,2,B|224:256,1,200,6|0
224,344,113215,2,0,B|160:344|128:280,2,100,2|0|2
328,344,113865,5,0
352,344,113973,1,0
376,344,114082,1,0
400,344,114190,1,0
424,344,114298,1,0
448,344,114407,1,0
472,344,114515,1,0
472,144,114949,5,0
472,144,115165,2,2,B|360:144|296:32,1,200,2|0
208,48,115816,2,2,B|136:152|16:144,1,200
40,248,116466,1,0
96,328,116683,1,0
192,328,116899,1,0
256,248,117116,2,0,B|256:128,1,100
256,48,117550,5,0
256,48,117766,2,2,B|368:48|408:176,1,200,6|0
416,264,118417,2,0,L|472:264|512:224,1,100,2|0
424,272,118850,1,0
424,272,119067,1,2
424,272,119284,2,0,L|368:272|328:312,1,100,0|2
264,368,119717,5,0
224,364,119825,1,0
185,353,119934,1,0
151,333,120042,1,0
119,308,120151,1,0
93,278,120259,1,0
76,242,120367,1,0
60,205,120476,1,0
54,166,120584,1,0
55,126,120692,1,0
64,86,120801,1,0
90,56,120909,1,0
126,39,121018,1,0
165,36,121126,1,0
202,49,121234,1,0
224,82,121343,1,0
218,121,121451,1,4
400,360,122101,6,2,B|488:320|488:192,1,200,2|0
487,193,122751,1,2
40,192,123402,1,2
296,344,123835,1,2
296,40,124269,1,2
296,40,124485,2,2,B|240:104|352:160|272:256,1,200,0|2
136,360,125352,6,0,B|48:360|16:272,2,150
336,360,126436,2,2,B|408:352|408:208|320:208,1,200,2|0
232,208,127086,2,2,B|160:200|160:56|248:56,1,200
336,56,127737,1,0
432,56,127953,5,2
432,72,128062,1,0
432,88,128170,1,0
432,104,128279,1,0
432,120,128387,2,0,B|432:232,1,100
432,320,128820,2,0,B|368:320|344:248,1,100,2|0
280,336,129254,2,0,B|240:296|240:216,1,100
224,144,129687,2,2,B|120:80|24:152,2,200,2|0|2
312,192,130771,2,0,B|296:248|224:248,1,100
136,248,131205,2,2,B|136:120|272:120,1,200
360,120,131855,1,0
360,224,132072,6,2,L|408:224|464:192,2,100,2|0|2
256,224,132722,1,0
152,224,132939,1,2
256,224,133155,1,0
152,224,133372,1,2
256,48,133806,2,0,L|304:48|360:80,2,100,2|0|2
152,48,134456,1,0
56,88,134673,1,0
56,88,134781,1,0
56,88,134889,1,0
56,192,135106,5,0
56,192,135214,1,0
56,192,135323,1,4
144,240,135540,2,0,B|176:192|136:128,2,100
56,192,136190,2,2,B|272:192,1,200,2|0
256,192,136840,1,2
256,192,137274,12,8,137924
256,192,138357,5,12
456,192,138791,5,0
368,144,139008,2,0,B|336:192|376:256,2,100
456,192,139658,2,2,B|240:192,1,200,2|0
256,192,140308,1,2
256,192,140742,12,8,141392
256,192,141825,5,12
96,320,142259,5,0
16,256,142476,1,0
96,192,142692,1,2
16,128,142909,1,0
96,64,143126,1,0
96,64,143342,1,2
360,192,143776,5,4
360,192,144209,1,0
464,192,144426,1,0
440,96,144643,1,0
368,32,144860,2,2,B|248:32|168:128,1,200,2|0
136,192,145510,2,2,B|144:384|360:384|360:176,1,400,6|2
360,88,146594,5,0
360,88,146702,1,0
360,88,146810,2,0,B|232:88,1,100,0|2
256,192,147244,1,0
256,192,147352,1,0
256,192,147461,2,0,B|24:192,1,200,0|2
56,296,148111,1,0
56,296,148219,1,0
56,296,148328,5,0
88,320,148436,1,0
128,336,148544,1,0
168,344,148653,1,0
208,344,148761,1,0
248,336,148870,1,0
288,320,148978,1,0
320,296,149086,1,0
352,272,149195,6,0,B|408:240|408:128|352:96,2,200,4|0|0
304,184,150278,1,0
216,136,150495,2,2,B|184:80|72:80|40:136,1,200,2|0
40,232,151145,2,2,B|72:288|184:288|216:232,1,200,2|2
304,184,151796,1,0
376,112,152012,6,2,B|496:112|496:264,1,200
496,344,152663,1,0
408,296,152879,2,2,B|304:240|200:304,1,200,2|2
128,344,153530,2,0,B|80:320|80:248,1,100,0|2
80,160,153963,1,0
80,160,154180,2,2,B|296:160,1,200,2|0
384,160,154830,6,0,L|440:160|496:120,1,100,2|0
344,224,155264,2,0,L|316:272|322:340,1,100,2|0
312,160,155697,2,0,L|284:111|221:83,1,100,2|0
152,48,156131,6,0,B|40:80|40:208,2,200,0|2|0
256,48,157214,2,0,B|384:48,2,100,0|2|0
152,48,157865,1,2
440,320,158298,1,4
440,320,158732,5,0
336,320,158948,1,0
336,320,159057,1,0
336,320,159165,1,0
232,320,159382,1,0
232,320,159599,1,4
128,320,159815,5,0
88,304,159924,1,0
64,272,160032,1,0
56,232,160140,1,0
64,192,160249,1,0
88,160,160357,1,0
128,144,160466,1,0
224,144,160682,1,0
240,184,160791,1,0
272,208,160899,1,0
312,216,161007,1,0
352,208,161116,1,0
384,184,161224,1,0
400,144,161333,5,0
424,112,161441,1,0
464,112,161549,1,0
488,144,161658,1,0
488,184,161766,1,0
488,224,161874,1,0
488,264,161983,1,0
488,304,162091,1,0
464,336,162200,1,0
424,336,162308,1,0
392,312,162416,1,0
360,288,162525,1,0
328,264,162633,1,0
296,240,162741,1,0
264,216,162850,1,0
232,192,162958,1,0
200,168,163067,6,0,B|104:96|16:168,1,200,4|8
16,264,163717,1,0
16,264,163825,1,0
16,264,163933,2,0,B|72:264|104:208,1,100
240,72,164367,2,2,B|184:72|152:128,1,100,10|2
152,320,165017,5,0
152,320,165126,1,0
152,320,165234,2,0,L|200:320|264:288,1,100,8|0
448,320,165667,2,0,L|400:320|336:288,1,100
300,102,166101,2,2,B|300:222,1,100,10|2
400,32,166751,5,0
400,32,166860,1,0
400,32,166968,2,0,L|280:32,1,100,8|0
200,32,167401,1,0
104,72,167618,1,0
200,112,167835,1,8
104,152,168052,1,0
200,192,168268,1,0
104,240,168485,5,2
104,240,168594,1,2
104,240,168702,1,2
200,280,168919,1,2
200,280,169027,1,2
200,280,169135,2,0,B|296:320|400:280,1,200,2|0
472,96,170002,6,0,B|544:104|544:248|456:248,1,200,0|8
408,168,170653,1,0
408,168,170761,1,0
408,168,170869,2,0,B|288:168,1,100
104,168,171303,2,2,B|232:168,1,100,10|2
256,360,171953,5,0
256,360,172062,1,0
256,360,172170,2,0,B|256:240,1,100,8|0
152,88,172603,2,0,B|120:144|168:208,1,100
360,184,173037,2,2,B|392:128|344:64,1,100,10|2
256,264,173687,5,0
256,264,173795,1,0
256,264,173904,2,0,B|256:152,1,100,8|0
152,160,174337,1,0
208,80,174554,1,0
304,80,174771,1,8
360,160,174988,1,0
360,264,175204,5,2
360,264,175313,1,0
360,264,175421,2,0,L|400:296|448:296,2,100,0|2|0
288,192,176071,1,8
288,192,176180,1,8
288,192,176288,2,0,L|248:160|200:160,2,100,8|8|8
360,264,176938,6,0,B|480:264|480:136,1,200,4|8
480,40,177589,1,0
480,40,177697,1,0
480,40,177805,2,0,L|424:40|368:72,1,100
200,144,178239,2,2,L|256:144|312:112,1,100,10|2
392,296,178889,5,0
392,296,178997,1,0
392,296,179106,2,0,B|368:240|312:232,1,100,8|0
272,40,179539,2,0,B|235:88|256:141,1,100
104,264,179973,2,2,B|164:271|199:226,1,100,10|2
360,120,180623,5,0
360,120,180731,1,0
360,120,180840,2,0,B|360:240,1,100,8|0
411,305,181273,2,0,B|467:289|467:209,2,100,0|0|8
310,305,181924,2,0,B|254:289|254:209,1,100
232,128,182357,5,2
232,128,182465,1,2
232,128,182574,1,2
176,48,182791,1,2
176,48,182899,1,2
176,48,183007,2,0,B|48:48|48:192,1,200,2|0
176,328,183874,6,0,B|304:328|304:184,1,200,0|8
304,104,184524,1,0
304,104,184633,1,0
304,104,184741,2,0,B|336:56|400:56,1,100
216,160,185175,2,2,B|184:208|120:208,1,100,10|2
256,48,185825,5,0
256,48,185933,1,0
256,48,186042,2,0,B|256:176,1,100,8|0
112,288,186475,2,0,L|152:248|208:248,1,100
400,288,186909,2,2,L|360:248|304:248,1,100,10|2
156,125,187559,5,0
156,125,187667,1,0
156,125,187776,2,0,B|268:125,1,100,8|0
312,40,188209,2,0,B|360:72|360:128,1,100
448,72,188643,2,0,B|488:128|432:184,1,100,8|0
392,248,189076,6,2,B|304:312|192:240,1,200,2|8
120,200,189726,1,0
120,200,189835,1,0
120,200,189943,2,0,B|120:144,2,50,8|8|8
152,296,190377,1,8
152,296,190593,1,8
256,296,190810,5,2
256,176,191027,1,2
256,176,191135,1,2
256,176,191244,1,2
256,56,191460,1,6
