osu file format v9

[General]
AudioFilename: Yeah Yeah Yeah (Nightcore Mix) ztrot.mp3
AudioLeadIn: 0
PreviewTime: 43164
Countdown: 0
SampleSet: Soft
StackLeniency: 0.7
Mode: 0
LetterboxInBreaks: 0
EpilepsyWarning: 1

[Editor]
DistanceSpacing: 0.8
BeatDivisor: 2
GridSize: 8

[Metadata]
Title:Yeah Yeah Yeah! (Nightcore Mix)
Artist:Bangbros
Creator:ztrot
Version:Yeah!
Source:
Tags:Hardcore Vi va la Bang

[Difficulty]
HPDrainRate:2
CircleSize:3
OverallDifficulty:2
ApproachRate:3
SliderMultiplier:1.3
SliderTickRate:2

[Events]
//Background and Video events
0,0,"BG1.jpg"
//Break Periods
2,66860,77246
2,102583,107233
//Storyboard Layer 0 (Background)
//Storyboard Layer 1 (Fail)
//Storyboard Layer 2 (Pass)
//Storyboard Layer 3 (Foreground)
//Storyboard Sound Samples
//Background Colour Transformations
3,100,163,162,255

[TimingPoints]
256,370.027752081406,4,2,1,85,1,0
108674,370.027752081406,4,2,1,85,1,0
149269,-100,4,2,1,10,0,0
150009,-100,4,2,1,85,0,0

[HitObjects]
200,56,7656,2,0,B|119:56|119:136,1,130,2|0
120,240,8396,2,0,B|120:320|200:320,1,130,2|0
312,320,9136,2,0,B|392:319|392:239,1,130,2|0
392,136,9876,1,0
256,296,10616,6,0,B|200:344|128:312,1,130,2|0
184,224,11356,2,0,B|224:160|304:192,1,130,2|0
360,272,12096,2,0,B|440:288|464:208,1,130,2|0
464,112,12836,1,0
256,80,13576,5,2
152,80,13947,1,0
72,144,14317,1,2
72,248,14687,1,0
152,320,15057,1,2
232,248,15427,1,0
232,144,15797,1,0
256,352,16537,5,2
256,352,16907,1,0
360,352,17277,1,2
360,352,17647,1,0
256,168,18387,5,0
256,168,18757,1,0
88,48,19497,5,2
88,152,19867,1,0
88,256,20237,1,2
256,376,20977,5,2
256,272,21347,1,0
256,168,21717,2,0,B|216:104|296:104|256:48,1,130,2|0
360,72,22457,5,2
360,72,22827,1,0
408,168,23197,1,2
408,168,23567,1,0
408,272,23937,2,0,B|336:288|320:368,2,130,2|0|2
256,128,25417,5,2
256,232,25787,1,0
168,184,26157,2,0,B|96:200|80:280,1,130,2|0
152,352,26897,5,2
256,352,27268,1,0
360,352,27638,2,0,B|440:352|440:272,1,130,2|0
344,240,28378,2,0,B|216:240,1,130,2|0
152,160,29118,2,0,B|288:160,1,130,2|0
352,88,29858,1,4
32,352,31338,6,0,B|80:304|168:320,1,130,0|8
256,320,32078,1,0
359,317,32448,2,0,B|432:304|480:352,1,130,8|0
480,248,33188,1,8
480,144,33558,1,0
312,24,34298,5,0
256,112,34668,1,8
200,24,35038,2,0,B|128:40|112:112,1,130,0|8
112,216,35778,1,0
168,304,36148,1,8
256,248,36518,2,0,B|320:272|344:344,1,130,0|8
424,272,37258,5,0
424,168,37628,1,8
352,88,37998,2,0,B|272:96|272:184,1,130,0|8
168,152,38738,5,0
72,200,39108,1,8
112,296,39478,2,0,B|176:272|240:312,1,130,0|8
336,336,40218,5,0
424,280,40589,1,8
424,168,40959,1,0
336,120,41329,1,8
336,224,41699,1,4
48,88,43179,5,0
48,192,43549,1,8
48,296,43919,1,0
136,248,44289,1,2
240,248,44659,5,4
240,248,45029,1,4
240,248,45399,1,4
464,88,46139,5,2
464,192,46509,1,8
464,296,46879,1,2
376,248,47249,1,8
272,248,47619,5,4
272,248,47989,1,4
272,248,48359,1,4
200,48,49099,6,0,B|200:176,1,130,2|8
312,176,49839,2,0,B|312:48,1,130,2|8
392,112,50579,5,4
392,112,50949,1,4
392,112,51319,1,4
256,264,52059,5,2
464,264,52799,1,2
256,264,53539,1,2
56,48,55020,5,2
56,152,55390,1,8
144,104,55760,1,0
144,208,56130,1,2
256,232,56500,5,4
256,232,56870,1,4
256,232,57240,1,4
456,48,57980,5,2
456,152,58350,1,8
368,104,58720,1,2
368,208,59090,1,8
256,232,59460,5,4
256,232,59830,1,4
256,232,60200,1,4
256,24,60940,6,0,B|160:112,1,130,2|8
256,24,61680,2,0,B|352:112,1,130,2|8
256,168,62420,5,4
256,168,62790,1,4
256,168,63160,1,4
256,376,63900,6,0,B|208:312|304:312|248:248,2,130,2|0|2
256,168,65380,5,4
256,64,66120,1,0
104,24,78701,6,0,B|40:72|48:152,1,130,0|8
48,240,79441,2,2,B|112:288|104:368,1,130,0|2
208,304,80181,2,0,B|144:256|152:176,1,130,0|8
232,152,80922,2,0,B|296:200|288:280,1,130,0|2
392,216,81662,6,0,B|328:168|336:88,1,130,0|8
256,40,82402,1,0
152,40,82772,1,2
72,104,83142,2,0,B|24:168|64:240,1,130,0|8
104,320,83882,5,0
104,320,84067,1,0
104,320,84252,1,0
208,344,84622,6,0,B|336:344,1,130,0|8
336,240,85362,2,0,B|200:240,1,130,0|2
256,144,86102,2,0,B|400:144,1,130,0|8
440,232,86842,2,0,B|440:304|360:352,1,130,0|2
272,344,87582,6,0,B|200:344|160:272,1,130,0|8
64,272,88322,2,0,B|64:136,1,130,0|2
160,96,89062,2,0,B|194:32|266:32,1,130,0|2
256,136,89802,2,0,B|312:200,3,65
352,192,90542,6,0,B|392:256|352:336,1,130,0|8
256,328,91282,2,0,B|184:352|136:288,1,130,0|2
40,280,92022,2,0,B|8:208|64:152,1,130,0|8
120,80,92762,5,2
120,80,92947,1,0
120,80,93132,1,2
224,80,93502,6,0,B|352:80,1,130,0|8
288,168,94243,2,0,B|288:296,1,130,0|2
184,296,94983,1,0
80,296,95353,1,8
80,192,95723,6,0,B|40:184|8:224,4,65,2|0|2|0|2
80,88,96833,1,8
184,88,97203,1,0
184,88,97573,1,2
256,160,97943,5,0
256,264,98313,1,8
344,320,98683,1,0
344,320,99053,1,2
256,368,99423,5,0
360,192,100163,1,0
152,192,100903,1,0
256,168,101273,5,4
256,64,101643,1,0
256,64,102013,1,0
256,168,102383,1,4
256,40,108673,6,0,B|256:104|344:128,1,130,2|8
424,192,109413,1,2
424,192,109783,1,8
408,296,110153,2,0,B|360:352|280:336,1,130,2|8
320,240,110893,1,2
320,240,111263,1,8
291,338,111633,2,0,B|227:362|171:306,1,130,2|8
112,224,112373,1,2
112,224,112743,1,8
56,136,113113,1,0
480,32,114593,6,0,B|432:80|344:64,1,130,2|8
256,64,115333,1,2
153,67,115703,2,0,B|80:80|32:32,1,130,8|2
32,136,116443,1,8
32,240,116813,1,0
200,360,117553,5,2
256,272,117923,1,8
312,360,118293,2,0,B|384:344|400:272,1,130,2|8
400,168,119033,1,2
344,80,119403,1,8
256,136,119773,2,0,B|192:112|168:40,1,130,2|8
88,112,120513,5,2
88,216,120883,1,8
160,296,121253,2,0,B|240:288|240:200,1,130,2|8
344,232,121993,5,2
440,184,122364,1,8
400,88,122734,2,0,B|336:112|272:72,1,130,2|8
176,48,123474,5,2
88,104,123844,1,10
88,216,124214,1,0
176,264,124584,1,8
176,160,124954,5,2
256,104,125324,1,2
336,160,125694,1,2
336,160,125879,1,0
336,160,126064,1,2
392,248,126434,5,8
480,192,126804,1,2
448,88,127174,1,8
344,88,127544,1,2
256,144,127914,5,2
256,248,128284,1,0
256,352,128654,1,2
48,296,129394,5,8
48,192,129764,1,2
64,88,130134,1,8
168,88,130504,1,8
256,144,130874,5,0
256,248,131244,1,0
256,352,131614,1,0
312,48,132354,6,0,B|312:176,1,130,2|8
200,176,133094,2,0,B|200:48,1,130,2|8
120,112,133834,5,2
120,112,134204,1,0
120,112,134574,1,2
256,264,135314,5,4
48,264,136055,1,2
256,264,136795,1,0
456,336,138275,5,4
456,232,138645,1,8
368,280,139015,1,2
368,176,139385,1,8
256,152,139755,5,6
256,152,140125,1,6
256,152,140495,1,6
56,48,141235,5,2
56,152,141605,1,8
144,104,141975,1,2
144,208,142345,1,8
256,232,142715,5,6
256,232,143085,1,6
256,232,143455,1,6
256,360,144195,6,0,B|352:272,1,130,2|8
256,360,144935,2,0,B|160:272,1,130,2|8
256,216,145675,5,6
256,216,146045,1,6
256,216,146415,1,6
256,8,147155,6,0,B|304:72|208:72|264:136,2,130,2|0|2
256,168,148450,1,0
256,168,148821,1,0
256,296,149377,6,0,B|256:336,6,32.5
176,312,150116,6,0,B|72:352|8:240|88:152,2,260,8|8|8
160,208,151966,1,0
256,256,152336,1,8
256,48,153076,6,8,B|360:8|424:120|344:208,2,260,8|8|8
256,152,154926,1,0
168,200,155296,1,8
256,368,156036,5,4
96,240,156776,1,8
256,104,157516,5,8
360,104,157886,1,0
416,192,158256,1,8
256,328,158996,5,8
152,328,159366,1,0
80,248,159736,1,8
80,248,160106,1,0
80,144,160476,5,0
152,64,160846,1,0
256,64,161216,1,0
256,64,161586,1,0
360,64,161956,1,4
