osu file format v9

[General]
AudioFilename: bangbros_-_yeah_yeah_yeah_nightcore_mix_(zaycev.net).mp3
AudioLeadIn: 0
PreviewTime: 19495
Countdown: 0
SampleSet: Soft
StackLeniency: 0.7
Mode: 0
LetterboxInBreaks: 1

[Editor]
DistanceSpacing: 1.1
BeatDivisor: 4
GridSize: 8

[Metadata]
Title:Yeah Yeah Yeah! (Nightcore Mix)
Artist:Bangbros
Creator:tiper
Version:Insane
Source:
Tags:Natsume

[Difficulty]
HPDrainRate:7
CircleSize:4
OverallDifficulty:7
ApproachRate:8
SliderMultiplier:1.7
SliderTickRate:1

[Events]
//Background and Video events
0,0,"12.png"
//Break Periods
//Storyboard Layer 0 (Background)
//Storyboard Layer 1 (Fail)
//Storyboard Layer 2 (Pass)
//Storyboard Layer 3 (Foreground)
//Storyboard Sound Samples
//Background Colour Transformations
3,100,163,162,255

[TimingPoints]
7686,369.979999999999,4,2,0,70,1,0
19525,-80,4,2,0,80,0,0
31272,-80,4,1,0,80,0,0
32289,-80,4,2,0,80,0,0
41724,-80,4,1,0,80,0,0
43204,-80,4,1,0,80,0,1
43296,-80,4,2,0,80,0,1
43574,-80,4,1,0,80,0,1
43666,-80,4,2,0,80,0,1
43944,-80,4,1,0,80,0,1
44036,-80,4,2,0,80,0,1
44314,-80,4,1,0,80,0,1
44406,-80,4,2,0,80,0,1
44683,-80,4,1,0,80,0,1
45516,-80,4,2,0,80,0,1
45701,-80,4,1,0,80,0,1
46348,-80,4,2,0,80,0,1
46533,-80,4,1,0,80,0,1
46718,-80,4,2,0,80,0,1
46903,-80,4,1,0,80,0,1
47088,-80,4,2,0,80,0,1
47273,-80,4,1,0,80,0,1
47458,-80,4,2,0,80,0,1
47551,-80,4,1,0,80,0,1
48661,-80,4,2,0,80,0,1
48846,-80,4,1,0,80,0,1
49216,-80,4,2,0,80,0,1
49401,-80,4,1,0,80,0,1
49586,-80,4,2,0,80,0,1
49771,-80,4,1,0,80,0,1
51436,-80,4,2,0,80,0,1
51621,-80,4,1,0,80,0,1
52916,-80,4,2,0,80,0,1
53101,-80,4,1,0,80,0,1
53286,-80,4,2,0,80,0,1
53471,-80,4,1,0,80,0,1
54858,-80,4,2,0,80,0,1
55043,-80,4,1,0,80,0,1
55135,-80,4,2,0,80,0,1
55320,-80,4,1,0,80,0,1
55505,-80,4,2,0,80,0,1
55690,-80,4,1,0,80,0,1
55875,-80,4,2,0,80,0,1
56060,-80,4,1,0,80,0,1
56245,-80,4,2,0,80,0,1
56430,-80,4,1,0,80,0,1
57355,-80,4,2,0,80,0,1
57540,-80,4,1,0,80,0,1
57910,-80,4,2,0,80,0,1
58095,-80,4,1,0,80,0,1
58280,-80,4,2,0,80,0,1
58465,-80,4,1,0,80,0,1
58650,-80,4,2,0,80,0,1
58835,-80,4,1,0,80,0,1
59020,-80,4,2,0,80,0,1
59205,-80,4,1,0,80,0,1
60500,-80,4,2,0,80,0,1
60685,-80,4,1,0,80,0,1
61055,-80,4,2,0,80,0,1
61240,-80,4,1,0,80,0,1
61425,-80,4,2,0,80,0,1
61610,-80,4,1,0,80,0,1
62443,-80,4,1,0,40,0,1
63922,-80,4,1,0,40,0,0
64755,-80,4,2,0,40,0,0
64940,-80,4,1,0,40,0,0
65125,-80,4,2,0,40,0,0
65310,-80,4,1,0,40,0,0
65495,-80,4,2,0,40,0,0

[Colours]
Combo1 : 114,221,248
Combo2 : 254,92,80
Combo3 : 244,189,85

[HitObjects]
64,48,7686,2,0,B|112:48|144:72,1,85,0|2
232,128,8055,1,0
336,128,8240,1,2
176,192,8425,5,0
280,64,8610,1,2
392,192,8795,1,0
280,64,8980,1,2
256,216,9165,1,0
176,192,9350,6,0,B|136:104,1,85,2|0
192,48,9720,2,0,B|232:128,1,85
432,40,10645,6,0,B|456:80|432:120,1,85,0|2
336,80,11015,2,0,B|304:120|328:160,1,85,0|2
400,232,11385,2,0,B|360:264|320:232,1,85,0|2
200,112,11755,5,0
72,224,11940,1,2
240,200,12125,1,0
160,264,12310,1,2
136,168,12495,1,0
256,288,12680,5,2
360,288,12865,2,4,B|408:296|448:272,1,85,0|0
56,320,13605,5,0
224,320,13790,1,2
176,232,13975,2,0,B|136:256|96:232,1,85,0|2
96,152,14345,2,0,B|136:128|176:152,1,85,0|2
272,192,14715,5,0
352,344,14900,1,2
368,200,15085,1,0
416,280,15270,1,2
312,272,15455,2,0,B|208:272,1,85,0|2
152,344,15825,2,4,B|56:344,1,85,0|2
200,96,16565,6,0,B|168:136|200:176,1,85,0|2
160,248,16935,2,0,B|200:272|248:256,1,85,0|2
336,208,17305,1,0
448,80,17490,1,2
336,208,17675,1,0
448,336,17860,1,2
376,288,19525,6,0,B|272:352|176:288,2,212.499996833503,0|8|0
472,216,20450,1,0
464,88,20635,2,0,B|416:56|360:80,1,106.249998416752,8|0
408,152,21005,2,0,B|360:184|304:152,1,106.249998416752,8|0
256,88,21375,5,2
184,192,21560,1,2
256,88,21745,1,2
272,216,21930,2,0,B|328:248|376:216,1,106.249998416752,8|8
288,312,22300,1,0
136,304,22485,6,8,B|88:344|40:304,1,106.249998416752
40,176,22855,1,0
160,224,23040,1,0
40,176,23225,1,0
120,104,23410,5,2
136,88,23502,1,0
152,72,23595,1,2
280,72,23780,1,2
304,72,23872,1,0
328,72,23965,1,2
456,96,24150,5,0
344,160,24335,2,0,B|288:160|240:184,1,106.249998416752,8|0
344,264,24705,1,8
440,184,24890,2,0,B|464:232|448:288,1,106.249998416752,0|8
192,320,25445,5,2
88,248,25630,1,0
192,320,25815,1,0
320,296,26000,2,0,B|384:296|416:248,1,106.249998416752,0|2
344,208,26369,2,0,B|384:168|440:168,1,106.249998416752,2|0
472,64,26739,5,0
344,40,26924,1,2
224,80,27109,1,2
344,120,27294,2,0,B|264:192|136:208,2,212.499996833503,2|0|2
464,168,28219,1,0
384,272,28404,6,0,B|328:304|256:288,1,106.249998416752,8|0
312,216,28774,2,0,B|248:200|184:232,1,106.249998416752,8|0
152,288,29144,1,0
64,192,29329,1,2
152,288,29514,1,2
168,104,29699,2,0,B|104:120|56:72,1,106.249998416752
120,72,31364,5,0
416,72,31734,1,0
272,328,32104,1,0
96,216,32474,5,8
216,176,32659,2,0,B|272:176|312:136,1,106.249998416752,2|8
416,72,33029,2,0,B|448:120|432:176,1,106.249998416752,2|8
384,288,33399,1,0
264,336,33584,1,8
136,320,33769,1,2
32,32,34139,6,0,B|32:144,1,106.249998416752,0|8
104,80,34509,2,0,B|104:192,1,106.249998416752,0|8
176,120,34879,2,0,B|176:240,1,106.249998416752,0|8
176,320,35249,1,4
272,344,35434,1,0
368,312,35619,5,4
432,64,35989,2,0,B|376:40|328:64,1,106.249998416752,2|0
248,128,36359,1,2
232,144,36451,1,0
216,160,36544,1,2
112,192,36729,2,4,B|128:256|192:264,1,106.249998416752,2|0
440,296,37284,6,8,B|416:344|352:360,2,106.249998416752,8|2|8
480,176,37839,1,2
480,152,37931,1,2
472,128,38024,1,2
232,32,38579,5,2
120,88,38764,1,2
56,216,38949,2,0,B|64:280|104:312,1,106.249998416752,2|0
200,344,39319,2,0,B|224:360|256:352,2,53.1249992083758,0|0|0
240,224,39689,1,0
328,312,39874,1,2
416,224,40059,1,2
328,312,40244,1,0
328,184,40429,6,0,B|360:136|344:80,1,106.249998416752,8|0
248,72,40799,2,0,B|208:112|231:173,1,106.249998416752,8|0
200,272,41169,1,8
80,304,41354,1,0
200,272,41539,1,0
312,304,41724,1,4
216,48,43204,6,0,B|112:88,1,106.249998416752,0|2
288,48,43574,2,0,B|384:96,1,106.249998416752,0|2
216,120,43944,2,0,B|112:160,1,106.249998416752,0|2
288,120,44314,2,0,B|384:168,1,106.249998416752,0|2
392,296,44684,5,0
112,296,45053,1,0
256,88,45423,1,0
384,80,45608,1,0
448,184,45793,1,0
480,304,45978,1,0
224,312,46163,6,0,B|120:272,1,106.249998416752,0|2
296,312,46533,2,0,B|400:272,1,106.249998416752,0|2
224,240,46903,2,0,B|120:200,1,106.249998416752,0|2
296,240,47273,2,0,B|400:200,1,106.249998416752,0|2
400,64,47643,5,0
120,64,48013,1,0
256,304,48383,1,0
376,336,48568,2,0,B|432:304|432:240,2,106.249998416752,0|0|4
328,216,49123,5,0
408,64,49308,1,0
256,136,49493,1,0
312,48,49678,1,0
256,136,49863,1,0
376,144,50048,1,0
376,144,50233,1,0
104,272,50603,5,0
400,264,50973,1,0
256,40,51343,1,0
384,64,51528,5,0
480,152,51713,2,0,B|480:216|424:256,1,106.249998416752
328,312,52083,1,0
80,248,52453,1,0
224,184,52823,5,0
156,44,53008,1,0
292,117,53193,1,0
139,139,53378,1,0
250,31,53563,1,4
216,48,55043,6,0,B|116:86,1,106.249998416752,0|2
288,48,55413,2,0,B|383:95,1,106.249998416752,0|2
216,120,55783,2,0,B|116:158,1,106.249998416752,0|2
288,120,56153,2,0,B|383:167,1,106.249998416752,0|2
392,296,56523,5,0
112,296,56893,1,0
256,88,57263,1,0
376,80,57448,1,0
448,184,57633,1,0
224,312,57818,6,0,B|124:273,1,106.249998416752,0|2
296,312,58188,2,0,B|395:273,1,106.249998416752,0|2
224,240,58558,2,0,B|124:201,1,106.249998416752,0|2
296,240,58928,2,0,B|395:201,1,106.249998416752,0|2
400,64,59483,5,0
120,64,59853,1,0
256,304,60223,1,0
376,336,60408,2,0,B|432:304|431:250,2,106.249998416752,0|0|4
328,216,60963,5,0
408,64,61148,1,0
264,144,61333,1,0
312,48,61518,1,0
264,144,61703,1,0
376,144,61888,1,0
376,144,62073,1,0
104,272,62443,5,0
400,264,62813,1,0
256,40,63183,1,0
384,64,63367,5,0
480,152,63552,2,0,B|480:216|437:245,1,106.249998416752
328,312,63922,1,0
80,248,64292,1,0
224,184,64662,5,0
156,44,64847,1,0
292,117,65032,1,0
139,139,65217,1,0
48,352,65587,1,0
