osu file format v9

[General]
AudioFilename: bangbros_-_yeah_yeah_yeah_nightcore_mix_(zaycev.net).mp3
AudioLeadIn: 0
PreviewTime: 19495
Countdown: 0
SampleSet: Soft
StackLeniency: 0.7
Mode: 0
LetterboxInBreaks: 1

[Editor]
DistanceSpacing: 0.8
BeatDivisor: 4
GridSize: 4

[Metadata]
Title:Yeah Yeah Yeah! (Nightcore Mix)
Artist:Bangbros
Creator:tiper
Version:Hard
Source:
Tags:Natsume

[Difficulty]
HPDrainRate:4
CircleSize:4
OverallDifficulty:4
ApproachRate:6
SliderMultiplier:1.3
SliderTickRate:2

[Events]
//Background and Video events
0,0,"12.png"
//Break Periods
//Storyboard Layer 0 (Background)
//Storyboard Layer 1 (Fail)
//Storyboard Layer 2 (Pass)
//Storyboard Layer 3 (Foreground)
//Storyboard Sound Samples
//Background Colour Transformations
3,100,163,162,255

[TimingPoints]
7686,369.979999999999,4,2,0,70,1,0
17860,-100,4,2,0,55,0,0
18600,-100,4,2,0,45,0,0
19525,-80,4,2,0,80,0,0
31272,-80,4,1,0,80,0,0
32289,-80,4,2,0,80,0,0
41724,-80,4,1,0,80,0,0
41909,-80,4,2,0,40,0,0
43204,-80,4,1,0,80,0,1
43481,-80,4,2,0,80,0,1
43666,-80,4,1,0,80,0,1
44221,-80,4,2,0,80,0,1
44683,-80,4,1,0,80,0,1
46071,-80,4,2,0,80,0,1
46533,-80,4,1,0,80,0,1
46811,-80,4,2,0,80,0,1
47458,-80,4,1,0,80,0,1
49031,-80,4,2,0,80,0,1
49216,-80,4,1,0,80,0,1
49771,-80,4,2,0,80,0,1
50326,-80,4,1,0,80,0,1
53471,-80,4,1,0,80,0,1
54025,-80,4,2,0,40,0,1
54950,-80,4,1,0,80,0,1
55135,-80,4,2,0,80,0,1
55690,-80,4,1,0,80,0,1
55875,-80,4,2,0,80,0,1
56430,-80,4,1,0,80,0,1
57910,-80,4,2,0,80,0,1
58280,-80,4,1,0,80,0,1
58465,-80,4,2,0,80,0,1
59390,-80,4,1,0,80,0,1
60870,-80,4,2,0,80,0,1
61055,-80,4,1,0,40,0,1
61610,-80,4,2,0,40,0,1
62350,-80,4,1,0,40,0,1
63460,-80,4,1,0,40,0,1
63922,-80,4,2,0,40,0,0
64107,-80,4,2,0,25,0,0
65217,-80,4,2,0,15,0,0

[Colours]
Combo1 : 114,221,248
Combo2 : 254,92,80
Combo3 : 244,189,85

[HitObjects]
448,96,7686,2,0,B|384:48|320:96,1,130,0|2
384,184,8425,2,0,B|320:232|264:184,1,130,0|2
192,112,9165,2,0,B|136:168|176:232,1,130,0|2
240,312,9905,1,4
72,192,10645,5,0
144,120,11015,1,2
248,120,11385,2,0,B|376:120,1,130,0|2
456,192,12125,1,0
376,256,12495,1,2
272,248,12865,2,0,B|232:192,1,65,4|0
224,40,13605,6,0,B|368:40,1,130,0|2
304,136,14345,2,0,B|432:136,1,130,0|2
448,240,15085,1,0
360,304,15455,1,2
256,328,15825,2,0,B|192:304,1,65,4|0
248,160,16565,5,0
144,160,16935,1,2
200,72,17305,1,0
96,72,17675,1,2
40,160,18045,6,0,B|40:288,1,130
144,288,18785,1,0
240,248,19155,2,0,B|288:120,1,130,0|4
368,24,19895,5,8
440,136,20265,1,0
408,264,20635,2,8,B|464:336,2,81.2499987892807,8|0|8
288,320,21375,1,0
160,320,21745,6,0,B|64:312|32:224,1,162.499997578561,0|8
40,104,22485,1,0
160,160,22855,2,0,B|232:216|312:160,1,162.499997578561,8|0
384,56,23595,2,0,B|440:128|416:216,1,162.499997578561,8|0
344,312,24335,5,8
216,344,24705,1,0
104,272,25075,1,8
56,152,25445,1,0
288,40,26184,6,8,B|224:112|280:192,1,162.499997578561
360,288,26924,1,2
240,336,27294,1,0
112,336,27664,6,8,B|56:256|104:176,1,162.499997578561
48,64,28404,1,2
176,64,28774,1,0
296,120,29144,2,8,B|336:192|320:280,2,162.499997578561,8|8|12
104,160,30439,6,0,B|72:192|96:240,2,81.2499987892807,2|2|2
272,64,31364,5,4
368,192,31734,1,0
208,200,32104,1,0
112,112,32474,6,0,B|64:192|112:272,1,162.499997578561,0|8
240,280,33214,2,0,B|408:280,2,162.499997578561,2|2|8
328,184,34324,5,2
416,88,34694,1,0
296,40,35064,1,2
208,136,35434,1,8
80,176,35804,6,0,B|104:256|200:288,1,162.499997578561,0|8
320,312,36544,1,2
448,296,36914,1,4
472,168,37284,6,0,B|392:200|304:176,1,162.499997578561,8|2
384,72,38024,2,0,B|304:48|224:72,1,162.499997578561,8|10
104,120,38764,1,2
40,232,39134,1,8
136,320,39504,2,0,B|224:344,2,81.2499987892807,0|0|8
216,216,40244,5,2
344,248,40614,2,0,B|424:200|416:112,1,162.499997578561,8|0
304,48,41354,2,2,B|264:80|288:128,2,81.2499987892807,2|2|4
176,64,42094,1,0
48,80,42464,1,0
40,208,42834,1,0
48,328,43204,6,0,B|216:328,1,162.499997578561,0|2
136,224,43944,2,0,B|304:224,1,162.499997578561,0|4
376,120,44684,5,0
248,120,45053,1,0
120,120,45423,1,4
48,232,45793,6,0,B|128:280|216:232,1,162.499997578561,0|2
320,192,46533,2,0,B|400:144|480:192,2,162.499997578561,0|2|4
232,96,47643,5,0
232,228,48013,1,0
232,360,48383,1,0
348,300,48753,6,0,B|412:228|372:148,1,162.499997578561,0|2
268,76,49493,2,0,B|92:76,1,162.499997578561
40,188,50233,1,4
104,300,50603,6,0,B|272:300,2,162.499997578561
256,192,51713,12,4,53563
48,132,54118,6,0,B|48:44,2,81.2499987892807,2|2|2
48,328,55043,6,0,B|216:328,1,162.499997578561,0|2
136,224,55783,2,0,B|304:224,1,162.499997578561,0|4
376,120,56523,5,0
248,120,56893,1,0
120,120,57263,1,4
48,232,57633,6,0,B|128:296|216:232,1,162.499997578561,0|2
320,192,58373,2,0,B|400:144|480:192,2,162.499997578561,0|2|4
232,96,59483,5,0
232,228,59853,1,0
232,360,60223,1,0
348,300,60593,6,0,B|412:228|372:148,1,162.499997578561,0|2
268,76,61333,2,0,B|92:76,1,162.499997578561
44,192,62073,1,4
108,304,62443,6,0,B|276:304,2,162.499997578561
196,208,63552,1,0
324,208,63922,1,2
412,112,64292,6,0,B|348:56|252:96,2,162.499997578561,8|2|8
456,160,65217,1,0
408,280,65587,1,0
