osu file format v9

[General]
AudioFilename: bangbros_-_yeah_yeah_yeah_nightcore_mix_(zaycev.net).mp3
AudioLeadIn: 0
PreviewTime: 19495
Countdown: 0
SampleSet: Soft
StackLeniency: 0.7
Mode: 0
LetterboxInBreaks: 1

[Editor]
DistanceSpacing: 0.6
BeatDivisor: 2
GridSize: 4

[Metadata]
Title:Yeah Yeah Yeah! (Nightcore Mix)
Artist:Bangbros
Creator:tiper
Version:Easy
Source:
Tags:Natsume

[Difficulty]
HPDrainRate:1
CircleSize:3
OverallDifficulty:1
ApproachRate:1
SliderMultiplier:0.899999999999999
SliderTickRate:1

[Events]
//Background and Video events
0,0,"12.png"
//Break Periods
//Storyboard Layer 0 (Background)
//Storyboard Layer 1 (Fail)
//Storyboard Layer 2 (Pass)
//Storyboard Layer 3 (Foreground)
//Storyboard Sound Samples
//Background Colour Transformations
3,100,163,162,255

[TimingPoints]
7686,369.979999999999,4,2,0,70,1,0
30994,-100,4,1,0,70,0,0
32659,-100,4,2,0,70,0,0
41539,-100,4,1,0,70,0,0
42094,-100,4,2,0,70,0,0
43204,-100,4,1,0,70,0,1
43389,-100,4,2,0,70,0,1
44499,-100,4,1,0,70,0,1
46718,-100,4,2,0,70,0,1
47088,-100,4,1,0,70,0,1
49678,-100,4,2,0,70,0,1
50048,-100,4,1,0,70,0,1
53378,-100,4,1,0,70,0,1
54673,-100,4,1,0,70,0,1
55598,-100,4,2,0,70,0,1
55968,-100,4,1,0,70,0,1
58558,-100,4,2,0,70,0,1
58928,-100,4,1,0,70,0,1
61518,-100,4,2,0,70,0,1
61888,-100,4,1,0,70,0,1
63922,-100,4,1,0,35,0,0
65402,-100,4,2,0,10,0,0

[Colours]
Combo1 : 114,221,248
Combo2 : 254,92,80
Combo3 : 244,189,85

[HitObjects]
56,56,7686,2,0,B|88:88|88:88|88:176|88:176|120:208,1,180,4|2
232,208,9165,2,0,B|264:176|264:176|264:88|264:88|296:56,1,180,0|6
408,56,10645,5,0
408,168,11385,1,2
408,280,12125,2,0,B|368:320|280:320|240:280,1,180,0|6
172,200,13605,6,0,B|156:160|92:152,2,89.9999999999999,0|8|2
84,264,15085,1,0
164,336,15825,1,6
272,332,16565,6,0,B|320:252|320:156,1,180,0|2
320,52,18045,1,6
104,56,19525,6,0,B|64:96|68:140,2,89.9999999999999,0|8|2
172,140,21005,1,8
280,132,21745,2,0,B|280:188|244:220,2,89.9999999999999,2|8|0
376,88,23225,1,8
448,164,23965,6,8,B|356:192|332:296,1,180,8|4
256,216,25445,1,2
178,291,26184,2,8,B|156:192|64:164,1,180,8|4
120,72,27664,1,8
256,192,28404,12,0,29884
200,64,31364,6,0,B|200:120|160:152,2,89.9999999999999,4|0|0
308,64,32844,1,2
416,64,33584,2,8,B|416:120|456:152,2,89.9999999999999
352,152,35064,5,2
420,236,35804,2,0,B|376:276|313:272|273:239|264:204,1,180
192,132,37284,5,2
132,40,38024,2,0,B|100:60|80:96|68:160|104:200,1,180
180,268,39504,2,0,B|260:324|348:268,2,180
76,292,41724,1,4
252,184,43204,6,0,B|268:80|388:84,1,180,0|2
356,192,44683,1,0
356,192,45053,1,0
356,192,45423,1,0
464,196,46163,6,0,B|448:304|332:300,1,180,0|2
228,292,47643,1,0
228,292,48013,1,0
228,292,48383,1,0
156,212,49123,5,0
160,104,49863,1,2
268,108,50603,2,0,B|380:108,2,89.9999999999999
256,192,52083,12,4,53563
320,312,55043,6,0,B|327:199|223:183,1,180,0|2
216,288,56523,1,0
216,288,56893,1,0
216,288,57263,1,0
104,288,58003,5,0
40,200,58743,1,2
40,88,59483,2,0,B|128:88,2,89.9999999999999
112,168,60963,5,0
224,168,61703,1,2
328,168,62443,1,0
328,168,62813,1,0
328,168,63182,1,0
256,192,63922,12,0,65587
