osu file format v14

[General]
AudioFilename: a lot of bananas.mp3
AudioLeadIn: 0
PreviewTime: 17372
Countdown: 0
SampleSet: Normal
StackLeniency: 0.7
Mode: 0
LetterboxInBreaks: 1
WidescreenStoryboard: 1

[Editor]
Bookmarks: 38677
DistanceSpacing: 1
BeatDivisor: 4
GridSize: 4
TimelineZoom: 2.2

[Metadata]
Title:Yi Da Dui De Xiang Jiao feat. MC Qiu Yi
TitleUnicode:一大堆的香蕉 feat. MC邱毅
Artist:Banana Qiu
ArtistUnicode:Banana 邱
Creator:Flask
Version:Insane
Source:
Tags:Loneight l1106188 Evil_Twilight spboxer3
BeatmapID:659780
BeatmapSetID:160351

[Difficulty]
HPDrainRate:6
CircleSize:4
OverallDifficulty:6.5
ApproachRate:8.5
SliderMultiplier:1.5
SliderTickRate:2

[Events]
//Background and Video events
Video,-500,"bananaaa.avi"
0,0,"bananaaa.jpg",0,0
//Break Periods
//Storyboard Layer 0 (Background)
//Storyboard Layer 1 (Fail)
//Storyboard Layer 2 (Pass)
//Storyboard Layer 3 (Foreground)
//Storyboard Sound Samples

[TimingPoints]
40,333.312964207743,4,1,0,70,1,0
16039,-100,4,1,0,45,0,0
17372,-83.3333333333333,4,1,0,70,0,1
27954,-83.3333333333333,4,1,0,70,0,0
28038,-83.3333333333333,4,1,0,70,0,1
38704,-100,4,1,0,70,0,0

[HitObjects]
108,88,6706,6,0,P|96:144|112:208,1,112.5,4|0,0:0|0:0,0:0:0:0:
136,224,7039,2,0,L|224:216,1,75,8|0,0:0|0:0,0:0:0:0:
308,224,7372,1,2,0:3:0:0:
256,304,7539,1,0,0:0:0:0:
252,144,7706,2,0,P|324:128|392:176,1,150,8|0,0:0|0:0,0:0:0:0:
472,356,8372,6,0,L|480:268,1,75,2|0,0:2|0:0,0:0:0:0:
368,84,8706,1,2,0:2:0:0:
360,180,8872,1,2,0:2:0:0:
349,277,9039,1,2,0:2:0:0:
84,340,9372,6,0,P|64:288|84:220,1,112.5,2|0,0:2|0:0,0:0:0:0:
96,188,9706,2,0,P|104:148|100:108,1,75,8|0,0:0|0:0,0:0:0:0:
12,72,10039,1,2,0:2:0:0:
12,72,10122,1,0,0:0:0:0:
284,88,10372,2,0,L|280:44,3,37.5,8|0|0|0,0:0|0:0|0:0|0:0,0:0:0:0:
304,128,10706,6,0,P|344:152|420:140,1,112.5,2|0,0:2|0:0,0:0:0:0:
448,120,11039,2,0,P|484:108|524:112,1,75,8|0,0:0|0:0,0:0:0:0:
348,232,11372,1,2,0:2:0:0:
384,60,11539,1,2,0:2:0:0:
496,196,11705,1,2,0:2:0:0:
232,316,12039,6,0,L|116:312,1,112.5,2|0,0:2|0:0,0:0:0:0:
72,328,12372,2,0,P|36:336|-8:332,1,75,8|0,0:0|0:0,0:0:0:0:
20,168,12705,1,2,0:2:0:0:
100,228,12872,1,0,0:0:0:0:
176,168,13039,2,0,P|240:156|308:208,1,150,8|2,0:0|0:2,0:0:0:0:
104,96,13705,6,0,L|100:12,1,75,8|0,0:0|0:0,0:0:0:0:
328,36,14039,1,2,0:2:0:0:
260,108,14205,1,2,0:2:0:0:
192,36,14372,1,2,0:2:0:0:
484,224,14705,6,0,P|480:288|440:332,1,112.5,2|0,0:2|0:0,0:0:0:0:
408,352,15039,2,0,P|408:312|400:272,1,75,8|0,0:0|0:0,0:0:0:0:
332,208,15372,1,2,0:2:0:0:
332,208,15455,1,0,0:0:0:0:
152,340,15705,1,8,0:0:0:0:
116,340,15789,1,0,0:0:0:0:
80,340,15872,1,0,0:0:0:0:
44,340,15955,1,0,0:0:0:0:
8,340,16039,6,0,L|-4:372,24,18.75
8,340,17372,6,0,P|4:248|30:214,1,134.999995880127,4|0,0:0|0:0,0:0:0:0:
74,199,17705,2,0,P|110:215|134:267,1,89.9999972534181,8|0,0:0|0:0,0:0:0:0:
352,292,18038,1,2,0:2:0:0:
184,344,18205,1,0,0:0:0:0:
252,272,18372,2,0,P|270:317|280:376,1,89.9999972534181,8|0,0:0|0:0,0:0:0:0:
456,352,18705,6,0,P|464:296|500:224,1,134.999995880127,2|0,0:2|0:0,0:0:0:0:
488,176,19038,2,0,P|488:136|480:80,1,89.9999972534181,8|0,0:0|0:0,0:0:0:0:
384,216,19372,1,2,0:2:0:0:
348,56,19538,1,0,0:0:0:0:
256,96,19705,2,0,P|252:144|256:192,1,89.9999972534181,8|0,0:0|0:0,0:0:0:0:
388,344,20038,6,0,P|404:296|384:216,1,134.999995880127,2|0,0:2|0:0,0:0:0:0:
344,248,20372,2,0,P|308:284|264:292,1,89.9999972534181,8|0,0:0|0:0,0:0:0:0:
36,304,20705,1,2,0:2:0:0:
188,344,20872,1,0,0:0:0:0:
104,376,21038,2,0,P|108:332|128:280,1,89.9999972534181,8|0,0:0|0:0,0:0:0:0:
40,92,21372,6,0,P|44:132|108:196,1,134.999995880127,2|0,0:2|0:0,0:0:0:0:
156,184,21705,2,0,P|200:172|252:184,1,89.9999972534181,8|0,0:0|0:0,0:0:0:0:
296,260,22038,1,2,0:2:0:0:
296,96,22205,1,0,0:0:0:0:
296,260,22371,2,0,P|308:308|312:352,1,89.9999972534181,8|10,0:0|0:3,0:0:0:0:
416,184,22705,6,0,B|448:148|504:156|504:156|520:112,1,134.999995880127,2|0,0:2|0:0,0:0:0:0:
504,168,23038,2,0,L|512:268,1,89.9999972534181,8|0,0:0|0:0,0:0:0:0:
340,124,23371,1,2,0:2:0:0:
348,24,23538,1,0,0:0:0:0:
244,156,23705,2,0,P|200:160|152:160,1,89.9999972534181,8|0,0:0|0:0,0:0:0:0:
38,323,24038,6,0,P|87:316|178:322,1,134.999995880127,2|0,0:2|0:0,0:0:0:0:
215,346,24371,2,0,P|213:302|220:253,1,89.9999972534181,8|0,0:0|0:0,0:0:0:0:
314,226,24705,1,2,0:2:0:0:
154,178,24871,1,0,0:0:0:0:
314,226,25038,2,0,P|355:244|410:251,1,89.9999972534181,8|0,0:0|0:0,0:0:0:0:
464,41,25371,6,0,P|410:41|370:106,1,134.999995880127,2|0,0:2|0:0,0:0:0:0:
331,137,25705,2,0,L|319:45,1,89.9999972534181,8|0,0:0|0:0,0:0:0:0:
167,77,26038,1,2,0:2:0:0:
143,275,26205,1,0,0:0:0:0:
249,183,26371,1,8,0:0:0:0:
56,158,26538,1,10,0:3:0:0:
256,192,26705,12,0,27871,0:0:0:0:
106,207,28038,6,0,B|96:94|96:94|127:115,1,134.999995880127,4|0,0:0|0:0,0:0:0:0:
157,129,28371,2,0,P|199:147|248:134,1,89.9999972534181,8|0,0:0|0:0,0:0:0:0:
454,111,28704,1,2,0:2:0:0:
305,62,28871,1,0,0:0:0:0:
336,239,29038,2,0,P|355:195|359:143,1,89.9999972534181,8|0,0:0|0:0,0:0:0:0:
266,320,29371,6,0,P|321:339|415:308,1,134.999995880127,2|0,0:2|0:0,0:0:0:0:
444,324,29704,2,0,P|489:326|534:322,1,89.9999972534181,8|0,0:0|0:0,0:0:0:0:
336,239,30038,1,2,0:2:0:0:
235,373,30204,1,0,0:0:0:0:
90,292,30371,2,0,P|40:287|-4:289,1,89.9999972534181,8|0,0:0|0:0,0:0:0:0:
88,158,30704,6,0,P|73:111|110:39,1,134.999995880127,2|0,0:2|0:0,0:0:0:0:
160,28,31038,2,0,P|199:41|230:82,1,89.9999972534181,8|0,0:0|0:0,0:0:0:0:
178,250,31371,1,2,0:2:0:0:
281,186,31538,1,0,0:0:0:0:
88,157,31704,2,0,L|63:254,1,89.9999972534181,8|0,0:0|0:0,0:0:0:0:
309,371,32038,6,0,B|321:327|301:286|301:286|348:302,1,134.999995880127,2|0,0:2|0:0,0:0:0:0:
388,327,32371,2,0,L|488:322,1,89.9999972534181,8|0,0:0|0:0,0:0:0:0:
498,146,32704,1,2,0:2:0:0:
343,158,32871,1,0,0:0:0:0:
428,222,33037,1,8,0:0:0:0:
417,84,33204,1,8,0:3:0:0:
263,105,33371,6,0,P|249:158|286:237,1,134.999995880127,2|0,0:2|0:0,0:0:0:0:
233,251,33704,2,0,P|198:230|145:228,1,89.9999972534181,8|0,0:0|0:0,0:0:0:0:
23,343,34037,1,2,0:2:0:0:
143,347,34204,1,0,0:0:0:0:
35,217,34371,2,0,P|31:174|18:128,1,89.9999972534181,8|0,0:0|0:0,0:0:0:0:
199,37,34704,6,0,P|180:98|198:174,1,134.999995880127,2|0,0:2|0:0,0:0:0:0:
234,195,35037,2,0,L|323:189,1,89.9999972534181,8|0,0:0|0:0,0:0:0:0:
476,298,35371,1,2,0:2:0:0:
309,288,35537,1,0,0:0:0:0:
391,365,35704,2,0,L|396:266,1,89.9999972534181,8|0,0:0|0:0,0:0:0:0:
456,45,36037,6,0,L|474:184,1,134.999995880127,2|0,0:2|0:0,0:0:0:0:
434,146,36371,2,0,P|391:129|344:133,1,89.9999972534181,8|0,0:0|0:0,0:0:0:0:
184,208,36704,1,2,0:2:0:0:
304,256,36871,1,0,0:0:0:0:
232,92,37037,2,0,P|227:47|231:-6,1,89.9999972534181,8|0,0:0|0:0,0:0:0:0:
15,120,37371,5,4,0:0:0:0:
124,80,37537,1,10,0:3:0:0:
51,328,37704,1,0,0:0:0:0:
68,212,37871,1,0,0:0:0:0:
269,310,38037,1,0,0:0:0:0:
154,283,38204,2,0,L|153:313,4,22.4999993133545,12|0|0|0|0,3:3|0:0|0:0|0:0|0:0,0:0:0:0:
235,198,38537,1,0,0:0:0:0:
369,365,38704,5,4,0:0:0:0:
