osu file format v14

[General]
AudioFilename: a lot of bananas.mp3
AudioLeadIn: 0
PreviewTime: 17372
Countdown: 0
SampleSet: Normal
StackLeniency: 0.7
Mode: 0
LetterboxInBreaks: 1
WidescreenStoryboard: 1

[Editor]
Bookmarks: 38677
DistanceSpacing: 1.1
BeatDivisor: 4
GridSize: 4
TimelineZoom: 2.2

[Metadata]
Title:Yi Da Dui De Xiang Jiao feat. MC Qiu Yi
TitleUnicode:一大堆的香蕉 feat. MC邱毅
Artist:Banana Qiu
ArtistUnicode:Banana 邱
Creator:Flask
Version:Hard
Source:
Tags:Loneight l1106188 Evil_Twilight spboxer3
BeatmapID:391716
BeatmapSetID:160351

[Difficulty]
HPDrainRate:6
CircleSize:4
OverallDifficulty:6
ApproachRate:7
SliderMultiplier:1.4
SliderTickRate:2

[Events]
//Background and Video events
0,0,"bananaaa.jpg",0,0
Video,-500,"bananaaa.avi"
//Break Periods
//Storyboard Layer 0 (Background)
//Storyboard Layer 1 (Fail)
//Storyboard Layer 2 (Pass)
//Storyboard Layer 3 (Foreground)
//Storyboard Sound Samples

[TimingPoints]
40,333.312964207743,4,1,0,70,1,0
16039,-100,4,1,0,45,0,0
17372,-83.3333333333333,4,1,0,70,0,1
27954,-83.3333333333333,4,1,0,70,0,0
28038,-83.3333333333333,4,1,0,70,0,1
38704,-83.3333333333333,4,1,0,70,0,0

[HitObjects]
80,100,6706,6,0,L|68:208,2,105,4|0|0,0:0|0:0|0:0,0:0:0:0:
140,40,7372,1,2,0:2:0:0:
208,88,7539,1,0,0:0:0:0:
288,56,7706,2,0,P|340:48|396:52,1,105,8|0,0:0|0:0,0:0:0:0:
428,76,8039,2,0,L|436:188,2,105,2|0|0,0:2|0:0|0:0,0:0:0:0:
512,144,8706,1,2,0:2:0:0:
352,152,8872,2,0,L|356:228,1,70,2|2,0:2|0:2,0:0:0:0:
156,328,9372,6,0,B|104:328|104:328|56:304,2,105,2|0|0,0:2|0:0|0:0,0:0:0:0:
236,296,10039,2,0,L|312:296,1,70,2|0,0:2|0:0,0:0:0:0:
384,328,10372,2,0,L|392:372,3,35,8|0|0|0,0:0|0:0|0:0|0:0,0:0:0:0:
424,336,10706,2,0,P|464:316|480:260,1,105,2|0,0:2|0:0,0:0:0:0:
476,224,11039,2,0,L|468:143,1,70,8|0,0:0|0:0,0:0:0:0:
312,92,11372,2,0,L|308:176,2,70,2|2|2,0:2|0:2|0:2,0:0:0:0:
84,200,12039,6,0,P|104:156|96:96,2,105,2|0|0,0:2|0:0|0:0,0:0:0:0:
24,144,12705,1,2,0:2:0:0:
4,224,12872,1,0,0:0:0:0:
68,280,13039,2,0,P|112:280|160:232,1,105,8|0,0:0|0:0,0:0:0:0:
156,241,13372,2,0,P|208:246|276:244,2,105,2|0|0,0:2|0:0|0:0,0:0:0:0:
84,200,14039,1,2,0:2:0:0:
128,128,14205,2,0,L|197:121,1,70,2|2,0:2|0:2,0:0:0:0:
402,65,14705,6,0,L|294:57,2,105,2|0|0,0:2|0:0|0:0,0:0:0:0:
470,114,15372,2,0,P|485:74|483:44,1,70,2|0,0:2|0:0,0:0:0:0:
393,147,15705,2,0,L|423:186,3,35,8|0|0|0,0:0|0:0|0:0|0:0,0:0:0:0:
372,184,16039,6,0,L|367:217,24,17.5
183,245,17372,6,0,P|196:184|182:119,2,125.999996154785,4|0|0,0:1|0:0|0:0,0:0:0:0:
94,270,18038,2,0,L|5:277,1,83.9999974365235,2|0,0:2|0:0,0:0:0:0:
159,342,18372,2,0,L|285:348,1,125.999996154785,8|0,0:0|0:0,0:0:0:0:
296,344,18705,6,0,P|357:363|423:339,2,125.999996154785,2|0|0,0:2|0:0|0:0,0:0:0:0:
348,194,19372,2,0,P|361:240|354:280,2,83.9999974365235,2|0|8,0:2|0:0|0:0,0:0:0:0:
348,194,20038,6,0,P|334:144|353:67,2,125.999996154785,2|0|0,0:2|0:0|0:0,0:0:0:0:
421,136,20705,2,0,L|506:131,1,83.9999974365235,2|0,0:2|0:0,0:0:0:0:
259,175,21038,2,0,L|123:168,1,125.999996154785,8|0,0:0|0:0,0:0:0:0:
180,172,21372,6,0,P|184:223|177:302,2,125.999996154785,2|0|0,0:2|0:0|0:0,0:0:0:0:
103,117,22038,2,0,P|140:88|180:71,1,83.9999974365235,2|0,0:2|0:0,0:0:0:0:
93,209,22371,2,0,P|49:190|14:164,1,83.9999974365235,8|0,0:0|0:0,0:0:0:0:
179,172,22705,6,0,B|228:173|228:173|265:180|265:180|319:180,2,125.999996154785,2|0|0,0:2|0:0|0:0,0:0:0:0:
219,255,23371,2,0,B|252:261|252:261|308:262,1,83.9999974365235,2|0,0:2|0:0,0:0:0:0:
460,222,23705,2,0,L|374:222,1,83.9999974365235,8|0,0:0|0:0,0:0:0:0:
339,375,24038,6,0,P|393:354|371:300,2,125.999996154785,2|0|0,0:2|0:0|0:0,0:0:0:0:
250,347,24705,2,0,P|207:344|157:347,1,83.9999974365235,2|0,0:2|0:0,0:0:0:0:
0,368,25038,2,0,P|43:371|93:368,1,83.9999974365235,8|0,0:0|0:0,0:0:0:0:
111,163,25371,6,0,B|111:208|111:208|103:246|103:246|105:292,2,125.999996154785,2|0|0,0:2|0:0|0:0,0:0:0:0:
32,112,26038,2,0,P|66:82|108:73,1,83.9999974365235,2|0,0:2|0:0,0:0:0:0:
269,118,26371,2,0,L|183:110,1,83.9999974365235,8|0,0:0|0:0,0:0:0:0:
256,192,26705,12,0,27704,0:0:0:0:
202,77,28038,6,0,B|159:77|159:77|128:46|82:55,2,125.999996154785,4|0|0,0:0|0:0|0:0,0:0:0:0:
284,35,28704,2,0,P|294:77|281:127,1,83.9999974365235,2|0,0:2|0:0,0:0:0:0:
214,247,29038,2,0,P|204:205|217:155,1,83.9999974365235,8|0,0:0|0:0,0:0:0:0:
359,161,29371,6,0,P|428:163|492:159,2,125.999996154785,2|0|0,0:2|0:0|0:0,0:0:0:0:
303,235,30038,1,2,0:2:0:0:
229,179,30204,1,0,0:0:0:0:
84,246,30371,2,0,P|131:251|176:247,1,83.9999974365235,8|0,0:0|0:0,0:0:0:0:
17,186,30704,6,0,P|-5:221|19:307,2,125.999996154785,2|0|0,0:2|0:0|0:0,0:0:0:0:
106,159,31371,2,0,L|116:75,1,83.9999974365235,2|0,0:2|0:0,0:0:0:0:
188,192,31704,2,0,L|199:279,1,83.9999974365235,8|0,0:0|0:0,0:0:0:0:
351,349,32038,6,0,P|410:369|474:344,2,125.999996154785,2|0|0,0:2|0:0|0:0,0:0:0:0:
410,278,32704,2,0,P|416:235|410:190,1,83.9999974365235,2|0,0:2|0:0,0:0:0:0:
323,263,33037,2,0,P|285:284|261:318,1,83.9999974365235,8|0,0:0|0:0,0:0:0:0:
121,247,33371,6,0,L|126:375,2,125.999996154785,2|0|0,0:2|0:0|0:0,0:0:0:0:
60,177,34037,2,0,P|63:137|59:89,1,83.9999974365235,2|0,0:2|0:0,0:0:0:0:
189,38,34371,2,0,P|185:77|190:126,1,83.9999974365235,8|0,0:0|0:0,0:0:0:0:
361,160,34704,6,0,B|435:160|435:160|488:127,2,125.999996154785,2|0|0,0:2|0:0|0:0,0:0:0:0:
276,119,35371,2,0,P|264:164|274:200,1,83.9999974365235,2|0,0:2|0:0,0:0:0:0:
354,304,35704,2,0,L|438:310,1,83.9999974365235,8|0,0:0|0:0,0:0:0:0:
224,347,36037,6,0,L|92:359,2,125.999996154785,2|0|0,0:2|0:0|0:0,0:0:0:0:
184,264,36704,2,0,L|92:272,1,83.9999974365235,2|0,0:2|0:0,0:0:0:0:
88,184,37037,2,0,L|176:176,1,83.9999974365235,8|0,0:0|0:0,0:0:0:0:
256,192,37371,12,0,38704,0:0:0:0:
