osu file format v14

[General]
AudioFilename: a lot of bananas.mp3
AudioLeadIn: 0
PreviewTime: 17372
Countdown: 0
SampleSet: Normal
StackLeniency: 0.7
Mode: 0
LetterboxInBreaks: 1
WidescreenStoryboard: 1

[Editor]
Bookmarks: 38677
DistanceSpacing: 1
BeatDivisor: 4
GridSize: 4
TimelineZoom: 1.2

[Metadata]
Title:Yi Da Dui De Xiang Jiao feat. MC Qiu Yi
TitleUnicode:一大堆的香蕉 feat. MC邱毅
Artist:Banana Qiu
ArtistUnicode:Banana 邱
Creator:Flask
Version:G's Normal
Source:
Tags:Loneight l1106188 Evil_Twilight spboxer3
BeatmapID:391744
BeatmapSetID:160351

[Difficulty]
HPDrainRate:4
CircleSize:3
OverallDifficulty:3
ApproachRate:5
SliderMultiplier:1
SliderTickRate:1

[Events]
//Background and Video events
0,0,"bananaaa.jpg",0,0
Video,-500,"bananaaa.avi"
//Break Periods
//Storyboard Layer 0 (Background)
//Storyboard Layer 1 (Fail)
//Storyboard Layer 2 (Pass)
//Storyboard Layer 3 (Foreground)
//Storyboard Sound Samples

[TimingPoints]
40,333.312964207743,4,1,0,70,1,0
17372,-83.3333333333333,4,1,0,70,0,1
27954,-83.3333333333333,4,1,0,70,0,0
28038,-83.3333333333333,4,1,0,70,0,1
38704,-100,4,1,0,70,0,0

[HitObjects]
168,252,6706,6,0,P|129:237|80:232,2,75,4|0|0,0:0|0:0|0:0,0:0:0:0:
248,340,7539,2,0,P|278:333|308:320,1,50,0|8,0:0|0:0,0:0:0:0:
392,252,8039,2,0,P|431:258|468:272,2,75
280,203,8872,2,0,P|270:177|266:132,1,50,0|8,0:0|0:0,0:0:0:0:
156,108,9372,6,0,P|168:75|172:32,2,75
48,160,10206,2,0,P|49:192|56:216,1,50,0|8,0:0|0:0,0:0:0:0:
136,292,10706,2,0,P|134:330|120:377,2,75
248,252,11539,2,0,P|248:220|256:192,2,50,0|8|0,0:0|0:0|0:0,0:0:0:0:
284,300,12039,6,0,P|319:315|364:324,1,75
420,260,12539,2,0,P|451:217|492:188,1,100
468,132,13039,1,8,0:0:0:0:
348,120,13372,2,0,P|321:91|304:48,1,75
216,72,13872,2,0,P|172:50|116:44,1,100
68,68,14372,1,8,0:0:0:0:
84,188,14705,6,0,P|46:202|4:208,2,75
208,168,15539,2,0,P|232:180|252:196,1,50,0|8,0:0|0:0,0:0:0:0:
172,292,16039,1,0,0:0:0:0:
172,292,17372,6,0,P|234:297|292:320,1,119.999996337891,4|8,0:0|0:0,0:0:0:0:
352,352,17872,2,0,P|383:345|412:329,1,59.9999981689454
468,288,18205,2,0,P|481:261|488:232,1,59.9999981689454,0|8,0:0|0:0,0:0:0:0:
380,136,18705,6,0,P|339:91|316:32,1,119.999996337891,0|8,0:0|0:0,0:0:0:0:
248,56,19205,2,0,P|215:36|176:32,1,59.9999981689454
124,28,19538,2,0,P|95:35|70:52,1,59.9999981689454,0|8,0:0|0:0,0:0:0:0:
36,192,20038,6,0,P|49:253|77:305,1,119.999996337891,0|8,0:0|0:0,0:0:0:0:
144,332,20538,2,0,P|177:325|206:311,1,59.9999981689454
236,252,20872,2,0,P|251:217|274:192,1,59.9999981689454,0|8,0:0|0:0,0:0:0:0:
400,144,21372,6,0,P|385:81|356:24,1,119.999996337891,0|8,0:0|0:0,0:0:0:0:
304,76,21871,2,0,P|277:90|244:92,1,59.9999981689454
180,64,22205,2,0,P|156:49|116:40,1,59.9999981689454,0|8,0:0|0:0,0:0:0:0:
32,148,22705,6,0,P|88:170|156:171,1,119.999996337891,4|8,0:0|0:0,0:0:0:0:
148,244,23205,1,0,0:0:0:0:
100,297,23371,2,0,P|85:323|76:351,2,59.9999981689454,0|0|8,0:0|0:0|0:0,0:0:0:0:
236,344,24038,6,0,P|298:338|356:316,1,119.999996337891,0|8,0:0|0:0,0:0:0:0:
370,248,24538,1,0,0:0:0:0:
425,202,24705,2,0,P|457:206|485:217,2,59.9999981689454,0|0|8,0:0|0:0|0:0,0:0:0:0:
284,172,25371,6,0,P|232:144|188:95,1,119.999996337891,0|8,0:0|0:0,0:0:0:0:
120,84,25871,1,0,0:0:0:0:
68,136,26038,2,0,P|40:116|-4:103,2,59.9999981689454,0|0|8,0:0|0:0|0:0,0:0:0:0:
92,280,26705,5,0,0:0:0:0:
140,336,26871,2,0,P|204:344|268:320,1,119.999996337891,8|8,0:0|0:0,0:0:0:0:
384,256,27538,1,8,0:0:0:0:
256,188,27871,1,8,0:0:0:0:
256,188,28038,6,0,P|262:127|242:61,1,119.999996337891,4|8,0:0|0:0,0:0:0:0:
186,31,28538,1,0,0:0:0:0:
121,63,28704,2,0,P|92:53|60:30,2,59.9999981689454,0|0|8,0:0|0:0|0:0,0:0:0:0:
36,179,29371,2,0,P|52:233|38:320,1,119.999996337891,0|8,0:0|0:0,0:0:0:0:
117,282,29871,1,0,0:0:0:0:
182,312,30038,2,0,L|161:372,2,59.9999981689454,0|0|8,0:0|0:0|0:0,0:0:0:0:
285,212,30704,6,0,P|243:161|181:154,1,119.999996337891,0|8,0:0|0:0,0:0:0:0:
124,176,31204,1,0,0:0:0:0:
64,220,31371,2,0,P|27:209|-4:187,2,59.9999981689454,0|0|8,0:0|0:0|0:0,0:0:0:0:
208,256,32038,6,0,P|209:319|189:373,1,119.999996337891,0|8,0:0|0:0,0:0:0:0:
248,328,32538,1,0,0:0:0:0:
308,288,32704,2,0,P|343:296|368:310,1,59.9999981689454
416,360,33037,1,8,0:0:0:0:
496,232,33371,6,0,P|471:175|468:99,1,119.999996337891,0|8,0:0|0:0,0:0:0:0:
472,46,33871,1,0,0:0:0:0:
405,18,34037,2,0,P|376:21|343:36,1,59.9999981689454
311,95,34371,1,8,0:0:0:0:
180,148,34704,6,0,P|128:120|68:107,1,119.999996337891,0|8,0:0|0:0,0:0:0:0:
8,148,35204,1,0,0:0:0:0:
52,208,35371,2,0,P|48:237|32:272,1,59.9999981689454
4,328,35704,1,8,0:0:0:0:
140,284,36037,6,0,P|197:262|264:260,1,119.999996337891,0|8,0:0|0:0,0:0:0:0:
316,300,36537,1,0,0:0:0:0:
388,292,36704,2,0,P|406:264|416:240,1,59.9999981689454
484,212,37037,1,8,0:0:0:0:
456,64,37371,6,0,P|425:77|399:82,1,59.9999981689454,0|8,0:0|0:0,0:0:0:0:
328,100,37704,2,0,P|297:86|271:81,1,59.9999981689454,0|8,0:0|0:0,0:0:0:0:
204,104,38037,1,0,0:0:0:0:
148,152,38204,2,0,P|118:152|88:148,2,59.9999981689454,8|0|8,0:0|0:0|0:0,0:0:0:0:
183,214,38704,5,4,0:0:0:0:
