osu file format v14

[General]
AudioFilename: a lot of bananas.mp3
AudioLeadIn: 0
PreviewTime: 17372
Countdown: 0
SampleSet: Normal
StackLeniency: 0.7
Mode: 0
LetterboxInBreaks: 1
WidescreenStoryboard: 1

[Editor]
Bookmarks: 38677
DistanceSpacing: 1
BeatDivisor: 4
GridSize: 4
TimelineZoom: 2.2

[Metadata]
Title:Yi Da Dui De Xiang Jiao feat. MC Qiu Yi
TitleUnicode:一大堆的香蕉 feat. MC邱毅
Artist:Banana Qiu
ArtistUnicode:Banana 邱
Creator:Flask
Version:Extra
Source:
Tags:Loneight l1106188 Evil_Twilight spboxer3
BeatmapID:391680
BeatmapSetID:160351

[Difficulty]
HPDrainRate:7
CircleSize:4
OverallDifficulty:7
ApproachRate:9
SliderMultiplier:1.6
SliderTickRate:2

[Events]
//Background and Video events
Video,-500,"bananaaa.avi"
0,0,"bananaaa.jpg",0,0
//Break Periods
//Storyboard Layer 0 (Background)
//Storyboard Layer 1 (Fail)
//Storyboard Layer 2 (Pass)
//Storyboard Layer 3 (Foreground)
//Storyboard Sound Samples

[TimingPoints]
40,333.312964207743,4,1,0,70,1,0
16039,-100,4,1,0,45,0,0
17372,-66.6666666666667,4,1,0,70,0,1
17705,-83.3333333333333,4,1,0,70,0,1
27954,-83.3333333333333,4,1,0,70,0,0
28038,-66.6666666666667,4,1,0,70,0,1
28371,-83.3333333333333,4,1,0,70,0,1
38704,-100,4,1,0,70,0,0

[HitObjects]
104,56,6706,6,0,P|136:104|104:160,1,120,4|0,0:0|0:0,0:0:0:0:
36,176,7039,1,8,0:0:0:0:
20,16,7206,1,0,0:0:0:0:
168,284,7372,2,0,L|208:296,1,40,2|0,0:3|0:0,0:0:0:0:
302,289,7539,2,0,L|341:279,1,40
432,236,7706,2,0,P|444:280|444:332,1,80,8|0,0:0|0:0,0:0:0:0:
445,314,7956,1,0,0:0:0:0:
445,314,8039,1,0,0:0:0:0:
220,72,8289,5,0,0:0:0:0:
220,72,8372,2,0,L|312:52,1,80,2|0,0:2|0:0,0:0:0:0:
392,156,8706,1,2,0:2:0:0:
420,8,8872,1,2,0:2:0:0:
488,272,9039,2,0,B|440:292|440:292|356:280,1,120,2|0,0:2|0:0,0:0:0:0:
292,272,9372,5,2,0:2:0:0:
40,112,9622,1,0,0:0:0:0:
40,112,9706,2,0,L|124:96,1,80,8|0,0:0|0:0,0:0:0:0:
344,88,10039,1,2,0:2:0:0:
344,88,10122,1,0,0:0:0:0:
344,88,10206,1,0,0:0:0:0:
292,272,10372,2,0,L|296:320,1,40,8|0,0:0|0:0,0:0:0:0:
152,248,10539,2,0,L|156:300,1,40
232,176,10706,1,2,0:2:0:0:
424,304,10955,5,0,0:0:0:0:
424,304,11039,2,0,P|472:308|508:300,1,80,8|0,0:0|0:0,0:0:0:0:
268,168,11372,1,2,0:2:0:0:
112,268,11539,2,0,L|108:347,1,80,2|2,0:2|0:2,0:0:0:0:
108,347,12039,6,0,B|112:308|112:308|48:360,1,120,2|0,0:2|0:0,0:0:0:0:
28,196,12372,1,8,0:0:0:0:
184,372,12539,1,0,0:0:0:0:
212,168,12705,2,0,L|220:260,1,80,2|0,0:2|0:0,0:0:0:0:
424,68,13039,2,0,L|420:196,1,120,8|0,0:0|0:0,0:0:0:0:
416,264,13372,1,2,0:2:0:0:
152,92,13622,5,0,0:0:0:0:
152,92,13705,2,0,P|104:88|68:92,1,80,8|0,0:0|0:0,0:0:0:0:
168,316,14039,2,0,L|156:360,1,40,2|0,0:2|0:0,0:0:0:0:
228,228,14205,2,0,L|216:172,1,40,2|0,0:2|0:0,0:0:0:0:
296,336,14372,2,0,P|336:312|288:296,1,120,2|0,0:2|0:0,0:0:0:0:
332,320,14705,6,0,P|364:280|352:208,1,120,2|0,0:2|0:0,0:0:0:0:
356,214,15039,1,8,0:0:0:0:
428,64,15205,1,0,0:0:0:0:
276,76,15372,1,2,0:2:0:0:
276,76,15455,1,0,0:0:0:0:
276,76,15539,1,0,0:0:0:0:
72,148,15705,2,0,L|80:196,1,40,8|0,0:0|0:0,0:0:0:0:
32,300,15872,2,0,L|60:256,1,40
152,260,16039,6,0,L|120:244,24,20
164,248,17372,6,0,P|248:276|308:212,1,180.000006866455,4|0,0:0|0:0,0:0:0:0:
224,96,17705,2,0,P|220:140|228:192,1,95.9999970703126,8|0,0:0|0:0,0:0:0:0:
288,352,18038,1,2,0:2:0:0:
384,228,18205,1,0,0:0:0:0:
488,360,18372,2,0,L|484:296,1,47.9999985351563,8|0,0:0|0:0,0:0:0:0:
488,220,18538,2,0,L|481:172,1,47.9999985351563,0|0,0:0|0:0,0:0:0:0:
480,72,18705,6,0,B|496:120|484:176|484:176|444:160,1,143.999995605469,2|0,0:2|0:0,0:0:0:0:
272,152,19038,2,0,L|376:136,1,95.9999970703126,8|0,0:0|0:0,0:0:0:0:
280,28,19372,1,2,0:2:0:0:
312,220,19538,1,0,0:0:0:0:
136,136,19705,1,8,0:0:0:0:
136,136,19788,2,0,L|64:160,1,47.9999985351563
44,352,20038,6,0,P|92:340|188:348,1,143.999995605469,2|0,0:2|0:0,0:0:0:0:
244,168,20372,2,0,P|248:220|244:276,1,95.9999970703126,8|0,0:0|0:0,0:0:0:0:
144,224,20705,1,2,0:2:0:0:
344,284,20872,2,0,P|332:328|292:368,1,95.9999970703126,0|8,0:0|0:0,0:0:0:0:
298,364,21122,1,0,0:0:0:0:
298,364,21205,1,0,0:0:0:0:
336,144,21372,6,0,L|436:152,1,95.9999970703126,2|0,0:2|0:0,0:0:0:0:
152,72,21705,2,0,L|44:80,1,95.9999970703126,8|0,0:0|0:0,0:0:0:0:
296,164,22038,1,2,0:2:0:0:
176,208,22205,1,0,0:0:0:0:
416,192,22371,2,0,L|424:292,1,95.9999970703126,8|10,0:0|0:3,0:0:0:0:
368,344,22621,1,8,0:3:0:0:
368,344,22705,6,0,B|320:344|320:344|286:349|286:349|200:348,1,143.999995605469,2|0,0:2|0:0,0:0:0:0:
72,304,23038,2,0,P|116:288|172:296,1,95.9999970703126,8|0,0:0|0:0,0:0:0:0:
296,376,23371,1,2,0:2:0:0:
24,224,23538,2,0,L|32:120,1,95.9999970703126,0|8,0:0|0:0,0:0:0:0:
56,48,23788,2,0,L|48:0,2,47.9999985351563
132,84,24038,6,0,P|180:92|244:84,1,95.9999970703126,2|0,0:2|0:0,0:0:0:0:
368,124,24288,2,0,L|304:112,1,47.9999985351563,0|8,0:0|0:0,0:0:0:0:
296,216,24538,1,0,0:0:0:0:
332,20,24705,1,2,0:2:0:0:
424,200,24871,1,0,0:0:0:0:
228,148,25038,2,0,P|208:176|204:204,1,47.9999985351563,8|0,0:0|0:0,0:0:0:0:
208,296,25205,2,0,P|216:332|236:352,1,47.9999985351563
328,360,25371,5,2,0:2:0:0:
496,172,25621,1,0,0:0:0:0:
496,172,25705,2,0,L|512:268,1,95.9999970703126,8|0,0:0|0:0,0:0:0:0:
344,152,26038,2,0,L|300:256,1,95.9999970703126,2|0,0:2|0:0,0:0:0:0:
256,32,26371,2,0,L|148:44,1,95.9999970703126,8|10,0:0|0:3,0:0:0:0:
80,32,26621,1,8,0:3:0:0:
80,32,26705,1,8,0:3:0:0:
256,192,26871,12,0,27871,0:0:0:0:
220,64,28038,6,0,P|176:120|136:48,1,180.000006866455,4|0,0:0|0:0,0:0:0:0:
320,52,28371,6,0,L|328:164,1,95.9999970703126,8|0,0:0|0:0,0:0:0:0:
460,224,28704,1,2,0:2:0:0:
320,52,28871,1,0,0:0:0:0:
256,276,29038,2,0,B|208:304|208:304|160:320|112:296,1,143.999995605469,8|0,0:0|0:0,0:0:0:0:
48,340,29371,6,0,P|40:272|104:224,1,143.999995605469,2|0,0:2|0:0,0:0:0:0:
176,228,29704,2,0,P|208:260|220:316,1,95.9999970703126,8|0,0:0|0:0,0:0:0:0:
420,348,30038,1,2,0:2:0:0:
292,364,30204,1,0,0:0:0:0:
336,152,30371,2,0,P|348:204|344:260,1,95.9999970703126,8|0,0:0|0:0,0:0:0:0:
132,104,30704,6,0,P|148:56|240:32,1,143.999995605469,2|0,0:2|0:0,0:0:0:0:
408,56,31038,2,0,L|296:64,1,95.9999970703126,8|0,0:0|0:0,0:0:0:0:
212,236,31371,1,2,0:2:0:0:
208,88,31538,1,0,0:0:0:0:
372,176,31704,2,0,L|392:272,1,95.9999970703126,8|0,0:0|0:0,0:0:0:0:
348,332,31954,5,0,0:0:0:0:
348,332,32038,2,0,P|300:352|252:348,1,95.9999970703126,2|0,0:2|0:0,0:0:0:0:
172,376,32288,2,0,L|164:324,1,47.9999985351563,0|8,0:0|0:0,0:0:0:0:
152,164,32538,1,0,0:0:0:0:
72,308,32704,1,2,0:2:0:0:
232,240,32871,1,0,0:0:0:0:
64,212,33037,2,0,P|56:188|60:152,1,47.9999985351563,8|10,0:0|0:3,0:0:0:0:
116,72,33204,2,0,P|148:64|172:68,1,47.9999985351563,8|10,0:3|0:3,0:0:0:0:
384,120,33371,6,0,P|312:128|240:120,1,143.999995605469,2|0,0:2|0:0,0:0:0:0:
124,40,33704,1,8,0:0:0:0:
288,144,33871,1,0,0:0:0:0:
156,256,34037,2,0,L|136:360,1,95.9999970703126,2|0,0:2|0:0,0:0:0:0:
384,120,34371,2,0,L|418:220,1,95.9999970703126,8|0,0:0|0:0,0:0:0:0:
80,200,34704,6,0,P|120:168|212:184,1,143.999995605469,2|0,0:2|0:0,0:0:0:0:
152,380,35037,1,8,0:0:0:0:
156,192,35204,1,0,0:0:0:0:
4,280,35371,2,0,P|48:292|100:292,1,95.9999970703126,2|0,0:2|0:0,0:0:0:0:
304,256,35704,2,0,P|372:240|440:264,1,143.999995605469,8|0,0:0|0:0,0:0:0:0:
256,340,36037,5,2,0:2:0:0:
248,172,36204,1,0,0:0:0:0:
248,172,36287,1,0,0:0:0:0:
248,172,36371,2,0,L|260:64,1,95.9999970703126,8|0,0:0|0:0,0:0:0:0:
452,40,36704,2,0,L|468:140,1,95.9999970703126,2|0,0:2|0:0,0:0:0:0:
152,272,37037,1,8,0:0:0:0:
128,276,37121,1,0,0:0:0:0:
104,280,37204,1,0,0:0:0:0:
80,284,37287,1,0,0:0:0:0:
56,288,37371,1,4,0:0:0:0:
88,104,37537,6,0,L|92:136,4,23.9999992675781,10|0|0|0|0,0:3|0:0|0:0|0:0|0:0,0:0:0:0:
200,364,37871,2,0,L|100:384,1,95.9999970703126,0|0,0:0|0:0,0:0:0:0:
340,216,38204,2,0,L|376:224,4,23.9999992675781,12|0|0|0|0,3:3|0:0|0:0|0:0|0:0,0:0:0:0:
220,72,38537,1,0,0:0:0:0:
56,248,38704,5,4,0:0:0:0:
