osu file format v5

[General]
AudioFilename: Witch_Hunter_Robin_OP.mp3
AudioLeadIn: 1963
PreviewTime: -1
Countdown: 1
SampleSet: Normal
StackLeniency: 0.7
Mode: 0
LetterboxInBreaks: 1

[Metadata]
Title:Shell (TV size)
Artist:Bana
Creator:running_lemon
Version:Easy
Source:Witch Hunter Robin
Tags:Witch Hunter Robin Bana Shell Anime

[Difficulty]
HPDrainRate:5
CircleSize:5
OverallDifficulty:5
SliderMultiplier:1.4
SliderTickRate:2

[Events]
//Background and Video events
1,0,"Witch Hunter Robin OP.AVI"
//Break Periods
//Storyboard Layer 0 (Background)
//Storyboard Layer 1 (Failing)
//Storyboard Layer 2 (Passing)
//Storyboard Layer 3 (Foreground)
//Storyboard Sound Samples
//Background Colour Transformations
3,100,163,162,255

[TimingPoints]
787,681.740711282809,4,1,0,100,1

[Colours]
Combo1 : 48,48,48
Combo2 : 166,139,83

[HitObjects]
128,80,787,1,0
128,160,1468,1,0
128,240,2150,1,0
128,240,2491,1,0
176,304,3173,1,0
208,336,3854,1,0
256,352,4536,1,0
304,352,5218,1,0
384,272,6240,5,0
320,224,6922,1,0
304,144,7604,1,0
352,144,7945,2,0,B|362:206|396:228|464:224,5,140
464,128,12376,5,0
384,192,13058,1,0
304,128,13740,1,0
384,128,14421,2,0,B|308:193|308:193|336:256|336:256|208:256,1,280
224,144,16467,5,0
224,80,16807,1,0
176,112,17148,1,0
288,144,17830,1,0
256,192,18171,1,0
192,192,18512,1,0
288,240,19193,1,0
336,272,19534,1,0
288,304,19875,1,0
96,96,21580,5,0
96,128,21920,1,0
96,240,22602,6,0,B|96:288|96:288|160:288|160:288|160:240,1,140
272,240,23966,2,0,B|336:224|320:144|288:112,1,140
400,96,25329,2,0,B|400:160|400:160|432:160|432:160|368:160,1,140
400,256,26693,5,0
352,224,27034,1,0
304,240,27374,1,0
304,128,28056,1,0
256,160,28397,1,0
208,128,28738,1,0
208,240,29420,1,0
160,224,29760,1,0
112,256,30101,1,0
256,80,31465,5,0
320,144,32147,1,0
256,208,32828,1,0
192,272,33510,1,0
256,336,34192,1,0
256,192,34533,12,0,38282
256,192,38964,1,0
320,256,39646,1,0
256,192,40327,1,0
256,192,41691,5,0
192,256,42373,1,0
256,192,43054,1,0
160,128,44418,5,0
208,80,44759,1,0
208,128,45100,1,0
304,128,45781,1,0
304,80,46122,1,0
352,128,46463,1,0
256,128,47145,2,0,B|256:208,4,70
368,256,49872,5,0
256,256,50554,1,0
160,192,51235,1,0
160,192,52599,2,0,B|272:112|272:112|416:112,1,280
192,192,55326,2,0,B|192:112,2,70
304,192,56689,2,0,B|224:192,2,70
304,80,58053,2,0,B|336:112|304:160,4,70
384,192,60780,5,0
320,256,61462,1,0
256,192,62143,1,0
192,128,62825,1,0
128,192,63507,1,0
256,192,63848,12,0,68961
128,64,70324,1,0
208,144,71006,1,0
320,176,71688,1,0
432,192,72369,1,0
400,240,72710,1,0
352,256,73051,1,0
304,256,73392,1,0
320,208,73733,1,0
208,192,74414,1,0
128,112,75096,5,0
400,96,76801,1,0
400,144,77141,1,0
368,192,78505,1,0
256,192,79187,1,0
144,192,79868,1,0
160,240,80209,1,0
208,256,80550,1,0
416,256,81914,1,0
352,160,82595,1,0
256,112,83277,1,0
224,192,85322,6,0,B|304:192,5,70
