osu file format v14

[General]
AudioFilename: BanYa remixed by DM Ashura - Ignis Fatuus.mp3
AudioLeadIn: 0
PreviewTime: 37090
Countdown: 0
SampleSet: Normal
StackLeniency: 0.7
Mode: 1
LetterboxInBreaks: 0
WidescreenStoryboard: 1

[Editor]
Bookmarks: 17454,37090,54545,72000,91636
DistanceSpacing: 0.8
BeatDivisor: 4
GridSize: 16
TimelineZoom: 2.799999

[Metadata]
Title:Ignis Fatuus
TitleUnicode:Ignis Fatuus
Artist:BanYa remixed by DM Ashura
ArtistUnicode:BanYa remixed by DM Ashura
Creator:Eyenine
Version:Light Oni
Source:Pump It Up Fiesta 2
Tags:will o' the wisp PIU Infinity
BeatmapID:711964
BeatmapSetID:309161

[Difficulty]
HPDrainRate:5
CircleSize:5
OverallDifficulty:5
ApproachRate:5
SliderMultiplier:1.4
SliderTickRate:1

[Events]
//Background and Video events
0,0,"will_o___the_wisp_by_oxeren-d36old2.jpg",0,0
//Break Periods
//Storyboard Layer 0 (Background)
//Storyboard Layer 1 (Fail)
//Storyboard Layer 2 (Pass)
//Storyboard Layer 3 (Foreground)
//Storyboard Sound Samples

[TimingPoints]
0,272.727272727273,4,1,0,100,1,0
136,-133.333333333333,4,1,0,100,0,0
17454,-100,4,1,0,100,0,0
91636,-100,4,1,0,100,0,1
112363,-100,4,1,0,100,0,0

[HitObjects]
256,192,8727,5,0,0:0:0:0:
256,192,8863,1,0,0:0:0:0:
256,192,9000,1,8,0:0:0:0:
256,192,9272,1,0,0:0:0:0:
256,192,9409,1,8,0:0:0:0:
256,192,9681,1,0,0:0:0:0:
256,192,9954,1,0,0:0:0:0:
256,192,10091,1,8,0:0:0:0:
256,192,10363,1,0,0:0:0:0:
256,192,10500,1,8,0:0:0:0:
256,192,10772,1,0,0:0:0:0:
256,192,11045,1,0,0:0:0:0:
256,192,11182,1,8,0:0:0:0:
256,192,11454,1,0,0:0:0:0:
256,192,11591,1,8,0:0:0:0:
256,192,11863,1,0,0:0:0:0:
256,192,12136,1,0,0:0:0:0:
256,192,12273,1,8,0:0:0:0:
256,192,12545,1,0,0:0:0:0:
256,192,12682,1,8,0:0:0:0:
256,192,12954,1,0,0:0:0:0:
256,192,13227,1,0,0:0:0:0:
256,192,13363,1,8,0:0:0:0:
256,192,13636,1,0,0:0:0:0:
256,192,13772,1,8,0:0:0:0:
256,192,14045,1,8,0:0:0:0:
256,192,14318,1,0,0:0:0:0:
256,192,14454,1,8,0:0:0:0:
256,192,14727,1,0,0:0:0:0:
256,192,14863,1,8,0:0:0:0:
256,192,15136,1,8,0:0:0:0:
256,192,15545,12,0,17181,0:0:0:0:
256,192,17454,5,0,0:0:0:0:
256,192,17727,1,8,0:0:0:0:
256,192,17863,1,0,0:0:0:0:
256,192,18136,1,8,0:0:0:0:
256,192,18272,1,0,0:0:0:0:
256,192,18545,1,0,0:0:0:0:
256,192,18681,1,0,0:0:0:0:
256,192,18818,1,8,0:0:0:0:
256,192,18954,1,0,0:0:0:0:
256,192,19227,1,8,0:0:0:0:
256,192,19363,1,0,0:0:0:0:
256,192,19636,1,0,0:0:0:0:
256,192,19909,1,8,0:0:0:0:
256,192,20045,1,0,0:0:0:0:
256,192,20318,1,8,0:0:0:0:
256,192,20454,1,0,0:0:0:0:
256,192,20727,1,0,0:0:0:0:
256,192,20863,1,0,0:0:0:0:
256,192,21000,1,8,0:0:0:0:
256,192,21136,1,0,0:0:0:0:
256,192,21409,1,8,0:0:0:0:
256,192,21545,1,0,0:0:0:0:
256,192,21681,1,0,0:0:0:0:
256,192,21818,1,0,0:0:0:0:
256,192,22090,1,8,0:0:0:0:
256,192,22227,1,0,0:0:0:0:
256,192,22500,1,8,0:0:0:0:
256,192,22636,1,0,0:0:0:0:
256,192,22909,1,0,0:0:0:0:
256,192,23045,1,0,0:0:0:0:
256,192,23181,1,8,0:0:0:0:
256,192,23318,1,0,0:0:0:0:
256,192,23590,1,8,0:0:0:0:
256,192,23727,1,0,0:0:0:0:
256,192,24000,1,8,0:0:0:0:
256,192,24272,1,8,0:0:0:0:
256,192,24409,1,0,0:0:0:0:
256,192,24681,1,8,0:0:0:0:
256,192,24818,1,0,0:0:0:0:
256,192,25090,1,0,0:0:0:0:
256,192,25227,1,0,0:0:0:0:
256,192,25363,1,8,0:0:0:0:
256,192,25500,1,0,0:0:0:0:
256,192,25772,1,0,0:0:0:0:
256,192,25909,1,8,0:0:0:0:
256,192,26045,1,0,0:0:0:0:
256,192,26113,1,0,0:0:0:0:
256,192,26181,1,0,0:0:0:0:
256,192,26454,1,8,0:0:0:0:
256,192,26590,1,0,0:0:0:0:
256,192,26863,1,8,0:0:0:0:
256,192,27000,1,0,0:0:0:0:
256,192,27272,1,0,0:0:0:0:
256,192,27409,1,0,0:0:0:0:
256,192,27545,1,8,0:0:0:0:
256,192,27681,1,0,0:0:0:0:
256,192,27954,1,8,0:0:0:0:
256,192,28090,1,0,0:0:0:0:
256,192,28363,1,0,0:0:0:0:
256,192,28636,1,8,0:0:0:0:
256,192,28772,1,0,0:0:0:0:
256,192,29045,1,8,0:0:0:0:
256,192,29181,1,0,0:0:0:0:
256,192,29454,1,0,0:0:0:0:
256,192,29590,1,0,0:0:0:0:
256,192,29727,1,8,0:0:0:0:
256,192,29863,1,0,0:0:0:0:
256,192,30136,1,8,0:0:0:0:
256,192,30272,1,0,0:0:0:0:
256,192,30409,1,0,0:0:0:0:
256,192,30545,1,0,0:0:0:0:
192,256,30818,1,8,0:0:0:0:
256,192,30954,1,0,0:0:0:0:
256,192,31090,1,0,0:0:0:0:
192,256,31363,1,8,0:0:0:0:
256,192,31500,1,0,0:0:0:0:
256,192,31636,1,0,0:0:0:0:
192,256,31909,1,8,0:0:0:0:
256,192,32045,1,0,0:0:0:0:
256,192,32181,1,0,0:0:0:0:
192,256,32454,1,8,0:0:0:0:
256,192,32590,1,0,0:0:0:0:
256,192,32727,1,0,0:0:0:0:
256,192,32863,1,0,0:0:0:0:
256,192,33000,1,0,0:0:0:0:
256,192,33136,1,0,0:0:0:0:
256,192,33272,1,0,0:0:0:0:
256,192,33409,1,0,0:0:0:0:
256,192,33545,1,0,0:0:0:0:
256,192,33681,1,0,0:0:0:0:
256,192,33818,1,8,0:0:0:0:
240,128,33954,1,12,0:0:0:0:
224,128,34227,1,12,0:0:0:0:
224,128,34500,1,12,0:0:0:0:
224,128,34772,1,12,0:0:0:0:
256,192,35181,1,4,0:0:0:0:
256,192,35454,12,0,36818,0:0:0:0:
208,224,37090,5,4,0:0:0:0:
208,224,37363,1,8,0:0:0:0:
208,224,37500,1,8,0:0:0:0:
144,192,37568,1,8,0:0:0:0:
144,192,37636,1,0,0:0:0:0:
208,224,37772,1,8,0:0:0:0:
208,224,37909,1,0,0:0:0:0:
208,224,38181,1,0,0:0:0:0:
208,224,38318,1,8,0:0:0:0:
144,176,38386,1,8,0:0:0:0:
208,224,38454,1,0,0:0:0:0:
208,224,38590,1,8,0:0:0:0:
208,224,38727,1,8,0:0:0:0:
208,224,39000,1,8,0:0:0:0:
208,224,39272,1,0,0:0:0:0:
208,224,39545,1,8,0:0:0:0:
208,224,39681,1,0,0:0:0:0:
208,224,39750,1,0,0:0:0:0:
208,224,39818,1,8,0:0:0:0:
208,224,39954,1,8,0:0:0:0:
208,224,40090,1,0,0:0:0:0:
208,224,40363,1,0,0:0:0:0:
208,224,40500,1,8,0:0:0:0:
240,176,40568,1,8,0:0:0:0:
208,224,40636,1,8,0:0:0:0:
208,224,40772,1,0,0:0:0:0:
208,224,40909,1,8,0:0:0:0:
208,224,41181,1,8,0:0:0:0:
208,224,41454,1,0,0:0:0:0:
208,224,41522,1,0,0:0:0:0:
208,224,41590,1,0,0:0:0:0:
176,208,41659,1,0,0:0:0:0:
208,224,41727,1,8,0:0:0:0:
208,224,41863,1,8,0:0:0:0:
208,224,42136,1,0,0:0:0:0:
208,224,42272,1,8,0:0:0:0:
208,224,42545,1,0,0:0:0:0:
208,224,42613,1,0,0:0:0:0:
208,224,42681,1,0,0:0:0:0:
176,208,42750,1,0,0:0:0:0:
208,224,42818,1,8,0:0:0:0:
208,224,42954,1,8,0:0:0:0:
208,224,43227,1,0,0:0:0:0:
208,224,43363,1,8,0:0:0:0:
208,224,43500,1,0,0:0:0:0:
208,224,43636,1,0,0:0:0:0:
208,224,43704,1,0,0:0:0:0:
208,224,43772,1,0,0:0:0:0:
192,208,43840,1,0,0:0:0:0:
208,224,43909,1,8,0:0:0:0:
208,224,44045,1,8,0:0:0:0:
208,224,44318,1,0,0:0:0:0:
208,224,44454,1,8,0:0:0:0:
208,224,44727,1,0,0:0:0:0:
208,224,44863,1,8,0:0:0:0:
208,224,45000,1,8,0:0:0:0:
208,224,45068,1,8,0:0:0:0:
208,224,45136,1,8,0:0:0:0:
208,224,45272,1,0,0:0:0:0:
208,224,45409,1,8,0:0:0:0:
208,224,45545,1,8,0:0:0:0:
208,224,45681,1,0,0:0:0:0:
208,224,45750,1,0,0:0:0:0:
208,224,45818,1,0,0:0:0:0:
208,224,46090,1,8,0:0:0:0:
208,224,46227,1,8,0:0:0:0:
208,224,46295,1,8,0:0:0:0:
208,208,46363,1,0,0:0:0:0:
208,224,46500,1,8,0:0:0:0:
208,224,46636,1,0,0:0:0:0:
208,224,46909,1,0,0:0:0:0:
208,224,47045,1,8,0:0:0:0:
192,176,47113,1,8,0:0:0:0:
208,224,47181,1,0,0:0:0:0:
208,224,47318,1,0,0:0:0:0:
208,224,47454,1,8,0:0:0:0:
192,160,47522,1,8,0:0:0:0:
192,176,47590,1,0,0:0:0:0:
208,224,47727,1,8,0:0:0:0:
208,224,48000,1,0,0:0:0:0:
208,224,48272,1,8,0:0:0:0:
208,224,48409,1,8,0:0:0:0:
160,192,48477,1,8,0:0:0:0:
224,176,48545,1,0,0:0:0:0:
208,224,48681,1,8,0:0:0:0:
208,224,48818,1,0,0:0:0:0:
208,224,48886,1,0,0:0:0:0:
208,224,48954,1,0,0:0:0:0:
208,224,49090,1,0,0:0:0:0:
208,224,49227,1,8,0:0:0:0:
128,144,49295,1,8,0:0:0:0:
208,224,49363,1,8,0:0:0:0:
208,224,49500,1,0,0:0:0:0:
208,224,49636,1,8,0:0:0:0:
208,224,49772,1,0,0:0:0:0:
208,224,49909,1,8,0:0:0:0:
208,224,50181,1,0,0:0:0:0:
208,224,50250,1,0,0:0:0:0:
208,224,50318,1,0,0:0:0:0:
176,208,50386,1,0,0:0:0:0:
208,224,50454,1,8,0:0:0:0:
208,224,50590,1,8,0:0:0:0:
208,224,50863,1,0,0:0:0:0:
208,224,51000,1,8,0:0:0:0:
208,224,51272,1,0,0:0:0:0:
208,224,51340,1,0,0:0:0:0:
208,224,51409,1,0,0:0:0:0:
176,208,51477,1,0,0:0:0:0:
208,224,51545,1,8,0:0:0:0:
208,224,51681,1,8,0:0:0:0:
208,224,51954,1,0,0:0:0:0:
208,224,52090,1,8,0:0:0:0:
208,224,52363,1,0,0:0:0:0:
208,224,52500,1,8,0:0:0:0:
208,224,52636,1,0,0:0:0:0:
208,224,52772,1,8,0:0:0:0:
208,224,52909,1,0,0:0:0:0:
208,224,53045,1,8,0:0:0:0:
208,224,53181,1,0,0:0:0:0:
208,224,53318,1,8,0:0:0:0:
128,112,53454,2,0,L|208:128,7,70
230,180,54545,1,4,0:0:0:0:
230,180,54818,1,0,0:0:0:0:
230,180,55090,1,0,0:0:0:0:
230,180,55363,1,0,0:0:0:0:
230,180,55636,1,0,0:0:0:0:
230,180,55909,1,0,0:0:0:0:
230,180,56181,1,0,0:0:0:0:
230,180,56454,1,0,0:0:0:0:
256,192,56727,1,8,0:0:0:0:
230,180,57000,1,0,0:0:0:0:
230,180,57272,1,0,0:0:0:0:
230,180,57545,1,0,0:0:0:0:
230,180,57818,1,0,0:0:0:0:
230,180,58090,1,0,0:0:0:0:
230,180,58363,1,0,0:0:0:0:
230,180,58636,1,0,0:0:0:0:
230,180,58772,1,0,0:0:0:0:
230,180,58909,1,0,0:0:0:0:
230,180,59181,1,0,0:0:0:0:
230,180,59454,1,0,0:0:0:0:
230,180,59727,1,0,0:0:0:0:
230,180,60000,1,0,0:0:0:0:
230,180,60272,1,0,0:0:0:0:
230,180,60545,1,0,0:0:0:0:
230,180,60818,1,0,0:0:0:0:
230,180,61090,1,8,0:0:0:0:
230,180,61363,1,0,0:0:0:0:
230,180,61636,1,0,0:0:0:0:
230,180,61909,1,0,0:0:0:0:
230,180,62181,1,8,0:0:0:0:
230,180,62454,1,8,0:0:0:0:
230,180,62727,1,8,0:0:0:0:
230,180,63000,1,8,0:0:0:0:
230,180,63136,1,0,0:0:0:0:
230,180,63204,1,0,0:0:0:0:
230,180,63272,1,0,0:0:0:0:
230,180,63545,1,0,0:0:0:0:
230,180,63818,1,0,0:0:0:0:
230,180,64090,1,0,0:0:0:0:
230,180,64363,1,0,0:0:0:0:
230,180,64636,1,0,0:0:0:0:
230,180,64909,1,0,0:0:0:0:
230,180,65181,1,0,0:0:0:0:
256,192,65454,1,8,0:0:0:0:
230,180,65727,1,0,0:0:0:0:
230,180,66000,1,0,0:0:0:0:
230,180,66272,1,0,0:0:0:0:
230,180,66545,1,0,0:0:0:0:
230,180,66818,1,0,0:0:0:0:
230,180,67090,1,0,0:0:0:0:
230,180,67363,1,0,0:0:0:0:
230,180,67500,1,0,0:0:0:0:
230,180,67636,1,0,0:0:0:0:
230,180,67909,1,0,0:0:0:0:
230,180,68181,1,0,0:0:0:0:
230,180,68454,1,0,0:0:0:0:
230,180,68727,1,0,0:0:0:0:
230,180,69000,1,0,0:0:0:0:
230,180,69272,1,0,0:0:0:0:
230,180,69545,1,0,0:0:0:0:
230,180,69818,1,8,0:0:0:0:
230,180,70090,1,0,0:0:0:0:
230,180,70363,1,0,0:0:0:0:
230,180,70636,1,0,0:0:0:0:
230,180,70909,1,8,0:0:0:0:
230,180,71181,1,8,0:0:0:0:
230,180,71454,1,8,0:0:0:0:
230,180,71727,1,8,0:0:0:0:
230,180,71863,1,0,0:0:0:0:
230,180,71931,1,0,0:0:0:0:
230,180,72000,1,0,0:0:0:0:
230,180,74181,1,0,0:0:0:0:
288,224,74317,1,0,0:0:0:0:
288,224,74590,1,8,0:0:0:0:
288,224,74726,1,0,0:0:0:0:
288,224,74999,1,0,0:0:0:0:
288,224,75135,1,0,0:0:0:0:
288,224,75271,1,8,0:0:0:0:
288,224,75408,1,0,0:0:0:0:
288,224,75681,1,0,0:0:0:0:
192,240,75750,1,0,0:0:0:0:
288,224,75817,1,0,0:0:0:0:
288,224,75953,1,0,0:0:0:0:
288,224,76090,1,8,0:0:0:0:
256,208,78545,1,0,0:0:0:0:
192,240,78613,1,0,0:0:0:0:
256,208,78682,1,8,0:0:0:0:
256,208,78955,1,8,0:0:0:0:
192,240,79022,1,8,0:0:0:0:
256,208,79091,1,0,0:0:0:0:
272,208,79363,1,0,0:0:0:0:
272,208,79500,1,8,0:0:0:0:
272,208,79636,1,8,0:0:0:0:
192,240,79704,1,8,0:0:0:0:
272,208,79772,1,0,0:0:0:0:
256,208,80045,1,0,0:0:0:0:
192,240,80113,1,0,0:0:0:0:
256,208,80182,1,0,0:0:0:0:
256,208,80318,1,0,0:0:0:0:
256,208,80454,1,8,0:0:0:0:
208,208,81818,1,0,0:0:0:0:
208,208,81954,1,0,0:0:0:0:
192,240,82022,1,0,0:0:0:0:
208,208,82091,1,0,0:0:0:0:
208,208,82227,1,8,0:0:0:0:
208,208,82500,1,0,0:0:0:0:
208,208,82636,1,8,0:0:0:0:
288,208,84000,1,0,0:0:0:0:
192,240,84068,1,0,0:0:0:0:
288,208,84136,1,0,0:0:0:0:
192,240,84204,1,0,0:0:0:0:
288,208,84272,1,0,0:0:0:0:
288,208,84409,1,8,0:0:0:0:
288,208,84681,1,0,0:0:0:0:
192,240,84750,1,0,0:0:0:0:
288,208,84818,1,8,0:0:0:0:
192,192,85090,1,0,0:0:0:0:
192,192,85227,1,0,0:0:0:0:
192,192,85363,1,12,0:0:0:0:
192,192,85636,1,0,0:0:0:0:
192,192,85772,1,0,0:0:0:0:
192,192,85909,1,12,0:0:0:0:
192,192,86181,1,0,0:0:0:0:
192,192,86318,1,0,0:0:0:0:
192,192,86454,1,12,0:0:0:0:
192,192,86727,1,0,0:0:0:0:
192,192,86863,1,0,0:0:0:0:
192,192,87000,1,12,0:0:0:0:
192,192,87272,1,0,0:0:0:0:
240,208,87409,1,0,0:0:0:0:
192,192,87545,1,0,0:0:0:0:
240,208,87681,1,0,0:0:0:0:
192,192,87818,1,0,0:0:0:0:
240,208,87954,1,0,0:0:0:0:
192,192,88090,1,0,0:0:0:0:
240,208,88227,1,0,0:0:0:0:
192,192,88363,1,12,0:0:0:0:
192,192,88636,1,12,0:0:0:0:
192,192,88909,1,12,0:0:0:0:
192,192,89181,1,12,0:0:0:0:
256,192,89454,12,0,91363,0:0:0:0:
256,192,91636,5,4,0:0:0:0:
256,192,91909,1,8,0:0:0:0:
256,192,92045,1,0,0:0:0:0:
160,208,92113,1,0,0:0:0:0:
256,192,92181,1,0,0:0:0:0:
256,192,92318,1,0,0:0:0:0:
256,192,92454,1,8,0:0:0:0:
256,192,92727,1,8,0:0:0:0:
256,192,92863,1,8,0:0:0:0:
256,192,93000,1,0,0:0:0:0:
176,192,93068,1,0,0:0:0:0:
256,192,93136,1,0,0:0:0:0:
256,192,93272,1,8,0:0:0:0:
256,192,93409,1,0,0:0:0:0:
256,192,93545,1,8,0:0:0:0:
192,224,93613,1,8,0:0:0:0:
256,192,93681,1,0,0:0:0:0:
256,192,93818,1,0,0:0:0:0:
256,192,94090,1,8,0:0:0:0:
256,192,94227,1,0,0:0:0:0:
240,256,94295,1,0,0:0:0:0:
192,224,94363,1,8,0:0:0:0:
256,192,94500,1,0,0:0:0:0:
256,192,94636,1,8,0:0:0:0:
256,192,94909,1,8,0:0:0:0:
160,208,95045,1,0,0:0:0:0:
160,208,95181,1,8,0:0:0:0:
160,208,95250,1,8,0:0:0:0:
256,192,95318,1,0,0:0:0:0:
256,192,95454,1,8,0:0:0:0:
256,192,95590,1,0,0:0:0:0:
256,192,95727,1,0,0:0:0:0:
176,192,95795,1,0,0:0:0:0:
176,192,95863,1,0,0:0:0:0:
256,192,96000,1,8,0:0:0:0:
256,192,96136,1,8,0:0:0:0:
256,192,96272,1,0,0:0:0:0:
256,192,96409,1,8,0:0:0:0:
256,192,96545,1,0,0:0:0:0:
256,256,96613,1,0,0:0:0:0:
256,192,96681,1,0,0:0:0:0:
256,192,96818,1,8,0:0:0:0:
144,176,96954,1,0,0:0:0:0:
256,192,97090,1,8,0:0:0:0:
144,176,97227,1,8,0:0:0:0:
128,128,97363,1,0,0:0:0:0:
128,128,97431,1,0,0:0:0:0:
256,192,97500,1,0,0:0:0:0:
256,192,97636,1,8,0:0:0:0:
256,192,97772,1,0,0:0:0:0:
256,192,97909,1,0,0:0:0:0:
256,192,98181,1,0,0:0:0:0:
256,192,98318,1,0,0:0:0:0:
256,192,98454,1,8,0:0:0:0:
256,192,98727,1,0,0:0:0:0:
256,192,98863,1,8,0:0:0:0:
256,192,99136,1,8,0:0:0:0:
256,192,99272,1,0,0:0:0:0:
256,192,99409,1,0,0:0:0:0:
256,192,99545,1,8,0:0:0:0:
224,192,99613,1,8,0:0:0:0:
256,192,99681,1,0,0:0:0:0:
256,192,99818,1,8,0:0:0:0:
256,192,99954,1,0,0:0:0:0:
256,192,100090,1,8,0:0:0:0:
256,192,100227,1,0,0:0:0:0:
256,192,100295,1,0,0:0:0:0:
256,192,100363,1,0,0:0:0:0:
256,192,100636,1,8,0:0:0:0:
256,192,100909,1,8,0:0:0:0:
256,192,101045,1,0,0:0:0:0:
256,192,101318,1,8,0:0:0:0:
176,240,101386,1,8,0:0:0:0:
256,192,101454,1,0,0:0:0:0:
256,192,101590,1,0,0:0:0:0:
256,192,101727,1,8,0:0:0:0:
256,192,101863,1,0,0:0:0:0:
256,192,102000,1,8,0:0:0:0:
256,192,102136,1,8,0:0:0:0:
256,192,102409,1,8,0:0:0:0:
272,240,102477,1,8,0:0:0:0:
256,192,102545,1,0,0:0:0:0:
256,192,102681,1,0,0:0:0:0:
256,192,102818,1,8,0:0:0:0:
256,192,103090,1,8,0:0:0:0:
256,192,103227,1,8,0:0:0:0:
256,192,103363,1,0,0:0:0:0:
256,192,103500,1,8,0:0:0:0:
224,272,103568,1,8,0:0:0:0:
256,192,103636,1,0,0:0:0:0:
256,192,103772,1,0,0:0:0:0:
256,192,103909,1,8,0:0:0:0:
160,160,104045,1,0,0:0:0:0:
256,192,104181,1,8,0:0:0:0:
208,272,104250,1,8,0:0:0:0:
256,192,104318,1,8,0:0:0:0:
208,272,104454,1,8,0:0:0:0:
256,192,104590,1,0,0:0:0:0:
256,192,104727,1,0,0:0:0:0:
256,192,105136,1,0,0:0:0:0:
256,192,105272,1,0,0:0:0:0:
256,192,105681,1,0,0:0:0:0:
256,192,105818,1,0,0:0:0:0:
256,192,106227,1,0,0:0:0:0:
256,192,106363,1,0,0:0:0:0:
256,192,106772,1,0,0:0:0:0:
256,192,106909,1,0,0:0:0:0:
256,192,107181,1,8,0:0:0:0:
256,192,107454,1,8,0:0:0:0:
256,192,107727,1,0,0:0:0:0:
256,192,107863,1,8,0:0:0:0:
256,192,108000,1,4,0:0:0:0:
256,192,108136,1,0,0:0:0:0:
256,192,108272,1,0,0:0:0:0:
256,192,108409,1,0,0:0:0:0:
256,192,108545,1,12,0:0:0:0:
256,192,108818,1,12,0:0:0:0:
256,192,109090,1,4,0:0:0:0:
256,192,109226,1,0,0:0:0:0:
256,192,109362,1,0,0:0:0:0:
256,192,109499,1,0,0:0:0:0:
256,192,109635,1,12,0:0:0:0:
256,192,109908,1,12,0:0:0:0:
256,192,110181,1,4,0:0:0:0:
256,192,110318,1,0,0:0:0:0:
256,192,110454,1,12,0:0:0:0:
256,192,110727,1,4,0:0:0:0:
256,192,110863,1,0,0:0:0:0:
256,192,111000,1,12,0:0:0:0:
128,128,111272,2,0,L|224:128,7,70
256,192,112909,1,4,0:0:0:0:
256,192,113045,12,0,116727,0:0:0:0:
