osu file format v14

[General]
AudioFilename: BanYa remixed by DM Ashura - Ignis Fatuus.mp3
AudioLeadIn: 0
PreviewTime: 37090
Countdown: 0
SampleSet: Normal
StackLeniency: 0.7
Mode: 1
LetterboxInBreaks: 0
WidescreenStoryboard: 0

[Editor]
Bookmarks: 17454,37090,54545,72000,91636
DistanceSpacing: 0.8
BeatDivisor: 4
GridSize: 16
TimelineZoom: 2.799999

[Metadata]
Title:Ignis Fatuus
TitleUnicode:Ignis Fatuus
Artist:BanYa remixed by DM Ashura
ArtistUnicode:BanYa remixed by DM Ashura
Creator:Eyenine
Version:Inner Oni
Source:Pump It Up Fiesta 2
Tags:will o' the wisp PIU Infinity
BeatmapID:691239
BeatmapSetID:309161

[Difficulty]
HPDrainRate:6
CircleSize:5
OverallDifficulty:6
ApproachRate:5
SliderMultiplier:1.4
SliderTickRate:1

[Events]
//Background and Video events
0,0,"will_o___the_wisp_by_oxeren-d36old2.jpg",0,0
//Break Periods
//Storyboard Layer 0 (Background)
//Storyboard Layer 1 (Fail)
//Storyboard Layer 2 (Pass)
//Storyboard Layer 3 (Foreground)
//Storyboard Sound Samples

[TimingPoints]
0,272.727272727273,4,1,0,100,1,0
136,-133.333333333333,4,1,0,100,0,0
17454,-100,4,1,0,100,0,0
72000,-200,4,1,0,100,0,0
74181,-100,4,1,0,100,0,0
76363,-200,4,1,0,100,0,0
78545,-100,4,1,0,100,0,0
80727,-200,4,1,0,100,0,0
81818,-100,4,1,0,100,0,0
82909,-200,4,1,0,100,0,0
84000,-100,4,1,0,100,0,0
85090,-200,4,1,0,100,0,0
85636,-181.818181818182,4,1,0,100,0,0
86181,-166.666666666667,4,1,0,100,0,0
86727,-153.846153846154,4,1,0,100,0,0
87272,-142.857142857143,4,1,0,100,0,0
87545,-133.333333333333,4,1,0,100,0,0
87818,-125,4,1,0,100,0,0
88090,-117.647058823529,4,1,0,100,0,0
88363,-100,4,1,0,100,0,0
88500,-88.8888888888889,4,1,0,100,0,0
88636,-80,4,1,0,100,0,0
88772,-72.463768115942,4,1,0,100,0,0
88909,-66.6666666666667,4,1,0,100,0,0
89045,-61.3496932515337,4,1,0,100,0,0
89181,-57.1428571428571,4,1,0,100,0,0
89318,-53.1914893617021,4,1,0,100,0,0
89454,-50,4,1,0,100,0,0
91636,-100,4,1,0,100,0,1
112363,-100,4,1,0,100,0,0

[HitObjects]
256,192,8727,5,0,0:0:0:0:
256,192,8863,1,0,0:0:0:0:
256,192,9000,1,8,0:0:0:0:
192,192,9272,1,0,0:0:0:0:
192,192,9409,1,8,0:0:0:0:
192,192,9681,1,0,0:0:0:0:
256,192,9954,1,0,0:0:0:0:
256,192,10091,1,8,0:0:0:0:
192,192,10363,1,0,0:0:0:0:
192,192,10500,1,8,0:0:0:0:
192,192,10772,1,0,0:0:0:0:
256,192,11045,1,0,0:0:0:0:
256,192,11182,1,8,0:0:0:0:
192,192,11454,1,0,0:0:0:0:
192,192,11591,1,8,0:0:0:0:
192,192,11863,1,0,0:0:0:0:
256,192,12136,1,0,0:0:0:0:
256,192,12273,1,8,0:0:0:0:
192,192,12545,1,0,0:0:0:0:
192,192,12682,1,8,0:0:0:0:
192,192,12954,1,0,0:0:0:0:
128,176,13227,1,0,0:0:0:0:
128,176,13363,1,8,0:0:0:0:
144,176,13636,1,0,0:0:0:0:
144,176,13772,1,8,0:0:0:0:
144,176,13909,1,0,0:0:0:0:
144,176,14045,1,8,0:0:0:0:
128,176,14318,1,0,0:0:0:0:
128,176,14454,1,8,0:0:0:0:
144,176,14727,1,0,0:0:0:0:
144,176,14863,1,8,0:0:0:0:
144,176,15000,1,0,0:0:0:0:
144,176,15136,1,8,0:0:0:0:
256,192,15545,12,0,17318,0:0:0:0:
208,208,17454,5,0,0:0:0:0:
208,208,17727,1,8,0:0:0:0:
208,208,17863,1,0,0:0:0:0:
304,208,18136,1,8,0:0:0:0:
304,208,18272,1,0,0:0:0:0:
304,240,18545,1,0,0:0:0:0:
288,240,18681,1,0,0:0:0:0:
288,240,18818,1,8,0:0:0:0:
288,240,18954,1,0,0:0:0:0:
288,240,19227,1,8,0:0:0:0:
304,240,19363,1,0,0:0:0:0:
304,240,19636,1,0,0:0:0:0:
304,240,19772,1,0,0:0:0:0:
304,240,19909,1,8,0:0:0:0:
304,240,20045,1,0,0:0:0:0:
304,240,20318,1,8,0:0:0:0:
304,240,20454,1,0,0:0:0:0:
304,240,20727,1,0,0:0:0:0:
304,240,20863,1,0,0:0:0:0:
304,240,21000,1,8,0:0:0:0:
304,240,21136,1,0,0:0:0:0:
208,240,21204,1,0,0:0:0:0:
304,240,21272,1,0,0:0:0:0:
304,240,21409,1,8,0:0:0:0:
304,240,21545,1,0,0:0:0:0:
304,240,21681,1,0,0:0:0:0:
304,240,21818,1,0,0:0:0:0:
320,240,22090,1,8,0:0:0:0:
320,240,22227,1,0,0:0:0:0:
320,240,22500,1,8,0:0:0:0:
320,240,22636,1,0,0:0:0:0:
240,192,22909,1,0,0:0:0:0:
240,192,23045,1,0,0:0:0:0:
240,192,23181,1,8,0:0:0:0:
240,192,23318,1,0,0:0:0:0:
240,192,23590,1,8,0:0:0:0:
240,192,23727,1,0,0:0:0:0:
224,272,24000,1,0,0:0:0:0:
240,256,24136,1,0,0:0:0:0:
240,256,24272,1,8,0:0:0:0:
240,256,24409,1,0,0:0:0:0:
240,256,24681,1,8,0:0:0:0:
240,256,24818,1,0,0:0:0:0:
240,256,25090,1,0,0:0:0:0:
240,256,25227,1,0,0:0:0:0:
256,256,25363,1,8,0:0:0:0:
256,256,25500,1,0,0:0:0:0:
256,256,25568,1,0,0:0:0:0:
256,256,25636,1,0,0:0:0:0:
256,256,25772,1,8,0:0:0:0:
256,256,25909,1,8,0:0:0:0:
256,256,26045,1,0,0:0:0:0:
256,256,26113,1,0,0:0:0:0:
256,256,26181,1,0,0:0:0:0:
192,224,26454,1,8,0:0:0:0:
192,224,26590,1,0,0:0:0:0:
192,224,26863,1,8,0:0:0:0:
192,224,27000,1,0,0:0:0:0:
304,208,27272,1,8,0:0:0:0:
304,208,27409,1,0,0:0:0:0:
272,224,27545,1,8,0:0:0:0:
272,224,27681,1,0,0:0:0:0:
272,208,27750,1,0,0:0:0:0:
272,224,27818,1,0,0:0:0:0:
272,224,27954,1,8,0:0:0:0:
272,224,28090,1,0,0:0:0:0:
272,208,28363,1,0,0:0:0:0:
272,224,28500,1,0,0:0:0:0:
224,224,28636,1,8,0:0:0:0:
224,224,28772,1,0,0:0:0:0:
192,224,29045,1,8,0:0:0:0:
192,224,29181,1,0,0:0:0:0:
208,208,29454,1,0,0:0:0:0:
208,208,29590,1,0,0:0:0:0:
224,208,29727,1,8,0:0:0:0:
224,208,29863,1,0,0:0:0:0:
208,208,29931,1,0,0:0:0:0:
224,208,30000,1,0,0:0:0:0:
224,208,30136,1,8,0:0:0:0:
224,208,30204,1,8,0:0:0:0:
224,208,30272,1,0,0:0:0:0:
224,208,30409,1,0,0:0:0:0:
224,208,30545,1,0,0:0:0:0:
192,144,30818,1,8,0:0:0:0:
192,144,30954,1,0,0:0:0:0:
192,144,31090,1,0,0:0:0:0:
144,208,31363,1,8,0:0:0:0:
144,208,31500,1,0,0:0:0:0:
144,208,31636,1,0,0:0:0:0:
144,208,31909,1,8,0:0:0:0:
144,208,32045,1,0,0:0:0:0:
144,208,32181,1,0,0:0:0:0:
144,208,32454,1,8,0:0:0:0:
144,208,32590,1,0,0:0:0:0:
144,208,32727,1,0,0:0:0:0:
144,208,32863,1,0,0:0:0:0:
144,208,33000,1,0,0:0:0:0:
144,208,33136,1,0,0:0:0:0:
144,208,33272,1,0,0:0:0:0:
144,208,33409,1,0,0:0:0:0:
144,208,33545,1,0,0:0:0:0:
144,208,33681,1,0,0:0:0:0:
256,208,33818,1,8,0:0:0:0:
256,208,33954,1,8,0:0:0:0:
256,208,34022,1,8,0:0:0:0:
256,208,34090,1,8,0:0:0:0:
256,208,34227,1,8,0:0:0:0:
256,208,34295,1,8,0:0:0:0:
256,208,34363,1,8,0:0:0:0:
256,208,34500,1,8,0:0:0:0:
256,208,34568,1,8,0:0:0:0:
256,208,34636,1,8,0:0:0:0:
256,208,34772,1,8,0:0:0:0:
256,208,34840,1,8,0:0:0:0:
256,208,34909,1,0,0:0:0:0:
256,208,35181,1,4,0:0:0:0:
128,192,35454,2,4,L|192:160,11,70
256,224,37090,1,4,0:0:0:0:
352,256,37363,1,8,0:0:0:0:
272,304,37500,1,8,0:0:0:0:
272,304,37568,1,8,0:0:0:0:
272,304,37636,1,0,0:0:0:0:
288,304,37772,1,0,0:0:0:0:
288,304,37909,1,8,0:0:0:0:
288,304,37977,1,0,0:0:0:0:
288,304,38045,1,8,0:0:0:0:
272,304,38181,1,0,0:0:0:0:
256,304,38318,1,8,0:0:0:0:
256,304,38386,1,0,0:0:0:0:
256,304,38454,1,8,0:0:0:0:
256,304,38522,1,0,0:0:0:0:
256,304,38590,1,8,0:0:0:0:
256,304,38727,1,8,0:0:0:0:
256,304,38795,1,0,0:0:0:0:
256,304,38863,1,0,0:0:0:0:
256,304,39000,1,8,0:0:0:0:
320,208,39272,1,0,0:0:0:0:
320,208,39340,1,0,0:0:0:0:
320,208,39409,1,0,0:0:0:0:
256,240,39545,1,8,0:0:0:0:
256,240,39681,1,8,0:0:0:0:
256,240,39750,1,8,0:0:0:0:
256,240,39818,1,0,0:0:0:0:
176,240,39954,1,8,0:0:0:0:
176,240,40090,1,0,0:0:0:0:
176,240,40159,1,8,0:0:0:0:
176,240,40227,1,0,0:0:0:0:
448,192,40363,1,0,0:0:0:0:
416,272,40500,1,8,0:0:0:0:
416,272,40568,1,0,0:0:0:0:
416,272,40636,1,8,0:0:0:0:
416,272,40704,1,8,0:0:0:0:
416,272,40772,1,0,0:0:0:0:
176,160,40909,1,8,0:0:0:0:
176,160,40977,1,8,0:0:0:0:
176,160,41045,1,0,0:0:0:0:
176,160,41181,1,8,0:0:0:0:
176,160,41250,1,0,0:0:0:0:
176,160,41318,1,8,0:0:0:0:
320,176,41454,1,0,0:0:0:0:
320,176,41522,1,0,0:0:0:0:
320,176,41590,1,0,0:0:0:0:
320,176,41659,1,0,0:0:0:0:
320,176,41727,1,8,0:0:0:0:
272,224,41863,1,8,0:0:0:0:
128,144,41931,1,8,0:0:0:0:
272,224,42000,1,0,0:0:0:0:
272,224,42136,1,0,0:0:0:0:
272,224,42272,1,8,0:0:0:0:
224,256,42545,1,0,0:0:0:0:
224,256,42613,1,0,0:0:0:0:
224,256,42681,1,0,0:0:0:0:
224,256,42750,1,0,0:0:0:0:
224,256,42818,1,8,0:0:0:0:
288,272,42954,1,8,0:0:0:0:
224,144,43022,1,8,0:0:0:0:
288,272,43090,1,0,0:0:0:0:
288,272,43227,1,0,0:0:0:0:
288,272,43363,1,8,0:0:0:0:
416,240,43500,1,8,0:0:0:0:
416,240,43568,1,8,0:0:0:0:
416,240,43636,1,0,0:0:0:0:
416,240,43704,1,0,0:0:0:0:
416,240,43772,1,0,0:0:0:0:
416,240,43840,1,0,0:0:0:0:
416,240,43909,1,8,0:0:0:0:
208,224,44045,1,8,0:0:0:0:
208,224,44113,1,8,0:0:0:0:
208,224,44181,1,0,0:0:0:0:
192,208,44318,1,0,0:0:0:0:
192,208,44454,1,8,0:0:0:0:
288,192,44727,1,0,0:0:0:0:
288,192,44863,1,0,0:0:0:0:
160,144,45000,1,8,0:0:0:0:
240,160,45068,1,0,0:0:0:0:
240,160,45136,1,0,0:0:0:0:
240,160,45204,1,0,0:0:0:0:
240,160,45272,1,8,0:0:0:0:
176,144,45409,1,8,0:0:0:0:
176,144,45545,1,8,0:0:0:0:
176,144,45681,1,0,0:0:0:0:
176,144,45750,1,0,0:0:0:0:
176,144,45818,1,0,0:0:0:0:
176,208,46090,1,8,0:0:0:0:
176,208,46227,1,0,0:0:0:0:
176,208,46295,1,0,0:0:0:0:
176,208,46363,1,0,0:0:0:0:
176,208,46500,1,8,0:0:0:0:
176,208,46636,1,0,0:0:0:0:
144,192,46704,1,8,0:0:0:0:
176,208,46772,1,0,0:0:0:0:
192,208,46909,1,0,0:0:0:0:
192,208,47045,1,8,0:0:0:0:
192,208,47113,1,0,0:0:0:0:
192,208,47181,1,8,0:0:0:0:
208,192,47250,1,0,0:0:0:0:
208,192,47318,1,8,0:0:0:0:
208,192,47454,1,8,0:0:0:0:
208,192,47522,1,8,0:0:0:0:
208,192,47590,1,0,0:0:0:0:
208,192,47727,1,8,0:0:0:0:
224,192,47795,1,0,0:0:0:0:
224,192,47863,1,8,0:0:0:0:
224,192,48000,1,0,0:0:0:0:
208,208,48068,1,0,0:0:0:0:
224,192,48136,1,0,0:0:0:0:
224,192,48272,1,8,0:0:0:0:
288,224,48409,1,8,0:0:0:0:
288,224,48477,1,8,0:0:0:0:
288,224,48545,1,0,0:0:0:0:
240,224,48613,1,0,0:0:0:0:
240,224,48681,1,0,0:0:0:0:
240,224,48818,1,8,0:0:0:0:
240,224,48954,1,0,0:0:0:0:
352,256,49022,1,0,0:0:0:0:
240,240,49090,1,8,0:0:0:0:
240,240,49227,1,8,0:0:0:0:
240,240,49295,1,0,0:0:0:0:
240,240,49363,1,8,0:0:0:0:
240,240,49431,1,8,0:0:0:0:
240,240,49500,1,0,0:0:0:0:
256,224,49636,1,8,0:0:0:0:
272,224,49704,1,0,0:0:0:0:
272,224,49772,1,0,0:0:0:0:
272,224,49840,1,0,0:0:0:0:
272,224,49909,1,8,0:0:0:0:
272,224,50045,1,0,0:0:0:0:
256,224,50181,1,0,0:0:0:0:
256,224,50250,1,0,0:0:0:0:
256,224,50318,1,0,0:0:0:0:
256,224,50386,1,0,0:0:0:0:
256,224,50454,1,8,0:0:0:0:
352,224,50590,1,8,0:0:0:0:
352,224,50659,1,8,0:0:0:0:
288,272,50727,1,0,0:0:0:0:
288,272,50795,1,0,0:0:0:0:
352,224,50863,1,0,0:0:0:0:
288,272,51000,1,8,0:0:0:0:
288,272,51068,1,8,0:0:0:0:
288,272,51136,1,8,0:0:0:0:
288,272,51272,1,0,0:0:0:0:
288,272,51340,1,0,0:0:0:0:
288,272,51409,1,0,0:0:0:0:
288,272,51477,1,0,0:0:0:0:
288,272,51545,1,8,0:0:0:0:
288,256,51681,1,8,0:0:0:0:
288,256,51750,1,8,0:0:0:0:
288,256,51818,1,0,0:0:0:0:
288,256,51886,1,0,0:0:0:0:
288,256,51954,1,0,0:0:0:0:
288,256,52090,1,8,0:0:0:0:
288,256,52159,1,0,0:0:0:0:
288,256,52227,1,8,0:0:0:0:
304,240,52363,1,0,0:0:0:0:
304,240,52500,1,8,0:0:0:0:
304,240,52568,1,8,0:0:0:0:
304,240,52636,1,0,0:0:0:0:
304,240,52772,1,8,0:0:0:0:
304,240,52840,1,8,0:0:0:0:
304,240,52909,1,0,0:0:0:0:
288,240,53045,1,8,0:0:0:0:
288,240,53113,1,8,0:0:0:0:
288,240,53181,1,0,0:0:0:0:
288,240,53318,1,8,0:0:0:0:
288,240,53386,1,8,0:0:0:0:
288,240,53454,1,0,0:0:0:0:
288,240,53522,1,0,0:0:0:0:
304,240,53590,1,0,0:0:0:0:
304,240,53659,1,0,0:0:0:0:
304,240,53727,1,0,0:0:0:0:
304,240,53795,1,0,0:0:0:0:
304,240,53863,1,0,0:0:0:0:
304,240,53931,1,0,0:0:0:0:
304,240,54000,1,8,0:0:0:0:
304,240,54068,1,8,0:0:0:0:
304,240,54136,1,8,0:0:0:0:
304,240,54204,1,8,0:0:0:0:
304,240,54272,1,8,0:0:0:0:
304,240,54340,1,8,0:0:0:0:
304,240,54409,1,8,0:0:0:0:
288,224,54545,1,4,0:0:0:0:
256,192,54818,1,0,0:0:0:0:
192,224,55090,1,0,0:0:0:0:
192,224,55363,1,0,0:0:0:0:
192,224,55636,1,0,0:0:0:0:
192,208,55909,1,0,0:0:0:0:
192,208,56181,1,0,0:0:0:0:
192,208,56454,1,0,0:0:0:0:
192,208,56590,1,8,0:0:0:0:
192,208,56727,1,0,0:0:0:0:
208,208,57000,1,0,0:0:0:0:
304,192,57272,1,0,0:0:0:0:
304,192,57545,1,0,0:0:0:0:
272,224,57818,1,0,0:0:0:0:
272,224,57954,1,8,0:0:0:0:
272,224,58090,1,0,0:0:0:0:
272,224,58227,1,8,0:0:0:0:
272,224,58363,1,0,0:0:0:0:
272,224,58500,1,0,0:0:0:0:
272,224,58636,1,8,0:0:0:0:
272,224,58772,1,8,0:0:0:0:
272,224,58909,1,0,0:0:0:0:
256,224,59181,1,0,0:0:0:0:
256,224,59454,1,0,0:0:0:0:
256,224,59727,1,0,0:0:0:0:
256,208,60000,1,0,0:0:0:0:
256,208,60272,1,0,0:0:0:0:
240,224,60545,1,0,0:0:0:0:
240,224,60818,1,0,0:0:0:0:
256,224,61090,1,8,0:0:0:0:
256,208,61363,1,8,0:0:0:0:
256,208,61636,1,8,0:0:0:0:
256,208,61909,1,8,0:0:0:0:
256,208,62045,1,0,0:0:0:0:
256,208,62181,1,8,0:0:0:0:
256,208,62318,1,8,0:0:0:0:
256,208,62454,1,0,0:0:0:0:
256,208,62590,1,0,0:0:0:0:
256,208,62727,1,8,0:0:0:0:
256,208,62863,1,0,0:0:0:0:
256,208,63000,1,8,0:0:0:0:
256,208,63136,1,0,0:0:0:0:
256,208,63204,1,0,0:0:0:0:
256,208,63272,1,0,0:0:0:0:
256,192,63545,1,0,0:0:0:0:
256,192,63818,1,0,0:0:0:0:
256,192,64090,1,0,0:0:0:0:
240,208,64363,1,0,0:0:0:0:
240,208,64636,1,0,0:0:0:0:
240,208,64909,1,0,0:0:0:0:
240,208,65181,1,0,0:0:0:0:
240,208,65318,1,8,0:0:0:0:
240,208,65454,1,0,0:0:0:0:
240,192,65727,1,0,0:0:0:0:
240,192,66000,1,0,0:0:0:0:
240,192,66272,1,0,0:0:0:0:
240,176,66545,1,0,0:0:0:0:
240,176,66681,1,0,0:0:0:0:
240,176,66818,1,8,0:0:0:0:
240,176,66954,1,0,0:0:0:0:
240,176,67090,1,8,0:0:0:0:
240,176,67227,1,0,0:0:0:0:
240,176,67363,1,8,0:0:0:0:
240,160,67500,1,8,0:0:0:0:
240,160,67636,1,0,0:0:0:0:
240,160,67909,1,0,0:0:0:0:
240,160,68181,1,0,0:0:0:0:
240,160,68454,1,0,0:0:0:0:
224,160,68727,1,0,0:0:0:0:
224,160,69000,1,0,0:0:0:0:
224,160,69272,1,0,0:0:0:0:
240,160,69409,1,8,0:0:0:0:
176,112,69545,1,0,0:0:0:0:
176,112,69681,1,8,0:0:0:0:
176,112,69818,1,0,0:0:0:0:
208,208,69954,1,0,0:0:0:0:
208,208,70090,1,8,0:0:0:0:
208,208,70227,1,8,0:0:0:0:
208,208,70363,1,0,0:0:0:0:
208,208,70500,1,8,0:0:0:0:
208,208,70636,1,0,0:0:0:0:
208,208,70772,1,8,0:0:0:0:
208,208,70909,1,0,0:0:0:0:
224,176,71045,1,0,0:0:0:0:
208,160,71181,1,8,0:0:0:0:
224,160,71318,1,0,0:0:0:0:
224,160,71454,1,0,0:0:0:0:
224,160,71590,1,0,0:0:0:0:
224,160,71727,1,8,0:0:0:0:
256,208,72000,1,0,0:0:0:0:
256,208,72136,1,0,0:0:0:0:
256,208,72409,1,8,0:0:0:0:
256,208,72545,1,0,0:0:0:0:
256,208,72818,1,0,0:0:0:0:
256,208,72954,1,0,0:0:0:0:
256,208,73090,1,8,0:0:0:0:
256,208,73227,1,0,0:0:0:0:
256,208,73500,1,0,0:0:0:0:
256,208,73568,1,0,0:0:0:0:
256,208,73636,1,0,0:0:0:0:
256,208,73772,1,0,0:0:0:0:
256,208,73909,1,8,0:0:0:0:
256,208,74181,1,0,0:0:0:0:
256,208,74317,1,0,0:0:0:0:
256,208,74590,1,8,0:0:0:0:
256,208,74726,1,0,0:0:0:0:
256,208,74999,1,0,0:0:0:0:
256,208,75135,1,0,0:0:0:0:
256,208,75271,1,8,0:0:0:0:
256,208,75408,1,0,0:0:0:0:
256,208,75681,1,0,0:0:0:0:
256,208,75749,1,0,0:0:0:0:
256,208,75817,1,0,0:0:0:0:
256,208,75953,1,0,0:0:0:0:
256,208,76090,1,8,0:0:0:0:
256,208,76363,1,0,0:0:0:0:
256,208,76431,1,0,0:0:0:0:
256,208,76500,1,0,0:0:0:0:
256,208,76773,1,8,0:0:0:0:
256,208,76841,1,8,0:0:0:0:
256,208,76909,1,0,0:0:0:0:
272,208,77181,1,0,0:0:0:0:
272,208,77318,1,0,0:0:0:0:
272,208,77454,1,8,0:0:0:0:
272,208,77522,1,8,0:0:0:0:
272,208,77590,1,0,0:0:0:0:
256,208,77863,1,0,0:0:0:0:
256,208,77931,1,0,0:0:0:0:
256,208,78000,1,0,0:0:0:0:
256,208,78136,1,0,0:0:0:0:
256,208,78272,1,8,0:0:0:0:
256,208,78545,1,0,0:0:0:0:
256,208,78613,1,0,0:0:0:0:
256,208,78682,1,0,0:0:0:0:
256,208,78955,1,8,0:0:0:0:
256,208,79023,1,8,0:0:0:0:
256,208,79091,1,0,0:0:0:0:
272,208,79363,1,0,0:0:0:0:
272,208,79500,1,0,0:0:0:0:
272,208,79636,1,8,0:0:0:0:
272,208,79704,1,8,0:0:0:0:
272,208,79772,1,0,0:0:0:0:
256,208,80045,1,0,0:0:0:0:
256,208,80113,1,0,0:0:0:0:
256,208,80182,1,0,0:0:0:0:
256,208,80318,1,0,0:0:0:0:
256,208,80454,1,8,0:0:0:0:
208,208,80727,1,0,0:0:0:0:
208,208,80863,1,0,0:0:0:0:
208,208,80931,1,0,0:0:0:0:
208,208,81000,1,0,0:0:0:0:
208,208,81136,1,8,0:0:0:0:
208,208,81409,1,0,0:0:0:0:
208,208,81545,1,8,0:0:0:0:
208,208,81818,1,0,0:0:0:0:
208,208,81954,1,0,0:0:0:0:
208,208,82022,1,0,0:0:0:0:
208,208,82091,1,0,0:0:0:0:
208,208,82227,1,8,0:0:0:0:
208,208,82500,1,0,0:0:0:0:
208,208,82636,1,8,0:0:0:0:
288,208,82909,1,0,0:0:0:0:
288,208,82977,1,0,0:0:0:0:
288,208,83045,1,0,0:0:0:0:
288,208,83113,1,0,0:0:0:0:
288,208,83181,1,0,0:0:0:0:
288,208,83318,1,8,0:0:0:0:
288,208,83590,1,0,0:0:0:0:
176,160,83659,1,0,0:0:0:0:
288,208,83727,1,8,0:0:0:0:
288,208,84000,1,0,0:0:0:0:
288,208,84068,1,0,0:0:0:0:
288,208,84136,1,0,0:0:0:0:
288,208,84204,1,0,0:0:0:0:
288,208,84272,1,0,0:0:0:0:
288,208,84409,1,8,0:0:0:0:
288,208,84681,1,0,0:0:0:0:
192,160,84750,1,0,0:0:0:0:
288,208,84818,1,8,0:0:0:0:
192,208,85090,1,0,0:0:0:0:
192,208,85227,1,0,0:0:0:0:
208,272,85363,1,12,0:0:0:0:
192,208,85636,1,0,0:0:0:0:
192,208,85773,1,0,0:0:0:0:
208,272,85909,1,12,0:0:0:0:
192,208,86181,1,0,0:0:0:0:
192,208,86318,1,0,0:0:0:0:
208,272,86454,1,12,0:0:0:0:
192,208,86727,1,0,0:0:0:0:
192,208,86864,1,0,0:0:0:0:
208,272,87000,1,12,0:0:0:0:
256,208,87272,1,0,0:0:0:0:
256,208,87409,1,8,0:0:0:0:
256,208,87545,1,0,0:0:0:0:
256,208,87681,1,8,0:0:0:0:
256,208,87818,1,0,0:0:0:0:
256,208,87954,1,8,0:0:0:0:
256,208,88090,1,0,0:0:0:0:
256,208,88227,1,8,0:0:0:0:
192,176,88363,1,4,0:0:0:0:
192,176,88500,1,12,0:0:0:0:
192,176,88636,1,4,0:0:0:0:
192,176,88772,1,12,0:0:0:0:
192,176,88909,1,4,0:0:0:0:
192,176,89045,1,12,0:0:0:0:
192,176,89181,1,4,0:0:0:0:
192,176,89318,1,12,0:0:0:0:
256,192,89454,12,0,91363,0:0:0:0:
240,192,91636,5,0,0:0:0:0:
240,192,91704,1,0,0:0:0:0:
240,192,91772,1,0,0:0:0:0:
240,176,91909,1,8,0:0:0:0:
240,160,92045,1,0,0:0:0:0:
240,160,92181,1,8,0:0:0:0:
240,160,92250,1,0,0:0:0:0:
240,160,92318,1,8,0:0:0:0:
192,208,92454,1,8,0:0:0:0:
320,224,92590,1,0,0:0:0:0:
304,224,92727,1,8,0:0:0:0:
304,224,92863,1,8,0:0:0:0:
288,224,93000,1,8,0:0:0:0:
288,224,93068,1,0,0:0:0:0:
288,224,93136,1,8,0:0:0:0:
304,208,93272,1,8,0:0:0:0:
304,208,93409,1,0,0:0:0:0:
304,208,93545,1,8,0:0:0:0:
304,208,93613,1,0,0:0:0:0:
304,208,93681,1,0,0:0:0:0:
240,272,93818,1,0,0:0:0:0:
240,272,93886,1,0,0:0:0:0:
240,272,93954,1,0,0:0:0:0:
240,272,94090,1,8,0:0:0:0:
208,208,94227,1,8,0:0:0:0:
160,208,94363,1,8,0:0:0:0:
208,208,94431,1,0,0:0:0:0:
160,208,94500,1,8,0:0:0:0:
160,208,94636,1,8,0:0:0:0:
160,208,94704,1,0,0:0:0:0:
160,208,94772,1,0,0:0:0:0:
224,192,94909,1,8,0:0:0:0:
224,192,94977,1,0,0:0:0:0:
224,192,95045,1,8,0:0:0:0:
224,192,95113,1,0,0:0:0:0:
224,192,95181,1,8,0:0:0:0:
320,224,95318,1,8,0:0:0:0:
320,224,95454,1,8,0:0:0:0:
320,224,95522,1,0,0:0:0:0:
320,224,95590,1,0,0:0:0:0:
320,208,95659,1,0,0:0:0:0:
320,208,95727,1,8,0:0:0:0:
320,208,95863,1,0,0:0:0:0:
320,176,96000,1,0,0:0:0:0:
320,176,96068,1,0,0:0:0:0:
320,176,96136,1,0,0:0:0:0:
320,176,96272,1,8,0:0:0:0:
320,176,96409,1,8,0:0:0:0:
240,176,96545,1,8,0:0:0:0:
368,144,96613,1,0,0:0:0:0:
368,144,96681,1,8,0:0:0:0:
368,144,96750,1,0,0:0:0:0:
368,144,96818,1,8,0:0:0:0:
368,144,96954,1,8,0:0:0:0:
240,160,97090,1,8,0:0:0:0:
240,160,97158,1,0,0:0:0:0:
176,208,97227,1,8,0:0:0:0:
176,208,97295,1,8,0:0:0:0:
176,208,97363,1,0,0:0:0:0:
176,208,97500,1,0,0:0:0:0:
240,240,97636,1,8,0:0:0:0:
256,128,97704,1,0,0:0:0:0:
240,240,97772,1,8,0:0:0:0:
240,240,97909,1,8,0:0:0:0:
240,240,98045,1,0,0:0:0:0:
144,160,98181,1,0,0:0:0:0:
144,160,98250,1,8,0:0:0:0:
144,160,98318,1,0,0:0:0:0:
320,240,98454,1,8,0:0:0:0:
320,240,98590,1,0,0:0:0:0:
400,224,98727,1,0,0:0:0:0:
400,224,98795,1,0,0:0:0:0:
400,224,98863,1,8,0:0:0:0:
400,224,98931,1,8,0:0:0:0:
400,224,99000,1,0,0:0:0:0:
400,224,99136,1,8,0:0:0:0:
336,208,99272,1,0,0:0:0:0:
336,208,99340,1,0,0:0:0:0:
336,208,99409,1,8,0:0:0:0:
336,208,99477,1,0,0:0:0:0:
336,208,99545,1,8,0:0:0:0:
272,192,99681,1,0,0:0:0:0:
272,192,99818,1,8,0:0:0:0:
272,192,99886,1,0,0:0:0:0:
272,192,99954,1,8,0:0:0:0:
272,192,100090,1,8,0:0:0:0:
192,224,100227,1,8,0:0:0:0:
192,224,100295,1,0,0:0:0:0:
192,224,100363,1,0,0:0:0:0:
144,160,100500,1,0,0:0:0:0:
160,160,100636,1,8,0:0:0:0:
176,224,100772,1,0,0:0:0:0:
176,224,100840,1,0,0:0:0:0:
176,224,100909,1,8,0:0:0:0:
176,224,101045,1,8,0:0:0:0:
176,224,101113,1,8,0:0:0:0:
176,224,101181,1,0,0:0:0:0:
176,224,101318,1,8,0:0:0:0:
240,176,101454,1,0,0:0:0:0:
192,208,101522,1,0,0:0:0:0:
192,208,101590,1,8,0:0:0:0:
192,208,101659,1,0,0:0:0:0:
192,208,101727,1,8,0:0:0:0:
208,208,101863,1,0,0:0:0:0:
208,208,101931,1,0,0:0:0:0:
208,208,102000,1,8,0:0:0:0:
208,208,102068,1,0,0:0:0:0:
208,208,102136,1,8,0:0:0:0:
208,192,102272,1,0,0:0:0:0:
208,192,102409,1,8,0:0:0:0:
224,192,102545,1,0,0:0:0:0:
224,192,102681,1,0,0:0:0:0:
224,192,102750,1,0,0:0:0:0:
224,192,102818,1,8,0:0:0:0:
176,176,102886,1,0,0:0:0:0:
192,208,102954,1,0,0:0:0:0:
192,208,103090,1,8,0:0:0:0:
224,208,103159,1,0,0:0:0:0:
224,208,103227,1,8,0:0:0:0:
224,208,103295,1,8,0:0:0:0:
224,208,103363,1,0,0:0:0:0:
224,208,103500,1,8,0:0:0:0:
288,256,103636,1,0,0:0:0:0:
288,256,103704,1,0,0:0:0:0:
288,256,103772,1,8,0:0:0:0:
288,256,103840,1,0,0:0:0:0:
288,256,103909,1,8,0:0:0:0:
368,240,104045,1,0,0:0:0:0:
192,208,104113,1,0,0:0:0:0:
352,240,104181,1,8,0:0:0:0:
352,240,104250,1,0,0:0:0:0:
352,240,104318,1,8,0:0:0:0:
352,224,104386,1,8,0:0:0:0:
352,240,104454,1,0,0:0:0:0:
192,192,104590,1,8,0:0:0:0:
208,176,104727,1,0,0:0:0:0:
240,160,104863,1,0,0:0:0:0:
240,160,104931,1,0,0:0:0:0:
240,160,105000,1,8,0:0:0:0:
240,160,105136,1,0,0:0:0:0:
128,192,105272,1,8,0:0:0:0:
224,144,105409,1,8,0:0:0:0:
224,144,105477,1,8,0:0:0:0:
224,144,105545,1,0,0:0:0:0:
128,192,105681,1,8,0:0:0:0:
240,144,105818,1,0,0:0:0:0:
240,144,105954,1,0,0:0:0:0:
240,144,106022,1,0,0:0:0:0:
256,144,106090,1,8,0:0:0:0:
272,208,106227,1,0,0:0:0:0:
144,192,106363,1,8,0:0:0:0:
144,192,106500,1,8,0:0:0:0:
192,80,106568,1,8,0:0:0:0:
144,176,106636,1,0,0:0:0:0:
144,176,106704,1,0,0:0:0:0:
144,176,106772,1,8,0:0:0:0:
224,144,106909,1,0,0:0:0:0:
144,112,107045,1,8,0:0:0:0:
144,112,107113,1,0,0:0:0:0:
144,112,107181,1,8,0:0:0:0:
176,192,107318,1,0,0:0:0:0:
176,192,107386,1,0,0:0:0:0:
176,192,107454,1,8,0:0:0:0:
176,192,107590,1,8,0:0:0:0:
176,192,107659,1,8,0:0:0:0:
176,192,107727,1,0,0:0:0:0:
176,192,107863,1,8,0:0:0:0:
176,192,107931,1,8,0:0:0:0:
176,192,108000,1,0,0:0:0:0:
224,192,108136,1,0,0:0:0:0:
224,192,108272,1,0,0:0:0:0:
224,192,108409,1,0,0:0:0:0:
224,176,108545,1,8,0:0:0:0:
224,176,108613,1,8,0:0:0:0:
224,176,108681,1,8,0:0:0:0:
224,176,108750,1,8,0:0:0:0:
224,176,108818,1,8,0:0:0:0:
224,176,108886,1,8,0:0:0:0:
224,176,108954,1,8,0:0:0:0:
224,176,109022,1,8,0:0:0:0:
224,176,109090,1,0,0:0:0:0:
192,288,109227,1,0,0:0:0:0:
192,96,109363,1,0,0:0:0:0:
192,96,109500,1,0,0:0:0:0:
304,160,109636,1,8,0:0:0:0:
304,160,109704,1,8,0:0:0:0:
304,160,109772,1,8,0:0:0:0:
304,160,109840,1,8,0:0:0:0:
304,160,109909,1,8,0:0:0:0:
304,160,109977,1,8,0:0:0:0:
304,160,110045,1,8,0:0:0:0:
304,160,110113,1,8,0:0:0:0:
304,160,110181,1,0,0:0:0:0:
224,240,110318,1,0,0:0:0:0:
272,224,110454,1,8,0:0:0:0:
272,224,110522,1,8,0:0:0:0:
272,224,110590,1,8,0:0:0:0:
272,224,110659,1,8,0:0:0:0:
272,224,110727,1,0,0:0:0:0:
224,240,110863,1,0,0:0:0:0:
224,240,111000,1,8,0:0:0:0:
224,240,111068,1,8,0:0:0:0:
224,240,111136,1,8,0:0:0:0:
224,240,111204,1,8,0:0:0:0:
224,240,111272,1,0,0:0:0:0:
112,256,111340,1,0,0:0:0:0:
112,256,111409,1,0,0:0:0:0:
112,256,111477,1,0,0:0:0:0:
112,256,111545,1,0,0:0:0:0:
112,256,111613,1,0,0:0:0:0:
112,256,111681,1,0,0:0:0:0:
112,256,111750,1,0,0:0:0:0:
112,256,111818,1,8,0:0:0:0:
112,256,111886,1,8,0:0:0:0:
112,256,111954,1,8,0:0:0:0:
112,256,112022,1,8,0:0:0:0:
112,256,112090,1,8,0:0:0:0:
128,240,112159,1,8,0:0:0:0:
128,240,112227,1,8,0:0:0:0:
128,240,112295,1,8,0:0:0:0:
336,224,112363,1,0,0:0:0:0:
224,224,112909,1,4,0:0:0:0:
256,192,113045,12,0,116727,0:0:0:0:
