osu file format v14

[General]
AudioFilename: BanYa remixed by DM Ashura - Ignis Fatuus.mp3
AudioLeadIn: 0
PreviewTime: 37090
Countdown: 0
SampleSet: Normal
StackLeniency: 0.7
Mode: 1
LetterboxInBreaks: 0
WidescreenStoryboard: 1

[Editor]
Bookmarks: 17454,37090,54545,72000,91636
DistanceSpacing: 0.8
BeatDivisor: 4
GridSize: 16
TimelineZoom: 2.799999

[Metadata]
Title:Ignis Fatuus
TitleUnicode:Ignis Fatuus
Artist:BanYa remixed by DM Ashura
ArtistUnicode:BanYa remixed by DM Ashura
Creator:Eyenine
Version:Futsuu
Source:Pump It Up Fiesta 2
Tags:will o' the wisp PIU Infinity
BeatmapID:700152
BeatmapSetID:309161

[Difficulty]
HPDrainRate:3
CircleSize:5
OverallDifficulty:3
ApproachRate:5
SliderMultiplier:1.2
SliderTickRate:1

[Events]
//Background and Video events
0,0,"will_o___the_wisp_by_oxeren-d36old2.jpg",0,0
//Break Periods
//Storyboard Layer 0 (Background)
//Storyboard Layer 1 (Fail)
//Storyboard Layer 2 (Pass)
//Storyboard Layer 3 (Foreground)
//Storyboard Sound Samples

[TimingPoints]
0,272.727272727273,4,1,0,100,1,0
136,-133.333333333333,4,1,0,100,0,0
17454,-100,4,1,0,100,0,0
91636,-100,4,1,0,100,0,1
112363,-100,4,1,0,100,0,0

[HitObjects]
256,192,9000,5,0,0:0:0:0:
256,192,10090,1,0,0:0:0:0:
256,192,11181,1,0,0:0:0:0:
256,192,12272,1,0,0:0:0:0:
256,192,13363,1,8,0:0:0:0:
256,192,14454,1,8,0:0:0:0:
256,192,15545,12,0,16909,0:0:0:0:
256,192,17454,5,0,0:0:0:0:
96,176,17863,1,0,0:0:0:0:
160,208,18272,1,8,0:0:0:0:
256,192,18545,1,0,0:0:0:0:
256,192,18818,1,8,0:0:0:0:
256,192,19090,1,0,0:0:0:0:
160,224,19363,1,8,0:0:0:0:
256,192,19636,1,0,0:0:0:0:
240,288,20045,1,0,0:0:0:0:
240,288,20454,1,8,0:0:0:0:
256,192,20727,1,0,0:0:0:0:
240,288,21000,1,0,0:0:0:0:
256,192,21272,1,8,0:0:0:0:
240,288,21545,1,8,0:0:0:0:
256,192,21818,1,0,0:0:0:0:
240,288,22227,1,0,0:0:0:0:
240,288,22636,1,8,0:0:0:0:
256,192,22909,1,0,0:0:0:0:
256,192,23182,1,8,0:0:0:0:
256,192,23454,1,0,0:0:0:0:
240,288,23727,1,8,0:0:0:0:
256,192,24000,1,0,0:0:0:0:
240,288,24409,1,0,0:0:0:0:
240,288,24818,1,8,0:0:0:0:
256,192,25091,1,8,0:0:0:0:
240,288,25363,1,0,0:0:0:0:
256,192,25636,1,8,0:0:0:0:
240,288,25909,1,8,0:0:0:0:
256,192,26181,1,0,0:0:0:0:
256,272,26590,1,0,0:0:0:0:
240,272,27000,1,8,0:0:0:0:
256,192,27272,1,0,0:0:0:0:
256,192,27545,1,8,0:0:0:0:
256,192,27818,1,0,0:0:0:0:
240,272,28090,1,8,0:0:0:0:
256,192,28363,1,0,0:0:0:0:
240,272,28772,1,0,0:0:0:0:
240,272,29181,1,8,0:0:0:0:
256,192,29454,1,0,0:0:0:0:
240,272,29727,1,0,0:0:0:0:
256,192,29999,1,8,0:0:0:0:
240,272,30272,1,0,0:0:0:0:
256,192,30545,1,0,0:0:0:0:
256,192,31090,1,0,0:0:0:0:
256,192,31636,1,0,0:0:0:0:
256,192,32181,1,0,0:0:0:0:
256,192,32727,1,0,0:0:0:0:
256,192,33000,1,0,0:0:0:0:
256,192,33272,1,0,0:0:0:0:
256,192,33545,1,0,0:0:0:0:
256,192,33954,1,8,0:0:0:0:
256,192,34227,1,8,0:0:0:0:
256,192,34500,1,8,0:0:0:0:
256,192,34772,1,8,0:0:0:0:
256,192,35181,1,4,0:0:0:0:
256,192,35454,12,0,36545,0:0:0:0:
240,192,37090,5,4,0:0:0:0:
240,192,37500,1,8,0:0:0:0:
240,192,38181,1,0,0:0:0:0:
240,192,38727,1,8,0:0:0:0:
208,144,39000,1,8,0:0:0:0:
240,192,39272,1,0,0:0:0:0:
240,192,39681,1,8,0:0:0:0:
240,192,40363,1,0,0:0:0:0:
240,192,40909,1,8,0:0:0:0:
176,144,41181,1,8,0:0:0:0:
240,192,41454,1,0,0:0:0:0:
240,192,41863,1,8,0:0:0:0:
240,192,42545,1,0,0:0:0:0:
240,192,42954,1,8,0:0:0:0:
240,192,43636,1,0,0:0:0:0:
240,192,44045,1,8,0:0:0:0:
240,192,44727,1,0,0:0:0:0:
240,192,45272,1,8,0:0:0:0:
112,160,45545,1,0,0:0:0:0:
240,192,45818,1,4,0:0:0:0:
128,208,46227,1,8,0:0:0:0:
176,112,46636,1,8,0:0:0:0:
240,192,46909,1,0,0:0:0:0:
240,192,47454,1,8,0:0:0:0:
240,192,47727,1,8,0:0:0:0:
240,192,48000,1,0,0:0:0:0:
160,128,48409,1,8,0:0:0:0:
144,224,48818,1,0,0:0:0:0:
240,192,49090,1,0,0:0:0:0:
208,192,49636,1,8,0:0:0:0:
208,176,49909,1,8,0:0:0:0:
240,192,50181,1,0,0:0:0:0:
240,192,50590,1,8,0:0:0:0:
112,176,51000,1,8,0:0:0:0:
240,192,51272,1,0,0:0:0:0:
240,192,51681,1,8,0:0:0:0:
240,192,52090,1,8,0:0:0:0:
240,192,52363,1,0,0:0:0:0:
240,192,52636,1,0,0:0:0:0:
240,192,52909,1,0,0:0:0:0:
240,192,53181,1,0,0:0:0:0:
96,128,53454,2,0,L|160:160,8,60
208,192,55090,1,0,0:0:0:0:
240,192,55636,1,0,0:0:0:0:
240,192,56181,1,0,0:0:0:0:
240,192,56727,1,8,0:0:0:0:
192,192,57272,1,0,0:0:0:0:
240,192,57818,1,0,0:0:0:0:
240,192,58363,1,0,0:0:0:0:
240,192,58636,1,0,0:0:0:0:
240,192,58909,1,0,0:0:0:0:
192,192,59454,1,0,0:0:0:0:
240,192,60000,1,0,0:0:0:0:
240,192,60545,1,0,0:0:0:0:
240,192,61090,1,8,0:0:0:0:
176,192,61636,1,0,0:0:0:0:
240,192,62181,1,8,0:0:0:0:
240,192,62727,1,8,0:0:0:0:
240,192,63000,1,8,0:0:0:0:
240,192,63272,1,0,0:0:0:0:
176,192,63818,1,0,0:0:0:0:
240,192,64363,1,0,0:0:0:0:
240,192,64909,1,0,0:0:0:0:
240,192,65454,1,8,0:0:0:0:
192,192,66000,1,0,0:0:0:0:
240,192,66545,1,0,0:0:0:0:
240,192,67090,1,0,0:0:0:0:
240,192,67363,1,0,0:0:0:0:
240,192,67636,1,0,0:0:0:0:
192,192,68181,1,0,0:0:0:0:
240,192,68727,1,0,0:0:0:0:
240,192,69272,1,0,0:0:0:0:
240,192,69818,1,8,0:0:0:0:
208,192,70363,1,0,0:0:0:0:
240,192,70909,1,8,0:0:0:0:
240,192,71454,1,8,0:0:0:0:
240,192,71727,1,8,0:0:0:0:
240,192,74181,1,0,0:0:0:0:
240,192,74727,1,0,0:0:0:0:
240,192,75000,1,0,0:0:0:0:
240,192,75272,1,0,0:0:0:0:
240,192,75818,1,0,0:0:0:0:
240,192,76090,1,8,0:0:0:0:
240,192,78545,1,0,0:0:0:0:
240,192,79091,1,0,0:0:0:0:
240,192,79364,1,0,0:0:0:0:
240,192,79636,1,0,0:0:0:0:
240,192,80182,1,0,0:0:0:0:
240,192,80454,1,8,0:0:0:0:
240,192,81818,1,0,0:0:0:0:
144,192,82227,1,8,0:0:0:0:
240,192,82636,1,8,0:0:0:0:
240,192,84000,1,0,0:0:0:0:
176,160,84409,1,8,0:0:0:0:
240,192,84818,1,8,0:0:0:0:
240,192,85363,1,8,0:0:0:0:
240,192,85909,1,8,0:0:0:0:
240,192,86454,1,8,0:0:0:0:
240,192,87000,1,8,0:0:0:0:
240,192,87272,1,0,0:0:0:0:
240,192,87818,1,0,0:0:0:0:
240,192,88363,1,8,0:0:0:0:
240,192,88909,1,8,0:0:0:0:
144,160,89181,1,8,0:0:0:0:
256,192,89454,12,8,91090,0:0:0:0:
256,192,91636,5,4,0:0:0:0:
256,192,92181,1,0,0:0:0:0:
256,192,92727,1,8,0:0:0:0:
256,192,93000,1,8,0:0:0:0:
256,192,93272,1,0,0:0:0:0:
176,160,93545,1,8,0:0:0:0:
256,192,93818,1,0,0:0:0:0:
256,192,94363,1,0,0:0:0:0:
176,128,94636,1,0,0:0:0:0:
256,192,94909,1,8,0:0:0:0:
256,192,95181,1,8,0:0:0:0:
256,192,95454,1,0,0:0:0:0:
160,176,95727,1,0,0:0:0:0:
256,192,96000,1,0,0:0:0:0:
256,192,96545,1,8,0:0:0:0:
256,192,97090,1,8,0:0:0:0:
256,192,97363,1,8,0:0:0:0:
256,192,97636,1,0,0:0:0:0:
176,128,97909,1,8,0:0:0:0:
256,192,98181,1,0,0:0:0:0:
256,192,98727,1,8,0:0:0:0:
256,192,99272,1,0,0:0:0:0:
256,192,99545,1,8,0:0:0:0:
192,176,99818,1,8,0:0:0:0:
144,144,100090,1,0,0:0:0:0:
256,192,100363,1,0,0:0:0:0:
256,192,100909,1,0,0:0:0:0:
256,192,101454,1,0,0:0:0:0:
256,192,101727,1,8,0:0:0:0:
240,144,102000,1,8,0:0:0:0:
128,176,102545,1,0,0:0:0:0:
256,192,103090,1,8,0:0:0:0:
256,192,103636,1,0,0:0:0:0:
256,192,103909,1,8,0:0:0:0:
256,192,104181,1,8,0:0:0:0:
256,192,104454,1,0,0:0:0:0:
256,192,104727,1,0,0:0:0:0:
256,192,105272,1,0,0:0:0:0:
256,192,105818,1,0,0:0:0:0:
256,192,106363,1,0,0:0:0:0:
256,192,106909,1,0,0:0:0:0:
256,192,107181,1,0,0:0:0:0:
256,192,107454,1,0,0:0:0:0:
256,192,107727,1,0,0:0:0:0:
256,192,108000,1,4,0:0:0:0:
256,192,108545,1,8,0:0:0:0:
176,224,108818,1,8,0:0:0:0:
256,192,109090,1,4,0:0:0:0:
256,192,109636,1,8,0:0:0:0:
176,224,109909,1,8,0:0:0:0:
256,192,110181,1,4,0:0:0:0:
256,192,110727,1,4,0:0:0:0:
256,192,111272,1,12,0:0:0:0:
256,192,111818,1,12,0:0:0:0:
256,192,112909,1,4,0:0:0:0:
256,192,113045,12,0,116727,0:0:0:0:
