osu file format v7

[General]
AudioFilename: BanYa - Phantom.mp3
AudioLeadIn: 0
PreviewTime: -1
Countdown: 1
SampleSet: Soft
StackLeniency: 0.7
Mode: 0
LetterboxInBreaks: 1
EpilepsyWarning: 1

[Editor]
DistanceSpacing: 0.800000011920929
BeatDivisor: 4
GridSize: 8

[Metadata]
Title:Phantom
Artist:BanYa
Creator:[DBF]
Version:Hard
Source:Pump it up
Tags:Phantom,Banya

[Difficulty]
HPDrainRate:8
CircleSize:5
OverallDifficulty:5
SliderMultiplier:1.9
SliderTickRate:2

[Events]
//Background and Video events
0,0,"BGRD.png"
//Break Periods
//Storyboard Layer 0 (Background)
//Storyboard Layer 1 (Fail)
//Storyboard Layer 2 (Pass)
//Storyboard Layer 3 (Foreground)
//Storyboard Sound Samples
//Background Colour Transformations
3,100,0,0,0

[TimingPoints]
7244,441.176470588235,4,2,0,100,1,0
63714,-200,4,2,0,50,0,1
70773,-100,4,2,0,100,0,0
91949,-200,4,2,0,0,0,0
96802,-100,4,2,0,100,0,0

[Colours]
Combo1 : 255,128,0
Combo2 : 0,73,147
Combo3 : 157,19,47
Combo4 : 79,167,255

[HitObjects]
256,192,1067,12,2,3714
256,192,5038,12,2,6802
64,80,7243,5,0
112,120,7464,1,0
160,160,7685,1,8
208,200,7905,2,0,L|288:120,4,95,0|0|0|8|0
160,240,9008,1,0
120,288,9229,1,0
80,336,9449,1,0
128,376,9670,2,0,B|208:400|192:312,4,95
80,336,10773,5,0
80,272,10993,1,0
80,208,11214,1,8
144,208,11435,2,0,B|144:312,4,95,0|0|0|8|0
208,208,12538,2,0,L|312:208,1,95
368,208,12979,2,0,B|368:320,1,95
304,304,13420,2,0,B|192:304,1,95
168,256,13861,2,0,B|240:160,1,95
288,168,14302,5,0
352,168,14523,1,0
416,168,14743,1,8
416,232,14964,2,0,L|496:232|496:216,4,95,0|0|0|8|0
352,232,16067,1,0
352,168,16288,1,0
352,104,16508,1,0
352,40,16729,2,0,L|232:40,1,95
256,104,17170,2,0,L|256:208,1,95
192,200,17611,2,0,L|88:200,1,95,0|0
32,200,18052,5,0
16,136,18273,1,8
80,128,18493,2,0,L|80:72|80:24,1,95
80,32,18935,2,0,L|160:32|160:64,1,95,0|8
160,48,19376,2,0,L|160:81|240:81,1,95
288,88,19817,1,0
336,128,20038,1,0
336,192,20258,2,0,L|336:288,1,95
272,288,20699,2,0,L|272:192,1,95
272,192,21140,2,0,L|216:104,1,95,0|0
160,88,21802,5,4
72,88,22243,5,0
72,88,22317,1,0
72,176,22685,1,4
72,264,23126,5,0
72,264,23199,1,0
128,344,23567,1,4
160,264,24008,6,0,L|160:160,1,95,0|8
224,168,24449,6,0,L|224:64,1,95,4|8
288,72,24891,6,0,L|288:184,1,95
288,168,25332,1,4
288,256,25773,5,0
288,256,25846,1,0
200,256,26214,1,4
200,168,26656,5,0
200,168,26729,1,0
200,80,27096,1,4
288,80,27538,6,0,B|368:152|296:264,1,190,0|4
304,336,28420,5,0
216,336,28861,1,4
216,248,29302,5,0
216,248,29376,1,0
216,160,29743,1,4
304,160,30185,5,0
304,160,30258,1,0
304,72,30626,1,4
216,72,31067,5,0
216,72,31141,1,0
128,72,31508,1,4
128,160,31949,5,0
128,160,32023,1,0
216,160,32391,1,4
304,160,32832,5,0
304,160,32905,1,0
392,160,33273,1,4
392,248,33714,5,0
304,248,34155,1,4
216,248,34596,1,0
128,248,35038,1,4
128,160,35479,5,4
192,160,35699,1,0
256,160,35920,1,0
320,160,36141,2,0,B|320:96|400:96,4,95
320,224,37243,1,0
280,272,37464,1,0
240,320,37685,1,0
208,376,37905,2,0,B|160:328|200:264,1,95
187,289,38346,2,0,B|232:232|184:176,1,95
176,144,38788,1,0
120,112,39008,6,0,B|72:152|128:216,3,95,4|0|0|0
144,256,39891,1,0
192,216,40111,1,0
248,184,40332,1,0
304,152,40552,1,0
352,112,40773,2,0,B|320:72|264:104,1,95
266,102,41214,2,0,B|176:160,1,95
186,153,41655,2,0,B|88:216,1,95
106,204,42096,2,0,B|32:248|72:296,1,95
120,304,42538,5,4
184,288,42759,1,0
240,256,42979,1,0
280,208,43199,2,0,B|248:168|184:216,4,95
320,160,44302,1,0
352,104,44523,1,0
352,40,44743,1,0
288,40,44964,2,0,B|288:104|240:144,1,95
256,127,45405,2,0,B|216:184|232:240,1,95
224,280,45846,1,0
168,240,46067,5,4
136,184,46288,1,0
120,120,46508,1,0
112,56,46729,2,0,B|232:56,1,95
207,56,47170,2,0,B|208:160,1,95
272,152,47611,1,0
336,152,47832,1,0
400,152,48052,1,0
448,200,48273,1,0
448,264,48493,1,0
392,296,48714,1,0
328,296,48935,1,0
264,296,49155,1,4
200,296,49376,1,0
200,232,49596,6,0,B|400:232,1,190,4|0
392,168,50479,1,0
304,168,50920,1,8
256,192,51361,12,0,53126
168,192,53567,5,0
256,192,54008,1,0
343,192,54449,1,8
256,192,54891,12,0,56655
32,32,57096,6,0,B|32:136,1,95
96,128,57538,2,0,B|96:224,1,95
160,223,57979,2,0,B|160:319,1,95,8|0
256,192,58420,12,0,60185
480,32,60626,6,0,B|480:144,1,95
416,128,61067,2,0,B|416:248,1,95
352,224,61508,2,0,B|352:336,1,95,8|0
256,192,61949,12,0,63714
40,32,64596,5,8
40,120,65479,2,0,B|152:120,1,95
136,120,66361,2,0,B|136:232,1,95,8|0
136,215,67243,2,0,B|240:216,1,95
232,216,68126,2,0,B|232:120,1,95,8|0
328,112,69008,6,8,B|328:152,1,31.6666666666667
328,208,69449,2,8,B|328:240,1,31.6666666666667
328,304,69891,2,8,B|328:336,1,31.6666666666667
256,304,70332,2,8,B|256:256,1,31.6666666666667
224,216,70773,5,4
184,168,70993,1,0
144,120,71214,1,8
104,72,71435,2,0,B|152:40|216:88|200:104,4,95,0|0|0|8|0
72,128,72538,5,0
72,192,72758,1,0
72,256,72979,1,0
72,320,73199,2,0,B|168:320,4,95,0|0|0|0|0
72,320,74302,6,0,B|152:240,1,95,0|0
139,252,74743,2,0,B|208:320,1,95,8|0
206,318,75185,2,0,B|280:240,4,95,0|0|8|0|0
144,320,76288,5,0
80,320,76508,1,0
80,256,76729,1,0
80,192,76949,1,0
80,128,77170,1,0
80,64,77391,1,0
144,64,77611,1,0
208,64,77832,5,0
208,128,78052,1,0
208,192,78273,1,8
208,256,78493,2,0,B|328:256,1,95
304,256,78935,2,0,B|304:192|376:192,2,95,0|8|0
304,320,79596,5,0
240,320,79817,1,0
176,320,80038,1,0
112,320,80258,2,0,B|112:208,1,95
112,225,80699,2,0,B|112:160|32:160,2,95
112,225,81361,6,0,B|184:152,1,95
178,157,81802,2,0,B|264:240,1,95,8|0
246,222,82243,2,0,B|328:152,3,95,0|0|8|0
368,120,83126,5,0
304,96,83346,1,0
240,96,83567,1,0
176,96,83788,2,0,B|176:216,1,95
176,191,84229,2,0,B|64:192,1,95
80,128,84670,1,0
80,64,84891,6,0,B|144:64|144:128,3,95,0|0|8|0
144,184,85773,1,0
144,248,85993,2,0,B|248:248,1,95,0|8
239,248,86435,2,0,B|240:152,1,95,0|0
240,88,86876,5,0
304,88,87096,1,8
304,152,87317,2,0,B|304:264,4,95,0|0|0|8|0
368,152,88420,5,0
368,216,88641,1,0
336,272,88861,1,8
272,272,89082,1,0
208,272,89302,1,0
160,224,89523,1,0
160,160,89743,1,8
160,96,89964,1,0
224,96,90185,6,0,B|224:208,1,95
224,191,90626,2,0,B|336:192,1,95,8|0
318,191,91067,2,0,B|384:272,1,95
378,264,91508,2,0,B|312:336,1,95,8|0
312,336,91949,6,0,L|295:306|279:338|263:306|247:338|231:306|215:338|199:306|183:338|167:306|152:336|136:304|120:336|104:304|88:336,1,475
96,240,94596,6,0,L|113:210|129:242|145:210|161:242|177:210|193:242|209:210|225:242|241:210|256:240|272:208|272:208|272:208|272:208,1,380
