osu file format v7

[General]
AudioFilename: BanYa - Phantom.mp3
AudioLeadIn: 0
PreviewTime: -1
Countdown: 1
SampleSet: Soft
StackLeniency: 0.7
Mode: 0
LetterboxInBreaks: 1
EpilepsyWarning: 1

[Editor]
DistanceSpacing: 0.800000011920929
BeatDivisor: 4
GridSize: 8

[Metadata]
Title:Phantom
Artist:BanYa
Creator:[DBF]
Version:Easy
Source:Pump it up
Tags:

[Difficulty]
HPDrainRate:8
CircleSize:4
OverallDifficulty:2
SliderMultiplier:1.2
SliderTickRate:1

[Events]
//Background and Video events
0,0,"BGRD.png"
//Break Periods
//Storyboard Layer 0 (Background)
//Storyboard Layer 1 (Fail)
//Storyboard Layer 2 (Pass)
//Storyboard Layer 3 (Foreground)
//Storyboard Sound Samples
//Background Colour Transformations
3,100,0,0,0

[TimingPoints]
7244,441.176470588235,4,2,0,100,1,0
63700,-200,4,2,0,50,0,1
70797,-100,4,2,0,100,0,0

[Colours]
Combo1 : 255,128,0
Combo2 : 0,128,255
Combo3 : 179,23,15
Combo4 : 30,61,140

[HitObjects]
256,192,1067,12,0,3714
264,104,5038,6,0,B|320:192|264:344,2,240
192,128,7244,5,4
120,128,7685,1,8
120,56,8126,1,0
176,8,8567,1,8
248,8,9008,1,0
320,8,9449,1,8
376,56,9891,1,8
376,128,10332,1,8
368,200,10773,6,0,B|304:176|296:104,1,120,4|8
280,40,11655,1,0
296,112,12096,1,8
328,176,12538,1,0
312,248,12979,1,8
256,296,13420,1,8
184,312,13861,1,8
112,296,14302,6,0,B|88:256|176:256|112:184,1,120,4|8
80,128,15185,1,0
152,128,15626,1,8
192,192,16067,1,0
184,264,16508,1,8
168,336,16949,2,8,B|256:344|264:256,1,120
264,208,17832,5,4
264,136,18273,1,8
264,64,18714,1,0
336,64,19155,2,0,B|472:64,1,120,8|0
456,136,20038,2,8,B|320:136,1,120,8|8
336,208,20920,2,0,B|480:208,1,120,8|4
456,280,21802,6,0,B|320:280,1,120,4|0
304,280,22464,1,8
272,280,22685,6,0,B|272:152,1,120,4|0
304,160,23346,1,8
344,160,23567,6,0,B|344:304,1,120,4|0
376,280,24229,1,8
376,240,24449,1,4
376,200,24670,1,8
376,160,24891,6,0,L|376:80|344:80|344:152,4,120,0|4|0|4|0
304,160,27096,1,4
232,160,27538,1,0
160,160,27979,1,4
88,160,28420,6,0,L|88:224|168:224,1,120,0|4
176,224,29082,1,8
208,224,29302,6,0,L|208:296|272:296,1,120,0|4
288,288,29964,1,8
288,248,30185,1,0
288,208,30405,1,8
288,168,30626,2,0,L|288:88|320:88|320:104,2,120,4|0|4
216,168,31949,5,0
160,216,32391,1,4
208,280,32832,1,0
280,280,33273,1,4
344,312,33714,1,0
400,264,34155,1,4
400,192,34596,1,0
400,120,35038,2,0,L|352:80|304:136,1,120,0|4
272,184,35920,5,8
224,240,36361,1,0
176,296,36802,1,8
120,248,37243,2,0,L|120:168|96:168|104:184,3,120,0|8|8|8
32,176,39008,5,4
32,104,39449,1,8
104,104,39891,1,0
176,104,40332,1,8
248,104,40773,1,0
320,104,41214,1,8
392,104,41655,2,8,B|376:176|280:176|272:168|264:152|256:136|248:152|240:168|232:176|232:240,1,240,8|4
304,224,42979,5,8
376,224,43420,1,0
432,176,43861,1,8
384,120,44302,1,0
312,120,44743,1,8
240,120,45185,2,8,B|240:248,1,120
240,240,46067,6,4,B|368:240,1,120,4|8
360,240,46949,2,0,B|360:144|272:144,1,120,0|8
280,80,47832,1,0
352,88,48273,1,8
408,136,48714,1,8
432,208,49155,1,12
432,280,49596,6,4,L|400:280|400:232|344:232|344:280|296:280|296:232|248:232|248:280,1,360,4|0
248,264,51361,2,0,L|248:136,1,120,4|0
320,144,52243,1,0
320,216,52685,1,0
320,288,53126,6,0,L|184:288|184:248|216:248|248:224,2,240
392,288,55332,1,0
464,288,55773,1,0
464,216,56214,1,0
464,144,56655,6,0,B|344:80|400:16|392:8|384:16|376:8|368:16|280:96|272:88|264:96|272:104|264:112|256:104|256:32|80:32,1,480
88,104,58861,1,0
160,120,59302,1,0
224,160,59743,1,0
272,216,60185,6,0,L|304:216|336:216|408:216,4,120
200,216,62391,1,0
128,216,62832,1,0
128,144,63273,1,0
128,72,63714,6,0,L|216:72|216:128|312:128,1,240,0|2
384,128,66361,2,0,L|328:160|384:184,1,120,0|2
384,248,68126,2,0,L|328:280|384:304,1,120,0|2
448,304,69891,2,0,L|448:176,1,120,0|4
448,112,71214,5,0
392,64,71655,1,0
336,112,72096,1,4
280,64,72538,1,0
224,112,72979,1,4
160,72,73420,2,4,B|144:128|176:168|216:192,2,120
88,64,74743,5,4
88,136,75185,1,0
120,200,75626,1,4
192,208,76067,1,0
264,192,76508,1,4
328,152,76949,2,4,L|328:24,2,120
384,200,78273,5,4
336,256,78714,1,0
264,256,79155,1,4
192,256,79596,1,0
120,256,80038,1,4
120,184,80479,2,4,L|232:184|232:208,2,120
120,112,81802,5,4
192,112,82243,1,0
264,112,82685,1,4
336,112,83126,1,0
336,184,83567,2,4,L|240:184|272:208,2,120
408,184,84891,6,0,L|456:184,4,30,0|0|0|0|4
408,256,85773,2,0,L|448:256,4,30,0|0|0|0|4
336,256,86655,2,0,L|304:256,4,30,0|0|0|0|4
336,184,87538,2,0,L|336:40,1,120,0|4
264,64,88420,6,0,L|264:192,1,120,0|4
192,184,89302,2,0,L|88:184|88:160,1,120,0|4
88,96,90185,2,0,L|200:96|200:112,1,120,0|4
272,104,91067,1,0
272,176,91508,1,4
272,248,91949,1,0
