osu file format v5

[General]
AudioFilename: Maria.mp3
AudioLeadIn: 0
PreviewTime: -1
Countdown: 1
SampleSet: Normal
StackLeniency: 0.7
Mode: 0
LetterboxInBreaks: 1

[Metadata]
Title:Maria
Artist:BanYa
Creator:flyboy87
Version:Godly
Source:
Tags:

[Difficulty]
HPDrainRate:7
CircleSize:5
OverallDifficulty:7
SliderMultiplier:1.4
SliderTickRate:4

[Events]
//Background and Video events
1,500,"BanYa - Maria.avi"
0,0,"mariabg.jpg"
//Break Periods
//Storyboard Layer 0 (Background)
//Storyboard Layer 1 (Failing)
//Storyboard Layer 2 (Passing)
//Storyboard Layer 3 (Foreground)
//Storyboard Sound Samples
//Background Colour Transformations
3,100,192,192,192

[TimingPoints]
7800,440.852314474651,4,1,0,100,1,0
14853,-100,4,2,0,100,0,1
31606,-100,4,1,0,100,0,0
33810,-100,4,2,0,100,0,0
44611,-100,4,1,0,100,0,0
57175,-100,4,2,0,100,0,1
70841,-100,4,2,0,100,0,0
83626,-100,4,1,0,100,0,0
95529,-100,4,2,0,100,0,0
95970,-100,4,1,0,100,0,0

[Colours]
Combo1 : 137,118,118
Combo2 : 113,126,132
Combo3 : 89,107,155
Combo4 : 143,101,116

[HitObjects]
48,48,4273,2,0,C|64:64|80:48|96:64|112:48|128:64|144:48|160:64|176:48|192:64|208:48|224:64|240:48|256:64|272:48|288:64|304:48|320:64|336:48|352:64,1,420
336,184,6036,2,0,C|320:168|304:184|288:168|272:184|256:168|240:184|224:168|208:184|192:168|176:184|160:168|144:184|128:168|112:184|96:168|80:184|64:168|48:184|32:168,1,420
48,320,7799,5,0
88,264,8020,1,0
128,320,8240,1,2
176,264,8461,2,8,C|240:288|320:256,1,140
376,264,9122,1,0
376,192,9342,2,8,C|376:120,1,70
376,48,9783,2,0,C|280:48,1,70
232,48,10224,2,8,C|144:48,1,70
88,48,10665,1,0
88,120,10885,1,8
136,168,11106,1,8
192,216,11326,6,2,C|200:248|240:256,1,70
168,272,11767,2,8,C|184:312|232:312,1,70
280,312,12208,1,0
320,256,12428,1,2
304,184,12649,2,8,C|264:248,1,70
216,216,13090,2,8,C|256:152,1,70
184,152,13531,5,0
152,152,13641,1,0
128,128,13751,1,0
104,104,13861,1,0
80,80,13971,1,0
112,80,14082,1,0
144,80,14192,1,0
176,80,14302,1,0
208,80,14412,6,0,C|256:80,3,35,8|0|0|0
256,192,14853,12,2,17498
256,192,17719,5,0
256,120,17939,1,8
256,48,18160,1,2
184,48,18380,2,0,C|128:96,1,70
80,144,18821,2,0,C|24:192,1,70
80,232,19262,2,2,C|160:272,1,70
208,288,19703,2,2,C|288:320,1,70
336,336,20143,1,0
400,304,20364,1,8
456,264,20584,1,0
400,216,20805,1,0
336,184,21025,2,0,C|376:184,7,35
376,152,21907,5,0
376,80,22127,1,2
304,80,22348,2,0,C|248:80,1,35
160,80,22788,1,0
88,80,23009,1,2
16,80,23229,1,0
16,152,23450,1,2
88,152,23670,2,0,C|128:152,1,35
192,152,24001,2,0,C|224:184,1,35
216,248,24331,2,0,C|192:288,1,35
184,304,24552,1,0
112,304,24772,1,2
40,304,24993,5,0
112,304,25213,1,0
184,304,25434,2,2,C|480:304,1,280
464,160,26756,1,2
392,160,26977,1,2
464,160,27197,1,0
320,160,27638,1,2
176,160,28079,1,0
248,40,28520,1,0
104,40,28960,1,2
32,40,29181,6,0,C|32:88,1,35
32,144,29511,2,0,C|32:184,1,35
32,248,29842,2,0,C|32:288,1,35
32,352,30173,2,0,C|96:352,1,35
136,352,30503,1,0
208,352,30724,2,0,C|256:352,1,35
312,352,31054,2,0,C|360:352,1,35
416,352,31385,2,0,C|416:296,1,35
416,280,31606,5,0
384,280,31716,1,0
352,280,31826,1,0
320,280,31936,1,0
288,280,32046,1,0
256,280,32157,1,0
224,280,32267,1,0
256,216,32487,6,4,C|216:176|176:216|136:176|88:216|48:176|0:216,1,350
8,136,33810,1,0
80,136,34030,1,8
152,136,34251,1,8
224,136,34471,2,0,C|320:136,1,70
296,208,34912,1,0
368,208,35132,2,0,C|368:224|368:288,1,70
440,280,35573,1,2
440,280,35794,1,0
440,352,36014,2,2,C|8:352,1,420
16,280,37557,1,0
48,280,37667,1,0
80,280,37777,1,8
152,280,37998,5,0
200,232,38218,1,2
152,184,38439,1,0
200,136,38659,1,2
248,184,38880,1,0
320,184,39100,1,2
368,136,39320,1,0
408,80,39541,5,2
480,80,39761,2,0,C|480:160,1,70
480,216,40202,1,0
480,216,40423,2,8,C|480:288,2,70,8|8|8
480,144,41084,1,0
408,144,41304,1,8
336,144,41525,2,2,C|248:144,2,70
336,72,42186,5,0
264,72,42406,2,0,C|192:72,1,70
120,72,42847,1,8
48,72,43068,1,2
48,144,43288,5,0
80,144,43398,1,0
112,144,43509,1,0
112,216,43729,1,0
80,216,43839,1,0
48,216,43949,1,0
64,280,44170,2,0,C|104:280,2,35
136,280,44611,5,0
168,280,44721,1,0
200,280,44831,1,0
272,280,45052,1,0
304,280,45162,2,0,C|360:280,1,35
392,232,45492,2,0,C|432:192,1,35
440,184,45713,2,2,C|392:137|344:185|296:137|240:193,1,280
168,304,47035,5,0
96,304,47256,2,0,C|56:304,2,35
64,240,47697,2,0,C|128:240,1,35,0|0
136,240,47917,2,0,C|136:96,1,140
208,104,48578,1,2
304,88,48799,2,8,C|272:56|240:88|208:56|176:88|144:56|112:88|72:56|32:88|-8:56,1,420
48,200,50562,1,0
120,200,50783,2,0,C|160:224,1,35
184,232,51003,1,0
320,200,51444,1,4
392,200,51664,2,8,C|432:224,1,35
456,232,51885,1,4
456,56,52326,1,4
384,88,52546,5,2
320,120,52766,1,0
256,152,52987,2,0,C|104:232,1,140
72,248,53648,1,0
256,192,53758,12,0,54530
488,312,54971,5,0
392,216,55412,1,0
344,168,55632,1,0
296,120,55852,1,0
264,144,55963,1,0
232,160,56073,1,0
200,144,56183,1,0
168,144,56293,2,0,C|136:184,1,35
112,168,56514,2,0,C|144:136,1,35
104,144,56734,2,0,C|64:184,1,35
56,144,56955,2,0,C|8:144,1,35
24,112,57175,5,2
136,32,57616,1,2
208,152,58057,2,0,C|192:120|216:96,2,70
304,32,58938,1,2
440,32,59379,1,0
376,160,59820,1,0
320,208,60040,1,0
264,160,60261,1,2
128,208,60702,1,0
64,80,61143,1,0
192,32,61583,1,2
264,32,61804,5,0
288,56,61914,1,0
312,80,62024,1,0
352,136,62245,1,2
328,160,62355,1,2
304,184,62465,1,8
256,232,62686,1,8
280,256,62796,1,0
304,280,62906,1,2
368,264,63126,2,0,C|368:224,1,35
368,192,63347,1,2
368,120,63567,2,2,C|368:80,1,35
368,48,63788,5,8
296,48,64008,1,0
296,48,64229,2,2,C|8:48,1,280
32,184,65551,1,8
128,280,65992,1,0
224,184,66433,1,0
128,88,66874,1,2
128,192,67204,1,2
200,120,67535,1,8
272,120,67755,2,0,C|272:280,1,140
344,264,68417,1,0
344,296,68527,1,0
344,328,68637,2,2,C|64:328,1,280
24,264,69739,5,0
40,232,69849,1,0
56,200,69960,1,8
80,136,70180,1,0
104,160,70290,1,0
128,184,70401,1,2
152,160,70511,1,2
176,136,70621,1,0
208,128,70731,2,0,C|256:128,1,35
136,40,71282,5,0
272,40,71723,1,0
320,88,71944,2,0,C|400:40,1,70
392,120,72384,2,0,C|472:72,1,70
392,208,73046,1,8
320,328,73486,1,2
208,240,73927,5,0
208,240,74038,2,0,C|176:216,1,35
112,240,74368,1,8
112,240,74478,2,2,B|80:216,1,35
32,168,74809,1,2
256,192,74919,12,0,77013
408,64,77454,5,0
408,200,77895,1,8
352,152,78115,1,8
296,104,78336,2,0,C|256:216|96:232,1,280
216,160,79658,1,8
72,160,80099,1,8
112,104,80320,1,0
184,104,80540,1,0
256,104,80761,1,8
328,104,80981,1,2
256,192,81091,12,0,83626
80,272,84067,5,0
152,272,84287,1,0
224,272,84508,1,0
224,272,84618,1,0
256,272,84728,1,0
256,272,84838,1,0
288,272,84949,1,0
288,272,85059,1,0
320,272,85169,1,0
320,272,85279,1,0
352,272,85390,6,8,C|424:328,1,70
408,240,85830,2,0,C|472:192,1,70
408,152,86271,1,8
408,80,86492,1,2
336,80,86712,5,0
200,120,87153,1,0
128,120,87373,2,0,C|128:80,1,35
128,48,87594,1,8
272,48,88035,1,0
272,120,88255,2,0,C|272:176,1,35
272,192,88475,1,8
192,304,88916,6,0,C|192:216,1,70
264,232,89357,2,8,C|264:320,1,70
336,304,89798,2,0,C|336:208,1,70
408,232,90239,1,8
336,112,90680,1,8
288,64,90900,2,0,C|248:64,1,35
216,64,91121,1,4
72,64,91561,1,8
72,136,91782,2,0,C|120:136,1,35
144,136,92002,1,4
256,192,92443,5,4
256,192,92553,12,4,95088
104,56,95529,5,2
256,192,95970,12,4,99497
