osu file format v14

[General]
AudioFilename: BanYa & Synthwulf - Hypnosis.mp3
AudioLeadIn: 0
PreviewTime: 40568
Countdown: 0
SampleSet: Soft
StackLeniency: 0.7
Mode: 0
LetterboxInBreaks: 1
WidescreenStoryboard: 0

[Editor]
DistanceSpacing: 1
BeatDivisor: 4
GridSize: 16
TimelineZoom: 1

[Metadata]
Title:Hypnosis (Synthwulf Mix)
TitleUnicode:Hypnosis (Synthwulf Mix)
Artist:BanYa
ArtistUnicode:BanYa
Creator:Ardiemerde
Version:Music
Source:
Tags:
BeatmapID:869683
BeatmapSetID:399561

[Difficulty]
HPDrainRate:6
CircleSize:4.5
OverallDifficulty:8
ApproachRate:9
SliderMultiplier:1.4
SliderTickRate:1

[Events]
//Background and Video events
0,0,"big-universe-space-wallpapers-1366x768.jpg",0,0
//Break Periods
2,64072,74243
//Storyboard Layer 0 (Background)
//Storyboard Layer 1 (Fail)
//Storyboard Layer 2 (Pass)
//Storyboard Layer 3 (Foreground)
//Storyboard Sound Samples

[TimingPoints]
9015.19227917103,342.857142857143,4,2,0,100,1,0
15186,-50,4,2,0,100,0,0
16910,-100,4,2,0,100,0,0
22729,-50,4,2,0,100,0,0
25472,-100,4,2,0,100,0,0
36358,-50,4,2,0,100,0,0
36443,-100,4,2,0,100,0,0
36453,-50,4,2,0,100,0,0
37129,-100,4,2,0,100,0,0
41939,-100,4,2,0,100,0,1
58396,-50,4,2,0,100,0,1
58739,-100,4,2,0,100,0,1
64053,-100,4,2,0,100,0,0

[HitObjects]
112,144,9031,5,4,0:0:0:0:
224,144,9358,1,0,0:0:0:0:
288,144,9700,2,0,L|368:160,2,70,8|0|0,0:0|0:0|0:0,0:0:0:0:
208,144,10215,2,0,L|112:144,1,70
64,144,10558,2,0,P|32:144|16:192,1,70
16,256,10900,2,0,L|112:256,2,70
160,240,11415,1,0,0:0:0:0:
240,208,11586,1,0,0:0:0:0:
304,144,11758,5,0,0:0:0:0:
96,80,12100,1,0,0:0:0:0:
272,48,12443,2,0,P|352:48|384:160,1,210
304,240,13300,1,0,0:0:0:0:
144,176,13472,1,0,0:0:0:0:
272,288,13643,1,0,0:0:0:0:
176,128,13815,1,0,0:0:0:0:
224,304,13986,1,0,0:0:0:0:
224,112,14158,1,0,0:0:0:0:
144,80,14329,5,0,0:0:0:0:
224,192,14500,1,0,0:0:0:0:
304,80,14843,1,0,0:0:0:0:
416,80,15186,2,0,P|448:80|416:144,1,140
352,176,15700,5,0,0:0:0:0:
432,288,15872,1,0,0:0:0:0:
256,288,16215,1,0,0:0:0:0:
176,208,16558,2,0,B|128:160|176:144|272:192,1,140
256,192,17243,12,8,19643,0:0:0:0:
224,304,19986,6,0,B|240:240|288:224|288:176|272:64|176:192,1,280,0|8,0:0|0:0,0:0:0:0:
175,192,21015,1,0,0:0:0:0:
320,192,21358,5,0,0:0:0:0:
175,192,21529,1,0,0:0:0:0:
320,192,21700,1,8,0:0:0:0:
176,192,21872,1,0,0:0:0:0:
240,112,22043,5,8,0:0:0:0:
256,304,22215,1,0,0:0:0:0:
240,112,22386,1,8,0:0:0:0:
256,304,22558,1,0,0:0:0:0:
432,64,22729,6,0,P|464:96|448:112,2,70
336,128,23072,6,0,P|317:169|338:178,2,70
176,208,23415,6,0,P|208:240|192:256,2,70,8|0|0,0:0|0:0|0:0,0:0:0:0:
64,272,23758,6,0,P|32:304|48:320,2,70
80,64,24100,6,0,P|80:144|112:192,1,140
432,192,24443,6,0,P|432:272|400:320,1,140
256,192,24786,12,0,25472,0:0:0:0:
416,288,25815,5,0,0:0:0:0:
80,96,26158,6,0,L|192:96,1,105,8|0,0:0|0:0,0:0:0:0:
320,192,26629,2,0,L|432:192,1,105
192,272,27100,2,0,L|80:272,1,105
272,272,27529,1,8,0:0:0:0:
320,208,27786,2,0,P|320:176|256:128,1,105
224,128,28215,5,0,0:0:0:0:
224,128,28729,1,0,0:0:0:0:
160,128,28900,1,8,0:0:0:0:
144,192,29758,5,0,0:0:0:0:
240,192,30100,1,0,0:0:0:0:
320,192,30272,2,0,B|400:192|320:160|96:192,1,280,8|0,0:0|0:0,0:0:0:0:
64,192,31472,1,0,0:0:0:0:
128,192,31643,6,8,L|288:192,1,140,8|0,0:0|0:0,0:0:0:0:
268,192,32329,2,0,L|412:192,1,140
320,272,33015,1,8,0:0:0:0:
240,272,33358,1,0,0:0:0:0:
160,128,33700,6,0,L|240:128,3,70
320,128,34386,2,0,P|368:144|256:224,1,280,8|0,0:0|0:0,0:0:0:0:
144,240,35243,5,0,0:0:0:0:
144,240,35586,1,0,0:0:0:0:
336,240,35758,1,8,0:0:0:0:
240,240,35929,1,0,0:0:0:0:
208,176,36463,6,0,P|320:128|208:112,1,280
237,87,37129,6,0,L|109:87,2,105,8|0|0,0:0|0:0|0:0,0:0:0:0:
128,176,37815,2,0,L|256:176,2,105
233,176,38500,2,0,P|329:176|329:272,1,210
256,192,39186,12,0,40558,0:0:0:0:
256,192,41586,5,4,0:0:0:0:
112,128,41929,5,0,0:0:0:0:
368,128,42272,1,8,0:0:0:0:
208,224,42615,2,0,L|288:224,2,70,0|0|8,0:0|0:0|0:0,0:0:0:0:
96,48,43129,5,0,0:0:0:0:
384,48,43472,1,0,0:0:0:0:
384,48,43643,1,8,0:0:0:0:
240,192,43815,1,0,0:0:0:0:
144,320,44158,2,0,L|288:320,1,140,0|8,0:0|0:0,0:0:0:0:
96,320,44672,5,0,0:0:0:0:
384,48,45015,1,8,0:0:0:0:
192,192,45358,2,0,L|288:192,2,70,0|0|8,0:0|0:0|0:0,0:0:0:0:
112,64,45872,5,0,0:0:0:0:
208,144,46215,1,0,0:0:0:0:
288,224,46558,2,0,L|320:256,2,35,0|0|8,0:0|0:0|0:0,0:0:0:0:
256,192,46900,1,0,0:0:0:0:
256,192,47243,1,8,0:0:0:0:
224,128,47758,5,8,0:0:0:0:
160,128,48100,6,0,L|256:128,2,70,0|8|0,0:0|0:0|0:0,0:0:0:0:
160,256,48615,1,0,0:0:0:0:
272,256,48958,1,8,0:0:0:0:
272,128,49300,1,0,0:0:0:0:
368,128,49643,2,0,L|368:288,1,140,8|0,0:0|0:0,0:0:0:0:
256,192,50158,5,0,0:0:0:0:
416,48,50500,1,0,0:0:0:0:
112,48,50843,1,8,0:0:0:0:
304,224,51186,1,0,0:0:0:0:
208,144,51358,1,0,0:0:0:0:
160,96,51700,1,0,0:0:0:0:
160,96,52043,1,8,0:0:0:0:
272,96,52386,1,0,0:0:0:0:
432,64,52900,6,0,L|272:64,1,140,0|8,0:0|0:0,0:0:0:0:
112,176,53586,2,0,L|256:176,1,140,0|8,0:0|0:0,0:0:0:0:
432,288,54272,2,0,L|288:288,1,140,0|8,0:0|0:0,0:0:0:0:
128,288,54958,1,0,0:0:0:0:
128,176,55300,1,8,0:0:0:0:
256,176,55643,6,0,L|400:176,2,140,0|8|0,0:0|0:0|0:0,0:0:0:0:
208,176,56672,1,8,0:0:0:0:
128,96,57100,5,0,0:0:0:0:
128,96,57272,1,0,0:0:0:0:
128,192,57358,1,8,0:0:0:0:
128,288,57529,1,0,0:0:0:0:
288,304,57872,5,0,0:0:0:0:
288,304,57958,1,0,0:0:0:0:
288,304,58043,1,8,0:0:0:0:
384,176,58215,1,0,0:0:0:0:
336,128,58406,6,0,P|144:112|144:176,1,280,0|8,0:0|0:0,0:0:0:0:
144,128,59072,6,0,L|224:128,1,70,0|8,0:0|0:0,0:0:0:0:
320,144,59586,1,0,0:0:0:0:
352,240,59929,1,8,0:0:0:0:
256,272,60272,2,0,L|176:288,1,70,0|8,0:0|0:0,0:0:0:0:
112,304,60786,1,0,0:0:0:0:
112,176,61129,6,0,P|192:144|224:80,1,140,0|8,0:0|0:0,0:0:0:0:
320,80,61643,1,0,0:0:0:0:
352,144,61815,1,0,0:0:0:0:
400,80,61986,1,8,0:0:0:0:
112,80,62329,5,0,0:0:0:0:
256,192,62672,1,0,0:0:0:0:
400,304,63015,1,8,0:0:0:0:
144,304,63358,6,0,L|96:304,6,35,0|0|8|0|0|0|0,0:0|0:0|0:0|0:0|0:0|0:0|0:0,0:0:0:0:
144,80,74843,5,0,0:0:0:0:
256,80,75186,2,0,L|336:80,1,70,0|8,0:0|0:0,0:0:0:0:
368,144,75700,2,0,P|384:176|368:208,1,70,0|8,0:0|0:0,0:0:0:0:
304,224,76215,2,0,L|208:224,1,70,0|8,0:0|0:0,0:0:0:0:
128,224,76729,2,0,P|128:256|160:288,1,70
304,288,77243,6,0,L|208:288,2,70,0|8|0,0:0|0:0|0:0,0:0:0:0:
368,240,78100,2,0,P|416:176|304:128,1,210,0|8,0:0|0:0,0:0:0:0:
240,128,79129,2,0,P|192:192|304:240,1,210,0|8,0:0|0:0,0:0:0:0:
320,192,80072,6,0,L|368:176,3,35
400,96,80843,2,0,P|336:64|208:128,1,210,0|8,0:0|0:0,0:0:0:0:
432,48,81872,1,0,0:0:0:0:
80,320,82386,1,8,0:0:0:0:
208,192,82900,5,0,0:0:0:0:
208,192,82986,1,0,0:0:0:0:
208,192,83071,1,0,0:0:0:0:
64,96,83758,6,0,B|64:176|160:240|208:240|208:240|320:272|384:272|384:320,2,420
160,96,85986,5,0,0:0:0:0:
192,96,86158,1,0,0:0:0:0:
224,96,86329,1,0,0:0:0:0:
256,96,86500,5,0,0:0:0:0:
288,96,86672,1,0,0:0:0:0:
320,96,86843,1,0,0:0:0:0:
352,96,87015,1,0,0:0:0:0:
128,176,87186,6,0,L|224:176,3,70
288,176,87872,2,0,L|384:176,3,70
224,256,88558,6,0,L|256:256,8,17.5
352,256,89072,1,0,0:0:0:0:
416,256,89243,1,0,0:0:0:0:
416,96,89415,2,0,L|336:96,1,70
256,96,89758,1,0,0:0:0:0:
112,96,89929,6,0,L|144:96,8,17.5
112,224,90443,1,0,0:0:0:0:
144,224,90615,1,0,0:0:0:0:
176,224,90786,1,0,0:0:0:0:
208,224,90958,1,0,0:0:0:0:
240,224,91129,1,0,0:0:0:0:
128,64,91300,5,0,0:0:0:0:
160,64,91386,1,0,0:0:0:0:
192,64,91472,1,0,0:0:0:0:
224,64,91558,1,0,0:0:0:0:
240,80,91643,1,0,0:0:0:0:
256,112,91729,1,0,0:0:0:0:
256,144,91815,1,0,0:0:0:0:
256,176,91900,1,0,0:0:0:0:
256,208,91986,5,0,0:0:0:0:
240,224,92072,1,0,0:0:0:0:
224,240,92158,1,0,0:0:0:0:
199,266,92243,1,0,0:0:0:0:
176,288,92329,1,0,0:0:0:0:
144,288,92415,1,0,0:0:0:0:
112,288,92500,1,0,0:0:0:0:
80,288,92586,1,0,0:0:0:0:
64,272,92672,5,0,0:0:0:0:
48,256,92758,1,0,0:0:0:0:
32,240,92843,1,0,0:0:0:0:
48,224,92929,1,0,0:0:0:0:
64,208,93015,1,0,0:0:0:0:
80,192,93100,1,0,0:0:0:0:
96,176,93186,1,0,0:0:0:0:
112,160,93272,1,0,0:0:0:0:
144,160,93358,5,0,0:0:0:0:
176,160,93443,1,0,0:0:0:0:
208,160,93529,1,0,0:0:0:0:
240,160,93615,1,0,0:0:0:0:
256,144,93700,1,0,0:0:0:0:
272,128,93786,1,0,0:0:0:0:
288,112,93872,1,0,0:0:0:0:
272,96,93958,1,0,0:0:0:0:
144,80,94043,6,0,L|208:80,2,52.5
336,80,94386,2,0,L|400:80,2,52.5
208,192,94729,2,0,L|272:192,2,52.5
384,192,95072,2,0,L|448:192,2,52.5
256,192,95500,12,8,96443,0:0:0:0:
112,96,96786,6,0,L|144:96,3,17.5
272,96,97129,2,0,L|352:96,1,70,0|8,0:0|0:0,0:0:0:0:
192,192,97472,2,0,L|240:192,2,35
288,288,97815,5,0,0:0:0:0:
384,288,97986,1,8,0:0:0:0:
304,176,98158,2,0,L|352:176,2,35
224,112,98500,5,0,0:0:0:0:
112,192,98672,1,8,0:0:0:0:
112,288,98843,2,0,L|400:288,1,280
400,208,99872,5,0,0:0:0:0:
288,160,100043,1,8,0:0:0:0:
160,112,100215,2,0,L|208:128,2,35
80,176,100558,2,0,L|80:256,1,70,0|8,0:0|0:0,0:0:0:0:
80,320,100900,5,0,0:0:0:0:
96,320,100986,1,0,0:0:0:0:
112,320,101072,1,0,0:0:0:0:
128,320,101158,1,0,0:0:0:0:
144,320,101243,1,0,0:0:0:0:
160,320,101329,1,0,0:0:0:0:
176,320,101415,1,8,0:0:0:0:
192,320,101500,1,0,0:0:0:0:
208,320,101586,5,0,0:0:0:0:
224,304,101672,1,0,0:0:0:0:
240,288,101758,1,0,0:0:0:0:
256,272,101843,1,0,0:0:0:0:
272,256,101929,1,0,0:0:0:0:
288,240,102015,1,0,0:0:0:0:
288,224,102100,1,8,0:0:0:0:
272,208,102186,1,0,0:0:0:0:
208,176,102272,6,0,L|80:240,1,140
80,240,102786,1,8,0:0:0:0:
192,240,102958,2,0,L|240:240,2,35
352,256,103300,5,0,0:0:0:0:
416,160,103472,1,8,0:0:0:0:
256,96,103643,2,0,L|304:112,2,35
112,304,103986,5,0,0:0:0:0:
400,304,104158,1,8,0:0:0:0:
400,96,104329,2,0,L|96:96,1,280
96,96,105100,1,0,0:0:0:0:
80,96,105186,1,0,0:0:0:0:
160,192,105358,5,0,0:0:0:0:
320,192,105529,1,8,0:0:0:0:
224,288,105700,2,0,L|272:288,2,35
144,96,106043,1,0,0:0:0:0:
320,96,106215,1,8,0:0:0:0:
256,192,106386,12,8,107415,0:0:0:0:
96,64,107758,5,0,0:0:0:0:
128,64,107843,1,0,0:0:0:0:
160,64,107929,1,0,0:0:0:0:
192,64,108015,1,0,0:0:0:0:
224,64,108100,1,8,0:0:0:0:
256,64,108186,1,0,0:0:0:0:
288,64,108272,1,0,0:0:0:0:
320,80,108358,1,0,0:0:0:0:
336,96,108443,6,0,L|368:128,3,35
352,144,108786,2,0,L|320:160,3,35,8|0|0|0,0:0|0:0|0:0|0:0,0:0:0:0:
288,176,109129,5,0,0:0:0:0:
256,192,109215,1,0,0:0:0:0:
224,208,109300,1,0,0:0:0:0:
192,224,109386,1,0,0:0:0:0:
160,240,109472,1,8,0:0:0:0:
144,272,109558,1,0,0:0:0:0:
176,288,109643,1,0,0:0:0:0:
208,304,109729,1,0,0:0:0:0:
240,304,109815,6,0,L|288:304,3,35
304,304,110158,2,0,L|368:304,3,35,8|0|0|0,0:0|0:0|0:0|0:0,0:0:0:0:
368,272,110500,5,0,0:0:0:0:
352,192,110672,1,0,0:0:0:0:
352,192,110758,1,0,0:0:0:0:
352,192,110843,1,0,0:0:0:0:
256,160,111015,1,0,0:0:0:0:
272,96,111186,6,0,P|320:64|352:144,1,140
352,176,111872,5,0,0:0:0:0:
128,288,112043,1,0,0:0:0:0:
128,288,112129,1,0,0:0:0:0:
128,288,112215,1,8,0:0:0:0:
192,208,112386,1,0,0:0:0:0:
256,144,112558,2,0,L|288:176,2,35
304,240,112900,1,8,0:0:0:0:
128,208,113243,6,0,L|112:240,3,35
160,240,113586,2,0,L|176:208,3,35,8|0|0|0,0:0|0:0|0:0|0:0,0:0:0:0:
224,208,113929,2,0,L|208:240,3,35
272,208,114272,1,8,0:0:0:0:
128,64,114615,2,0,L|112:96,3,35
160,96,114958,2,0,L|176:64,3,35,8|0|0|0,0:0|0:0|0:0|0:0,0:0:0:0:
224,64,115300,2,0,L|208:96,3,35
272,64,115643,1,8,0:0:0:0:
256,192,115986,12,4,118729,0:0:0:0:
