osu file format v5

[General]
AudioFilename: pump it up - banya - csikos post.mp3
AudioLeadIn: 2515
PreviewTime: -1
Countdown: 1
SampleSet: Normal
StackLeniency: 0.7
Mode: 0
LetterboxInBreaks: 1

[Metadata]
Title:Csikos Post
Artist:BanYa
Creator:Kai
Version:Normal
Source:
Tags:

[Difficulty]
HPDrainRate:5
CircleSize:5
OverallDifficulty:4
SliderMultiplier:0.999999999999999
SliderTickRate:2

[Events]
//Background and Video events
0,0,"csikos-post-banya.jpg"
//Break Periods
//Storyboard Layer 0 (Background)
//Storyboard Layer 1 (Failing)
//Storyboard Layer 2 (Passing)
//Storyboard Layer 3 (Foreground)
//Storyboard Sound Samples
//Background Colour Transformations
3,100,163,162,255

[TimingPoints]
5348,333.333333333333,4,1,0,100,1

[Colours]
Combo1 : 214,24,3
Combo2 : 12,242,0
Combo3 : 62,172,215
Combo4 : 0,0,255
Combo5 : 128,0,255

[HitObjects]
256,192,28,12,0,5361
328,192,6014,5,0
184,192,6681,1,0
48,192,8014,5,0
120,192,8347,1,0
192,192,8681,1,0
328,192,9347,1,0
400,192,9681,1,0
472,192,10014,1,0
472,328,10681,5,0
328,328,11348,1,0
184,328,12014,1,0
40,328,12681,1,0
40,256,13014,1,0
40,184,13348,6,0,L|40:40|88:80,1,200
160,192,14681,5,0
232,192,15014,1,0
304,192,15348,1,0
328,328,16014,6,0,L|104:328,1,200
96,192,17348,5,0
168,192,17681,1,0
240,192,18014,1,0
312,192,18348,1,0
384,192,18681,6,6,L|384:80,1,99.9999999999999
344,32,19347,1,6
200,32,20014,6,6,L|96:32,1,99.9999999999999
136,96,20681,1,6
40,200,21347,5,0
40,336,22014,1,0
176,336,22681,1,0
312,336,23347,1,0
440,288,24014,6,6,L|440:184,1,99.9999999999999
400,128,24681,1,6
272,64,25347,6,6,L|272:184,1,99.9999999999999
272,232,26014,1,6
256,192,26681,12,0,29014
152,64,29347,6,0,C|360:64,1,200
392,120,30347,1,0
360,184,30681,2,0,C|152:184,1,200
104,224,31681,1,0
104,160,32014,1,0
48,48,33347,5,0
104,96,33681,1,0
48,144,34014,1,0
40,280,34681,2,0,L|264:280,3,200
312,280,37014,1,0
384,280,37347,5,0
424,224,37681,1,0
376,176,38014,1,0
232,168,38681,1,0
160,168,39014,1,0
200,112,39347,1,0
256,192,40014,12,0,42348
256,48,42681,6,6,L|256:152,1,99.9999999999999
256,216,43348,1,6
256,352,44014,6,6,L|360:352,1,99.9999999999999
408,304,44681,1,6
408,160,45348,5,0
408,16,46014,1,0
296,96,46681,1,0
176,176,47348,1,0
56,248,48014,6,6,L|128:336,1,99.9999999999999
184,336,48681,1,6
320,336,49348,6,6,L|320:232,1,99.9999999999999
320,168,50014,1,6
256,192,50681,12,6,53014
256,320,53348,5,0
128,320,54014,1,0
128,192,54681,5,4
256,192,55348,1,0
384,192,56014,5,4
384,64,56681,1,0
256,64,57348,5,4
256,192,58014,1,0
136,192,58681,5,4
136,320,59348,1,0
256,320,60014,5,4
256,192,60681,1,0
256,72,61348,5,4
400,72,62014,1,0
400,192,62681,5,4
504,344,64014,6,0,L|32:345|32:200,1,600
32,128,66681,6,0,L|32:32|464:31|464:104,1,599.999999999999
464,184,69348,6,0,L|464:344|24:344,1,600
32,272,72014,6,0,L|32:56,1,200
120,72,73348,2,0,L|344:72,1,200
472,136,74681,6,2,L|472:344|72:344,1,600
40,272,77348,6,2,L|26:160|128:120,3,200
216,40,80014,5,2
288,48,80347,1,2
360,56,80681,1,2
424,72,81014,1,2
456,128,81347,1,2
472,192,81681,1,2
424,240,82014,1,2
480,280,82347,1,2
464,344,82681,6,2,L|256:344,1,200
136,344,84014,2,2,L|71:243|72:144,1,200
184,80,85347,6,6,L|272:144,1,99.9999999999999
320,176,86014,1,6
184,200,86681,6,6,L|176:304,1,99.9999999999999
232,336,87347,1,6
312,280,88014,5,0
472,280,88681,1,0
472,120,89347,1,0
312,120,90014,1,0
200,208,90681,6,6,L|152:152,2,50
248,256,91347,1,6
384,240,92014,6,6,L|384:296,2,50
384,168,92681,1,6
256,192,93347,12,0,95681
256,192,96014,12,0,98347
256,192,98681,12,4,101014
