osu file format v5

[General]
AudioFilename: pump it up - banya - csikos post.mp3
AudioLeadIn: 2526
PreviewTime: -1
Countdown: 1
SampleSet: Normal
StackLeniency: 0.7
Mode: 0
LetterboxInBreaks: 1

[Metadata]
Title:Csikos Post
Artist:BanYa
Creator:Kai
Version:Easy
Source:
Tags:

[Difficulty]
HPDrainRate:3
CircleSize:3
OverallDifficulty:3
SliderMultiplier:0.8
SliderTickRate:2

[Events]
//Background and Video events
0,0,"csikos-post-banya.jpg"
//Break Periods
//Storyboard Layer 0 (Background)
//Storyboard Layer 1 (Failing)
//Storyboard Layer 2 (Passing)
//Storyboard Layer 3 (Foreground)
//Storyboard Sound Samples
//Background Colour Transformations
3,100,163,162,255

[TimingPoints]
5348,333.333333333333,4,1,0,100,1

[Colours]
Combo1 : 214,24,3
Combo2 : 12,242,0
Combo3 : 62,172,215
Combo4 : 0,0,255
Combo5 : 128,0,255

[HitObjects]
256,192,28,12,0,5361
328,192,6014,5,0
168,192,6681,1,0
128,312,8014,5,0
184,192,8681,1,0
312,192,9347,1,0
440,192,10014,1,0
448,320,10681,5,0
320,320,11347,1,0
192,320,12014,1,0
64,320,12681,1,0
48,192,13348,6,0,L|48:112|128:112,1,160
192,224,14681,5,0
304,160,15348,1,0
344,280,16014,6,0,L|272:296|184:304,1,160
136,200,17348,5,0
248,184,18014,1,0
360,184,18681,6,6,L|360:96,1,80
320,64,19347,1,6
208,48,20014,6,6,L|120:48,1,80
80,72,20681,1,6
64,200,21347,6,0,L|64:272|248:272,1,240
320,272,22681,2,0,L|392:272|392:184,1,160
392,88,24014,6,6,L|296:88,1,80,6|6
256,88,24681,1,6
160,144,25347,6,6,L|160:240,1,80,6|6
200,264,26014,1,6
256,192,26681,12,0,29014
352,104,29347,6,0,C|192:104,1,160
160,200,30681,2,0,C|328:200,1,160
392,200,31681,1,0
144,64,33347,5,0
144,176,34014,1,0
144,288,34681,2,0,L|312:288,3,160
352,184,37347,5,0
344,56,38681,5,0
248,120,39347,1,0
256,192,40014,12,0,42347
256,32,42681,6,6,L|256:120,1,80
256,168,43348,1,6
240,280,44014,6,6,L|328:280,1,80
376,280,44681,1,6
432,184,45348,5,0
208,184,46681,1,0
32,320,48014,6,6,L|112:320,1,80
168,320,48681,1,6
280,320,49348,6,6,L|280:240,1,80
280,184,50014,1,6
256,192,50681,12,6,53014
112,192,54681,5,4
400,192,56014,1,4
256,312,57348,1,4
112,192,58681,1,4
256,312,60014,1,4
400,192,61348,1,4
256,312,62681,1,4
504,344,64014,6,0,L|24:344,1,480
80,248,66681,6,0,L|136:136|363:117|432:232,1,480
488,344,69348,6,0,L|8:344,1,480
40,232,72014,6,0,L|40:56,1,160
152,72,73347,2,0,L|152:232,1,160
16,344,74681,6,2,L|496:344,1,480
432,248,77347,6,2,L|360:216|384:136,3,160
496,48,80014,6,2,L|16:48,1,480
32,160,82681,6,2,L|32:320,1,160
144,320,84014,2,2,L|144:160,1,160
224,240,85347,6,6,L|312:240,1,80
360,232,86014,1,6
304,120,86681,6,6,L|256:120|256:160,1,80
208,176,87347,1,6
152,56,88014,6,4,L|320:56,1,160
312,168,89347,2,4,L|152:168,1,160
96,264,90681,6,6,L|160:312,1,80
208,328,91347,1,6
320,336,92014,6,6,L|320:256,1,80
320,200,92681,1,6
256,192,93347,12,0,101014
