osu file format v5

[General]
AudioFilename: Star rise.mp3
AudioLeadIn: 0
PreviewTime: -1
Countdown: 1
SampleSet: Normal
StackLeniency: 0.7
Mode: 0
EditorBookmarks: 29536,58027,103612,147104

[Metadata]
Title:STAR RISE
Artist:Bamboo Blade ED
Creator:pokedigi
Version:Normal

[Difficulty]
HPDrainRate:4
CircleSize:5
OverallDifficulty:4
SliderMultiplier:1.4
SliderTickRate:1

[Events]
//Background and Video events
0,0,"Bamboo.jpg"
//Break Periods
2,44505,57292
2,85889,103478
2,132419,146601
//Storyboard Layer 0 (Background)
//Storyboard Layer 1 (Failing)
//Storyboard Layer 2 (Passing)
//Storyboard Layer 3 (Foreground)
//Storyboard Sound Samples
//Background Colour Transformations
3,100,163,162,255

[TimingPoints]
17080,465.152337390495,4,1,0,100

[HitObjects]
112,112,30104,2,0,B|336:112,1,210
384,112,31034,1,2
384,272,31964,5,0
272,272,32429,1,2
160,272,32894,1,0
64,96,33825,2,2,B|432:96,1,350
416,208,35453,1,0
400,112,37546,6,0,B|176:112,1,210
128,112,38476,1,2
128,272,39406,5,0
240,272,39871,1,2
352,272,40336,1,0
448,96,41267,2,2,B|80:96,1,350
96,208,42895,1,0
208,208,43361,1,0
320,208,43826,1,0
64,112,58478,5,2
144,112,58943,1,2
224,112,59408,1,2
336,112,59874,2,2,B|432:112|480:176|480:256|416:336|284:335|284:335,1,385
144,336,61734,1,0
144,224,62199,1,0
48,80,62897,5,0
48,80,63130,1,0
160,80,63595,2,2,B|223:78|271:158,2,140
144,240,65223,6,0,B|239:314|352:240,1,210
336,192,66153,1,2
400,96,66618,5,0
336,96,66851,1,0
224,96,67316,2,2,B|80:96|80:240,1,210
160,288,69177,6,2,B|160:159|304:160,1,210
400,160,70339,1,0
400,272,70805,1,0
400,320,71037,6,2,B|180:321|48:320,1,350
80,272,72433,1,2
112,224,72665,1,6
64,112,73363,5,2
144,112,73828,1,2
224,112,74293,1,2
336,112,74759,2,2,B|432:112|480:176|480:256|416:336|284:335|284:335,1,385
144,336,76619,1,0
144,224,77084,1,0
48,80,77782,5,0
48,80,78015,1,0
160,80,78480,2,2,B|223:78|271:158,2,140
144,240,80108,6,0,B|239:314|352:240,1,210
336,192,81038,1,2
400,96,81503,5,0
336,96,81736,1,0
224,96,82201,2,2,B|81:99|80:256,2,210
224,256,84294,5,2
336,256,84759,1,2
336,144,85224,1,2
224,144,85689,1,2
112,272,104528,6,0,B|336:272,1,210
384,272,105458,1,2
384,112,106388,5,0
272,112,106853,1,2
160,112,107318,1,0
64,288,108249,2,2,B|432:288,1,350
416,176,109877,1,0
400,272,111970,6,0,B|176:272,1,210
128,272,112900,1,2
128,112,113830,5,0
240,112,114295,1,2
352,112,114760,1,0
448,288,115691,2,2,B|80:288,1,350
96,176,117319,1,0
208,176,117785,1,0
320,176,118250,1,0
432,176,118715,1,0
304,64,119413,6,0,B|342:117|432:128,2,140
304,208,121274,6,0,B|342:261|432:272,2,140
112,80,123134,2,2,B|231:34|352:80,1,210
336,176,124297,1,0
352,288,124762,2,2,B|217:350|64:288,1,280
112,192,126158,1,0
224,176,126623,1,0
160,112,127321,5,0
64,176,127786,2,2,B|49:315|192:320,1,210
320,288,129181,1,0
336,208,129646,2,0,B|272:144,1,70
144,96,130577,6,2,B|40:183|192:288,1,210
256,208,131740,1,2
256,208,132205,1,6
96,96,147787,5,0
160,192,148252,1,0
224,96,148718,1,0
336,96,149183,2,2,B|416:176|320:304,1,210
112,192,151043,6,0,B|48:256,2,70
144,304,152206,5,0
144,304,152439,1,0
48,256,152904,2,2,B|94:180|166:217,1,140
224,192,153602,2,2,B|268:97|368:128,1,140
416,48,154532,2,2,B|256:48,2,140
336,128,155927,5,0
368,176,156160,1,0
464,224,156625,2,2,B|432:336|288:384|144:336,1,350
256,192,158718,12,0,161277
