osu file format v5

[General]
AudioFilename: Bumble Bee.ogg
AudioLeadIn: 0
PreviewTime: -1
Countdown: 1
SampleSet: Normal
StackLeniency: 0.7
Mode: 0
LetterboxInBreaks: 1

[Metadata]
Title:Bumble Bee
Artist:Bambee
Creator:Skyripper
Version:Medium
Source:ITG2, In the Groove 2
Tags:itg in the groove bambee bumble bee

[Difficulty]
HPDrainRate:4
CircleSize:5
OverallDifficulty:4
SliderMultiplier:1.4
SliderTickRate:2

[Events]
//Background and Video events
0,0,"Bumble Bee-bg.png"
//Break Periods
2,12119,14632
2,52119,56251
2,79945,82458
2,93858,96371
//Storyboard Layer 0 (Background)
//Storyboard Layer 1 (Failing)
//Storyboard Layer 2 (Passing)
//Storyboard Layer 3 (Foreground)
//Storyboard Sound Samples
//Background Colour Transformations
3,100,255,255,0

[TimingPoints]
8876,434.782608695652,4,1,0,90,1

[Colours]
Combo1 : 255,196,196
Combo2 : 255,255,117
Combo3 : 255,215,174

[HitObjects]
48,48,8876,2,0,L|208:48,4,140
48,160,11049,1,0
48,224,11267,1,0
160,224,11702,2,4,L|256:224,1,70
112,208,15832,5,0
224,208,16267,1,0
336,208,16702,1,0
336,96,17136,1,0
224,96,17571,1,0
112,96,18006,1,0
112,208,18441,1,0
224,208,18875,1,0
336,208,19310,6,0,L|336:112,2,70
336,320,20180,1,2
224,320,20615,1,0
144,272,21049,6,0,L|144:176,2,70
32,272,21919,1,2
32,160,22354,1,2
144,160,22789,5,0
256,160,23223,2,0,L|304:160|304:192,1,70
304,240,23658,1,0
304,304,23875,1,0
368,304,24093,1,0
480,304,24528,1,0
480,240,24745,1,0
480,176,24962,1,0
480,112,25180,1,0
416,112,25397,1,0
352,112,25615,1,0
288,112,25832,1,0
176,112,26267,6,0,L|176:192,2,70
64,112,27136,1,2
64,224,27571,1,2
176,224,28006,6,0,L|176:304,2,70
176,112,28875,1,2
288,112,29310,1,2
256,192,29745,12,0,31049
432,64,31267,5,0
432,128,31484,1,0
432,240,31919,1,0
368,240,32136,1,0
368,176,32354,1,0
368,64,32789,1,0
304,64,33006,1,0
304,128,33223,2,0,L|208:128,2,70
304,192,33875,1,0
288,304,34528,5,0
224,304,34745,1,0
160,304,34962,1,2
48,304,35397,1,2
48,192,35832,1,2
48,80,36267,5,0
112,80,36484,1,0
176,80,36702,1,2
288,80,37136,1,2
288,192,37571,1,2
288,304,38006,5,0
352,304,38223,1,0
416,304,38441,2,0,L|480:304|480:224,1,140,0|0
480,112,39310,2,0,L|480:32|400:32,1,140
304,32,40180,1,0
240,32,40397,1,0
176,32,40615,1,0
112,32,40832,1,0
80,256,41702,5,0
80,320,41919,1,0
144,320,42136,1,0
208,320,42354,2,0,L|208:240,2,70
320,320,43223,2,0,L|480:320,1,140
464,208,44093,1,0
464,144,44310,1,0
144,144,45397,5,4
144,256,45832,5,0
208,256,46049,6,0,L|208:208,2,35,0|0|0
272,256,46484,6,8,L|272:304,2,35,8|8|8
336,256,46919,6,0,L|336:208,2,35,0|0|4
448,256,47571,5,0
448,192,47789,6,0,L|384:192,2,35,0|0|0
448,128,48223,6,8,L|496:128,2,35,8|8|8
448,64,48658,5,0
384,64,48875,1,4
272,64,49310,5,0
208,64,49528,6,0,L|208:128,2,35
144,64,49962,6,8,L|144:16,2,35
144,128,50397,2,0,L|144:256|256:256,1,210
288,256,51267,6,0,L|288:304,2,35
352,256,51702,6,8,L|352:192,2,35,0|0|0
256,192,57571,12,4,59310
464,336,59745,5,0
400,336,59962,1,0
336,336,60180,1,0
272,336,60397,1,0
208,336,60615,1,0
208,224,61049,5,0
272,224,61267,1,0
336,224,61484,1,0
400,224,61702,1,0
464,224,61919,1,0
464,160,62136,1,0
464,96,62354,1,0
352,96,62789,6,0,L|387:96,6,35
288,96,63658,1,2
224,96,63875,1,8
160,96,64093,1,2
160,208,64528,6,0,L|125:208,6,35
224,208,65397,1,2
288,208,65614,1,8
352,208,65832,1,2
464,208,66267,5,0
464,320,66702,1,0
400,320,66919,1,0
336,320,67136,2,0,L|336:240,2,70
224,320,68006,5,0
160,320,68223,1,0
96,320,68441,1,0
96,256,68658,1,0
96,192,68875,2,0,L|176:192,2,70
96,80,69745,6,0,L|61:80,6,35
160,80,70615,2,0,L|160:0,2,70,2|8|2
160,192,71484,6,0,L|125:192,6,35
224,192,72354,2,0,L|224:288,2,70,2|8|2
336,192,73223,6,0,L|432:192,1,70
464,192,73658,6,0,L|464:288,1,70
464,320,74093,6,0,L|384:320,1,70
336,320,74528,6,0,L|336:240,1,70
336,192,74962,6,0,L|256:192,1,70
208,192,75397,6,0,L|112:192,2,70
272,192,76049,1,4
336,192,76267,1,4
336,128,76484,1,4
336,64,76702,5,0
224,64,77136,1,0
160,64,77354,1,0
96,64,77571,1,8
96,176,78006,1,10
96,288,78441,5,0
208,288,78875,1,0
272,288,79093,1,0
336,288,79310,1,8
448,288,79745,1,10
48,48,83658,5,0
112,48,83875,2,0,L|160:48,1,35
144,96,84202,2,0,L|144:144,1,35
144,192,84528,2,2,L|288:192,1,140
400,192,85397,5,0
400,256,85615,2,0,L|400:304,1,35
336,288,85941,2,0,L|288:288,1,35
240,288,86267,2,2,L|80:288,1,140
96,176,87136,5,0
96,112,87354,6,0,L|32:112,2,35
208,112,88006,5,0
272,112,88223,1,0
336,112,88441,1,8
448,112,88875,5,0
448,176,89093,6,0,L|496:176,2,35
448,288,89745,5,0
384,288,89962,1,0
320,288,90180,1,8
208,288,90615,6,0,L|208:336,6,35
208,224,91484,5,2
208,112,91919,1,2
320,112,92354,6,0,L|320:64,6,35
320,176,93223,5,2
320,288,93658,1,2
112,208,97571,5,0
176,208,97789,1,0
208,208,97897,1,0
272,208,98115,1,0
272,240,98223,1,0
336,240,98441,2,2,L|416:240|416:176,1,140
400,64,99310,5,0
336,64,99528,1,0
336,96,99636,1,0
272,96,99854,1,0
240,96,99962,1,0
176,96,100180,2,2,L|96:96|96:160,1,140
96,272,101049,5,4
