osu file format v5

[General]
AudioFilename: Bumble Bee.ogg
AudioLeadIn: 0
PreviewTime: -1
Countdown: 1
SampleSet: Normal
StackLeniency: 0.7
Mode: 0
LetterboxInBreaks: 1

[Metadata]
Title:Bumble Bee
Artist:Bambee
Creator:Skyripper
Version:Expert
Source:
Tags:

[Difficulty]
HPDrainRate:7
CircleSize:5
OverallDifficulty:7
SliderMultiplier:1.4
SliderTickRate:2

[Events]
//Background and Video events
0,0,"Bumble Bee-bg.png"
//Break Periods
2,52119,56671
//Storyboard Layer 0 (Background)
//Storyboard Layer 1 (Failing)
//Storyboard Layer 2 (Passing)
//Storyboard Layer 3 (Foreground)
//Storyboard Sound Samples
//Background Colour Transformations
3,100,255,255,0

[TimingPoints]
8876,434.782608695652,4,1,0,90,1

[Colours]
Combo1 : 255,196,196
Combo2 : 255,255,117
Combo3 : 255,215,174

[HitObjects]
48,48,8876,1,0
128,48,9202,1,0
176,48,9310,1,0
176,112,9528,1,0
176,144,9636,1,0
272,144,9962,1,8
416,144,10397,5,0
416,208,10615,1,0
352,208,10832,1,0
352,208,10941,1,0
352,208,11049,1,0
288,208,11267,1,0
256,208,11376,1,0
144,208,11702,1,0
144,208,11810,1,0
144,208,11919,1,0
144,272,12136,1,8
208,272,12354,5,0
352,272,12789,1,0
448,272,13115,1,0
448,160,13441,1,0
304,160,13875,1,8
240,160,14093,2,4,L|160:160|160:80|240:80|240:32|160:32|96:32|112:32,1,420,4|6
32,32,15832,6,0,L|32:112|112:112,1,140
92,175,16484,1,0
91,237,16702,1,0
93,299,16919,1,0
160,299,17136,2,0,L|240:299|240:235,1,140
240,176,17789,5,0
240,112,18006,1,0
240,48,18223,1,0
304,48,18441,1,0
368,48,18658,1,0
368,112,18875,2,0,L|368:192|432:192,1,140
496,192,19528,5,0
496,224,19636,1,0
496,288,19854,1,0
464,288,19962,1,0
400,288,20180,2,2,L|320:288|320:224,1,140
320,80,21049,5,0
256,80,21267,1,0
224,80,21375,1,0
224,144,21593,1,0
224,176,21702,1,0
224,240,21919,2,2,L|224:320|288:320,1,140
416,320,22789,5,0
416,176,23223,1,0
416,112,23441,1,0
416,48,23658,1,0
352,48,23875,1,0
288,48,24093,1,0
288,192,24528,5,0
288,256,24745,1,0
288,320,24962,1,0
224,320,25180,1,0
160,320,25397,1,0
160,256,25615,1,0
96,256,25832,1,0
96,112,26267,5,0
160,112,26484,2,0,B|208:112,1,35
192,176,26810,2,0,B|192:224,1,35
192,288,27136,2,2,L|272:288|272:224,1,140
272,80,28006,5,0
336,80,28223,2,0,B|384:80,1,35
384,144,28549,2,0,B|384:192,1,35
384,256,28875,2,2,L|384:336|320:336,1,140
176,336,29745,5,4
176,128,30397,6,0,L|224:128,2,35
240,160,30832,6,0,L|288:160,2,35
304,192,31267,6,0,L|352:192,2,35,0|0|8
448,192,31919,5,0
448,80,32245,1,0
336,80,32571,1,0
192,80,33006,1,0
128,80,33223,1,0
128,224,33658,1,0
128,320,33984,2,0,L|80:320,1,35
32,320,34310,1,8
32,256,34528,5,0
32,192,34745,1,0
32,128,34962,1,2
176,128,35397,1,2
320,128,35832,1,2
320,128,36702,5,2
176,128,37136,1,2
32,128,37571,1,2
256,288,38441,5,0
256,144,38875,1,0
256,32,39202,1,0
144,32,39528,1,0
144,176,39962,5,0
144,240,40180,1,0
288,240,40615,1,0
288,128,40941,1,0
320,128,41049,1,0
384,128,41267,1,8
448,128,41484,1,0
448,192,41702,5,0
448,256,41919,1,0
304,256,42354,1,0
240,256,42571,1,0
208,256,42680,1,0
96,256,43006,1,0
96,112,43441,5,0
96,176,43658,1,0
240,176,44093,1,0
336,176,44419,1,0
336,144,44528,1,0
336,80,44745,1,2
192,80,45180,1,8
128,80,45397,5,4
128,224,45832,5,0
128,288,46049,5,0
128,288,46158,1,0
128,288,46267,1,0
192,288,46484,5,0
192,288,46593,1,0
192,288,46702,1,8
192,224,46919,5,0
192,224,47028,1,0
192,224,47136,1,0
256,224,47354,5,0
256,224,47462,1,0
256,224,47571,1,8
256,288,47789,5,0
256,288,47897,1,0
256,288,48006,1,0
320,288,48223,5,0
320,288,48332,1,0
320,288,48441,1,8
320,224,48658,6,0,L|368:224,2,35
320,160,49093,6,0,L|368:160,2,35,0|0|8
256,160,49528,6,0,L|304:160,2,35
192,160,49962,6,0,L|240:160,2,35,0|0|8
128,192,50397,5,0
128,192,50506,1,0
128,192,50615,1,0
211,224,50832,6,0,L|176:224,2,35,0|0|8
281,224,51267,5,0
281,224,51375,1,0
281,224,51484,1,0
352,224,51702,6,0,L|392:224,2,35,0|0|8
256,192,57571,12,4,59310
112,304,59745,5,0
176,304,59962,1,0
240,304,60179,1,0
304,304,60396,1,0
368,304,60614,1,0
368,160,61049,5,0
304,160,61266,1,0
240,160,61483,1,0
176,160,61701,1,0
112,160,61918,1,0
48,160,62136,1,0
48,224,62353,1,0
192,224,62788,5,0
256,224,63005,1,0
288,224,63114,1,0
352,224,63331,1,0
384,224,63440,1,0
384,160,63658,2,2,L|384:80|304:80,1,140
176,80,64527,5,0
112,80,64744,1,0
112,112,64853,1,0
112,176,65070,1,0
80,176,65179,1,0
16,176,65397,2,2,L|16:256|96:256,1,140
208,256,66266,5,0
352,256,66701,1,0
416,256,66918,1,0
416,192,67136,1,0
416,128,67353,1,0
352,128,67570,1,0
208,128,68005,5,0
144,128,68223,1,0
80,128,68440,1,0
80,192,68657,1,0
80,256,68875,1,0
144,256,69092,1,0
208,256,69309,1,0
208,112,69744,5,0
272,112,69962,1,0
304,112,70070,1,0
304,176,70288,1,0
304,208,70396,1,0
304,272,70615,2,2,L|208:272|208:336,1,140
64,320,71483,5,0
64,256,71701,1,0
96,256,71809,1,0
96,192,72027,1,0
96,160,72136,1,0
160,160,72354,2,2,L|256:160|256:112,1,140
400,112,73223,5,0
400,256,73657,1,0
288,256,73983,1,8
288,144,74309,1,8
144,144,74744,5,0
80,144,74962,1,0
80,288,75396,1,0
192,288,75723,1,0
224,288,75831,1,8
288,288,76049,1,8
352,288,76266,1,8
416,288,76483,1,8
480,288,76701,5,0
480,224,76918,2,0,L|480:176,1,35
416,192,77244,2,0,L|352:192,1,35
304,192,77571,2,2,L|304:112|240:112,1,140
96,112,78440,5,0
96,176,78657,2,0,L|48:176,1,35
64,240,78983,2,0,L|64:288,1,35
128,272,79310,2,2,L|208:272|208:208,1,140
352,208,80180,6,0,L|400:208|400:160,1,70,0|8
400,112,80615,6,0,L|352:112|352:144,1,70,0|8
352,208,81049,6,0,L|304:208|304:176,1,70,0|8
304,112,81484,6,0,L|208:112|208:176,1,140
208,288,82353,5,8
272,288,82571,6,0,L|368:288|368:336,2,140,0|0|8
272,224,83657,5,0
208,224,83875,2,0,L|208:160,1,35
144,192,84201,2,0,L|80:192,1,35
32,192,84528,1,2
32,128,84745,1,8
32,64,84962,1,2
176,64,85397,5,0
240,64,85615,1,0
240,96,85723,1,0
240,160,85941,1,0
272,160,86049,1,0
336,160,86267,1,2
400,160,86484,1,8
400,96,86702,1,2
256,96,87136,5,0
192,96,87354,5,0
192,96,87462,1,0
192,96,87571,1,0
192,160,87789,5,0
192,160,87897,1,0
192,160,88006,1,0
128,160,88223,5,0
128,160,88332,1,0
128,160,88441,1,0
64,160,88658,5,0
64,160,88767,1,0
64,160,88875,1,0
64,224,89093,5,0
64,224,89202,1,0
64,224,89310,1,8
128,224,89528,5,0
128,224,89636,1,0
128,224,89745,1,0
128,288,89962,5,0
128,288,90071,1,0
128,288,90180,1,8
192,288,90397,5,0
192,288,90506,1,0
192,288,90615,5,0
256,288,90832,2,0,L|256:240,1,35
320,256,91158,2,0,L|368:256,1,35
432,256,91484,2,2,L|432:160|384:160,1,140
240,160,92354,5,0
176,160,92571,2,0,L|176:208,1,35
112,192,92897,2,0,L|64:192,1,35
80,128,93223,2,2,L|80:48|160:48,1,140
272,48,94093,5,0
336,48,94310,1,0
400,48,94528,1,0
400,112,94745,1,0
400,144,94854,1,0
400,240,95180,1,0
368,240,95289,1,0
336,240,95397,1,0
272,240,95615,5,0
208,240,95832,1,0
144,240,96049,1,0
80,240,96267,1,0
80,176,96484,1,0
80,144,96593,1,0
176,144,96919,1,0
176,80,97136,1,0
240,80,97354,1,0
304,80,97571,5,0
304,144,97789,1,0
304,176,97897,1,0
368,176,98115,1,0
400,176,98223,1,0
464,176,98441,2,0,L|464:272|400:272,1,140
272,272,99310,5,0
208,272,99528,1,0
208,240,99636,1,0
144,240,99854,1,0
112,240,99962,1,0
48,240,100180,5,0
48,96,100615,5,0
192,96,101049,5,4
