osu file format v10

[General]
AudioFilename: bumble bee.mp3
AudioLeadIn: 1522
PreviewTime: 95599
Countdown: 0
SampleSet: Normal
StackLeniency: 0.7
Mode: 0
LetterboxInBreaks: 1

[Editor]
DistanceSpacing: 0.8
BeatDivisor: 4
GridSize: 4

[Metadata]
Title:Bumble Bee (Nightcore Mix)
TitleUnicode:Bumble Bee (Nightcore Mix)
Artist:Bambee
ArtistUnicode:Bambee
Creator:murasaki_sk
Version:Insane
Source:
Tags:
BeatmapID:185776
BeatmapSetID:62661

[Difficulty]
HPDrainRate:8
CircleSize:4
OverallDifficulty:7
ApproachRate:9
SliderMultiplier:1.8
SliderTickRate:1

[Events]
//Background and Video events
0,0,"BG.png"
//Break Periods
2,4564,7185
2,25264,25725
2,72784,77385
2,118864,120945
2,124391,126705
//Storyboard Layer 0 (Background)
//Storyboard Layer 1 (Fail)
//Storyboard Layer 2 (Pass)
//Storyboard Layer 3 (Foreground)
//Storyboard Sound Samples
//Background Colour Transformations
3,100,163,162,255

[TimingPoints]
2026,359.99928000144,4,2,0,50,1,0
7785,-100,4,1,0,70,0,0
49545,-83.3333333333333,4,1,0,80,0,1
60705,-83.3333333333333,4,1,0,70,0,0
95625,-76.9230769230769,4,1,0,80,0,1
107145,-83.3333333333333,4,1,0,70,0,0
130185,-71.4285714285714,4,1,0,80,0,1
141705,-83.3333333333333,4,1,0,70,0,0

[Colours]
Combo1 : 82,173,248
Combo2 : 255,255,11
Combo3 : 239,162,99
Combo4 : 169,224,22

[HitObjects]
164,192,2025,1,0,0:0:0
164,192,2385,1,0,0:0:0
348,192,2745,1,0,0:0:0
348,192,3105,1,0,0:0:0
256,304,3465,1,0,0:0:0
256,160,3825,2,0,B|256:24,2,135
148,280,7785,5,0,0:0:0
64,112,8145,2,0,B|96:40|184:48,1,135
160,168,8685,2,0,B|248:208|332:144,1,180
396,44,9225,1,0,0:0:0
360,252,9585,2,0,B|404:300|472:344,2,135
260,196,10305,1,0,0:0:0
224,176,10395,1,0,0:0:0
184,172,10485,1,0,0:0:0
148,192,10575,1,0,0:0:0
128,220,10665,6,0,B|104:264,3,45
168,276,11025,2,0,B|176:320,3,45
236,296,11385,2,0,B|272:324,3,45
296,268,11745,2,0,B|340:264,3,45
392,216,12105,5,4,0:0:0
300,100,12285,1,0,0:0:0
256,104,12375,1,0,0:0:0
212,100,12465,1,0,0:0:0
120,216,12645,1,0,0:0:0
256,176,12825,1,0,0:0:0
256,144,12915,1,0,0:0:0
256,112,13005,2,0,B|256:20,2,90,0|0|0,0:0|0:0|0:0,0:0:0
176,264,13545,6,0,B|84:276,1,90,0|0,0:0|0:0,0:0:0
336,264,13905,2,0,B|428:276,1,90,8|0,0:0|0:0,0:0:0
84,48,14265,1,0,0:0:0
184,156,14445,1,0,0:0:0
428,48,14625,1,8,0:0:0
328,156,14805,1,0,0:0:0
256,304,14985,5,0,0:0:0
256,92,15165,1,0,0:0:0
104,104,15345,2,0,B|80:144|80:192,1,90,8|0,0:0|0:0,0:0:0
128,332,15705,2,0,B|152:292|152:244,1,90
188,128,16065,1,8,0:0:0
212,108,16155,1,0,0:0:0
244,96,16245,1,0,0:0:0
280,96,16335,1,0,0:0:0
312,108,16425,5,0,0:0:0
412,220,16605,1,0,0:0:0
440,248,16695,1,0,0:0:0
292,252,16875,1,0,0:0:0
284,288,16965,1,0,0:0:0
144,268,17145,2,0,B|60:220|92:108,1,180,8|8,0:0|0:0,0:0:0
112,128,17595,1,0,0:0:0
132,144,17685,1,0,0:0:0
164,152,17775,1,0,0:0:0
196,152,17865,5,0,0:0:0
320,80,18045,1,0,0:0:0
352,64,18135,1,0,0:0:0
344,192,18315,1,0,0:0:0
380,200,18405,1,0,0:0:0
256,341,18585,1,8,0:0:0
179,264,18765,1,0,0:0:0
256,188,18945,1,8,0:0:0
331,264,19125,1,0,0:0:0
132,88,19305,6,0,B|96:116|96:116|88:159,1,90
423,159,19665,2,0,B|416:116|416:116|380:88,1,90,8|0,0:0|0:0,0:0:0
196,325,20025,1,0,0:0:0
320,136,20205,1,0,0:0:0
320,325,20385,1,8,0:0:0
196,136,20565,1,0,0:0:0
104,280,20745,5,0,0:0:0
408,280,20925,1,0,0:0:0
256,80,21105,2,0,B|256:172,1,90,8|0,0:0|0:0,0:0:0
96,156,21465,1,0,0:0:0
112,120,21555,1,0,0:0:0
140,92,21645,1,0,0:0:0
372,92,21825,1,8,0:0:0
400,120,21915,1,0,0:0:0
416,156,22005,1,0,0:0:0
412,192,22095,1,0,0:0:0
396,228,22185,5,0,0:0:0
232,216,22365,2,0,B|268:188,1,45
292,312,22635,2,0,B|256:340,1,45
96,304,22905,2,0,B|56:280|44:232,2,90,8|0|8,0:0|0:0|0:0,0:0:0
236,272,23445,1,0,0:0:0
192,108,23625,6,0,B|160:72|116:64,1,90
84,88,23895,2,0,B|80:140|112:172,1,90
160,184,24165,1,0,0:0:0
360,60,24345,2,0,B|444:124|392:224,2,180,8|8|4,0:0|0:0|0:0,0:0:0
96,172,26325,5,0,0:0:0
96,172,26505,2,0,B|128:136|172:128,1,90
340,256,26865,1,8,0:0:0
416,212,27045,1,0,0:0:0
340,60,27225,2,0,B|316:148,1,90
172,324,27585,1,8,0:0:0
196,236,27765,1,0,0:0:0
156,68,27945,6,0,B|48:56,2,90,0|0|8,0:0|0:0|0:0,0:0:0
340,132,28485,1,0,0:0:0
328,168,28575,1,0,0:0:0
296,196,28665,1,0,0:0:0
172,172,28845,1,0,0:0:0
96,268,29025,2,0,B|68:312,2,45,8|0|0,0:0|0:0|0:0,0:0:0
380,120,29385,6,0,B|416:164|416:164|424:208|400:256,1,135
287,268,29745,2,0,B|251:224|251:224|243:180|267:132,1,135,8|0,0:0|0:0,0:0:0
407,240,30105,2,0,B|363:276|363:276|319:284|271:260,1,135
248,244,30465,2,0,B|212:208|164:212,1,90,8|0,0:0|0:0,0:0:0
88,76,30825,6,0,B|156:56|220:48,1,135
232,128,31185,2,0,B|300:148|364:156,1,135,8|0,0:0|0:0,0:0:0
436,104,31545,2,0,B|412:64|380:32,2,90,0|0|8,0:0|0:0|0:0,0:0:0
452,144,31995,1,0,0:0:0
456,176,32085,1,0,0:0:0
452,212,32175,1,0,0:0:0
440,256,32265,6,0,B|416:296|416:296|376:320,1,90
200,336,32625,2,0,B|224:296|224:296|264:272,1,90,8|0,0:0|0:0,0:0:0
388,136,32985,2,0,B|364:176|364:176|324:200,1,90
148,216,33345,2,0,B|172:176|172:176|212:152,1,90,8|0,0:0|0:0,0:0:0
384,48,33705,5,0,0:0:0
384,48,33885,1,0,0:0:0
128,48,34065,1,8,0:0:0
128,48,34245,1,0,0:0:0
256,216,34425,2,0,B|256:308,2,90,0|0|8,0:0|0:0|0:0,0:0:0
256,48,34965,1,0,0:0:0
84,240,35145,5,0,0:0:0
216,336,35325,1,0,0:0:0
428,240,35505,1,8,0:0:0
296,336,35685,1,0,0:0:0
160,88,35865,5,0,0:0:0
320,232,36045,1,0,0:0:0
352,88,36225,1,8,0:0:0
192,232,36405,1,0,0:0:0
256,56,36585,6,0,B|256:12,2,45
256,180,36945,1,8,0:0:0
88,172,37125,1,0,0:0:0
88,216,37215,1,0,0:0:0
108,252,37305,1,0,0:0:0
256,336,37485,1,0,0:0:0
404,252,37665,1,8,0:0:0
424,216,37755,1,0,0:0:0
424,172,37845,1,0,0:0:0
244,48,38025,6,0,B|176:14|116:73|150:141,1,180,0|8,0:0|0:0,0:0:0
149,139,38565,1,0,0:0:0
240,234,38745,2,0,B|273:166|214:106|146:140,1,180,0|8,0:0|0:0,0:0:0
149,139,39285,1,0,0:0:0
112,240,39465,2,0,B|92:328,1,90
256,284,39825,2,0,B|256:194,1,90,8|0,0:0|0:0,0:0:0
400,240,40185,2,0,B|420:328,2,90,0|0|8,0:0|0:0|0:0,0:0:0
400,240,40725,1,0,0:0:0
376,100,40905,5,0,0:0:0
252,60,41085,1,0,0:0:0
156,144,41265,2,0,B|108:152|48:148,1,90,8|0,0:0|0:0,0:0:0
84,272,41625,2,0,B|72:316|88:364,2,90,0|0|8,0:0|0:0|0:0,0:0:0
216,208,42165,1,0,0:0:0
248,224,42255,1,0,0:0:0
268,252,42345,1,0,0:0:0
384,320,42525,1,0,0:0:0
312,152,42705,2,0,B|272:184|256:224,1,90,8|0,0:0|0:0,0:0:0
176,344,43065,5,0,0:0:0
64,232,43245,1,0,0:0:0
176,120,43425,1,8,0:0:0
288,232,43605,1,0,0:0:0
452,192,43785,6,0,B|464:116|416:68,1,135
388,44,44145,2,0,B|336:36|304:76,1,90,8|0,0:0|0:0,0:0:0
60,192,44505,2,0,B|48:116|96:68,1,135
124,44,44865,2,0,B|176:36|208:76,1,90,8|0,0:0|0:0,0:0:0
432,256,45225,6,0,B|340:248,1,90
100,336,45585,2,0,B|192:328,1,90,8|0,0:0|0:0,0:0:0
412,336,45945,2,0,B|320:328,1,90
80,256,46305,2,0,B|172:248,1,90,8|0,0:0|0:0,0:0:0
404,72,46665,5,0,0:0:0
133,312,47025,5,8,0:0:0
108,72,47385,5,0,0:0:0
378,312,47745,5,8,0:0:0
256,48,48105,5,0,0:0:0
140,108,48285,1,0,0:0:0
120,148,48375,1,0,0:0:0
100,188,48465,1,0,0:0:0
200,216,48645,1,0,0:0:0
180,256,48735,1,0,0:0:0
144,288,48825,2,0,B|120:308,7,22.5
164,328,49185,2,0,B|156:364,7,22.5
212,336,49545,5,0,0:0:0
212,336,49905,1,8,0:0:0
396,232,50085,1,0,0:0:0
476,296,50265,1,0,0:0:0
376,336,50445,1,0,0:0:0
292,256,50625,2,0,B|284:200|312:144,1,107.999996704102,8|0,0:0|0:0,0:0:0
384,28,50985,5,0,0:0:0
448,180,51165,1,0,0:0:0
128,28,51345,1,8,0:0:0
64,180,51525,1,0,0:0:0
256,92,51705,1,0,0:0:0
256,248,51885,2,0,B|256:356,2,107.999996704102,0|8|0,0:0|0:0|0:0,0:0:0
256,92,52425,5,0,0:0:0
124,68,52605,1,0,0:0:0
84,88,52695,1,0,0:0:0
116,192,52875,1,0,0:0:0
76,212,52965,1,0,0:0:0
208,252,53145,2,0,B|256:280|276:336,1,107.999996704102,8|0,0:0|0:0,0:0:0
136,320,53505,1,8,0:0:0
136,284,53595,1,0,0:0:0
144,248,53685,1,0,0:0:0
164,216,53775,1,0,0:0:0
192,192,53865,5,0,0:0:0
328,96,54045,1,0,0:0:0
372,108,54135,1,0,0:0:0
320,240,54315,1,0,0:0:0
276,228,54405,1,0,0:0:0
192,68,54585,1,8,0:0:0
64,92,54765,5,0,0:0:0
52,120,54855,1,0,0:0:0
56,152,54945,1,8,0:0:0
76,180,55035,1,0,0:0:0
104,200,55125,1,0,0:0:0
136,208,55215,1,0,0:0:0
168,204,55305,6,0,B|228:192|248:132|248:132|304:116,1,161.999995056153
328,112,55665,2,0,B|380:144|352:208,1,107.999996704102,8|0,0:0|0:0,0:0:0
180,336,56025,1,0,0:0:0
120,192,56205,1,0,0:0:0
392,192,56385,1,8,0:0:0
332,336,56565,1,0,0:0:0
256,272,56745,6,0,B|256:164,1,107.999996704102
64,104,57105,1,8,0:0:0
152,188,57285,1,0,0:0:0
360,188,57465,1,0,0:0:0
448,104,57645,1,0,0:0:0
308,48,57825,2,0,B|256:28|256:28|208:48,1,107.999996704102,8|0,0:0|0:0,0:0:0
116,316,58185,5,0,0:0:0
168,160,58365,2,0,B|212:128,1,53.9999983520508
288,212,58635,2,0,B|332:180,1,53.9999983520508
464,108,58905,1,8,0:0:0
472,228,59085,1,0,0:0:0
340,296,59265,1,8,0:0:0
312,280,59355,1,0,0:0:0
284,260,59445,1,0,0:0:0
264,232,59535,1,0,0:0:0
248,204,59625,6,0,B|236:144|256:96,1,107.999996704102
276,120,59895,2,0,B|224:144|168:144,1,107.999996704102
140,132,60165,2,0,B|92:108|64:56,2,107.999996704102,0|8|0,0:0|0:0|0:0,0:0:0
140,132,60705,1,8,0:0:0
440,136,61065,6,0,B|440:68|388:36|316:60,1,161.999995056153
300,68,61425,2,0,B|252:96|224:144,1,107.999996704102,8|0,0:0|0:0,0:0:0
100,276,61785,1,0,0:0:0
228,276,61965,1,0,0:0:0
356,192,62145,1,8,0:0:0
228,192,62325,1,0,0:0:0
100,104,62505,2,0,B|212:104,2,107.999996704102,0|0|8,0:0|0:0|0:0,0:0:0
308,44,63045,5,0,0:0:0
340,56,63135,1,0,0:0:0
364,84,63225,1,0,0:0:0
444,192,63405,1,0,0:0:0
300,184,63585,1,8,0:0:0
272,200,63675,1,0,0:0:0
256,228,63765,1,0,0:0:0
260,260,63855,1,0,0:0:0
276,288,63945,6,0,B|240:332|176:336,1,107.999996704102
136,328,64215,2,0,B|96:288|92:228,1,107.999996704102
88,188,64485,1,0,0:0:0
92,144,64575,1,0,0:0:0
108,104,64665,2,0,B|216:80,1,107.999996704102,8|0,0:0|0:0,0:0:0
344,148,65025,2,0,B|236:172,1,107.999996704102,8|0,0:0|0:0,0:0:0
388,320,65385,6,0,B|424:272|436:224,1,107.999996704102
428,180,65655,1,0,0:0:0
396,148,65745,2,0,B|340:128|280:152,1,107.999996704102,0|0,0:0|0:0,0:0:0
160,184,66105,1,8,0:0:0
194,314,66285,1,0,0:0:0
325,279,66465,1,8,0:0:0
290,149,66645,1,0,0:0:0
128,52,66825,6,0,B|88:92|88:92|80:148,1,107.999996704102
256,224,67185,1,8,0:0:0
431,142,67365,2,0,B|424:92|424:92|384:52,2,107.999996704102
304,300,67905,2,0,B|256:324|256:324|208:300,1,107.999996704102,8|0,0:0|0:0,0:0:0
112,56,68265,5,0,0:0:0
112,56,68445,1,0,0:0:0
256,224,68625,1,8,0:0:0
400,56,68805,1,0,0:0:0
400,56,68985,1,0,0:0:0
256,224,69165,1,0,0:0:0
256,88,69345,2,0,B|256:32,2,53.9999983520508,8|0|0,0:0|0:0|0:0,0:0:0
384,288,69705,5,0,0:0:0
440,156,69885,1,0,0:0:0
452,120,69975,1,0,0:0:0
332,116,70155,1,0,0:0:0
320,80,70245,1,0,0:0:0
160,44,70425,2,0,B|88:20|92:92,1,107.999996704102,8|0,0:0|0:0,0:0:0
172,216,70785,2,0,B|244:240|240:168,1,107.999996704102,8|0,0:0|0:0,0:0:0
56,144,71145,5,0,0:0:0
61,287,71325,1,0,0:0:0
65,324,71415,1,0,0:0:0
175,277,71595,1,0,0:0:0
201,305,71685,1,0,0:0:0
360,276,71865,2,0,B|456:200|408:80,2,215.999993408203,8|8|4,0:0|0:0|0:0,0:0:0
336,208,77985,5,0,0:0:0
336,208,78165,1,0,0:0:0
336,208,78345,2,0,B|304:252|304:252|316:304,1,107.999996704102
412,324,78705,2,0,B|444:280|444:280|432:228,1,107.999996704102,8|0,0:0|0:0,0:0:0
260,140,79065,2,0,B|196:228|196:228|220:331,1,215.999993408203,0|8,0:0|0:0,0:0:0
440,112,79785,6,0,B|416:60|416:60|360:40,2,107.999996704102,0|0|8,0:0|0:0|0:0,0:0:0
356,200,80325,1,0,0:0:0
320,208,80415,1,0,0:0:0
284,196,80505,1,0,0:0:0
160,164,80685,1,0,0:0:0
40,116,80865,1,8,0:0:0
144,40,81045,1,0,0:0:0
96,192,81225,6,0,B|72:280|72:280|128:320|192:264,1,215.999993408203,0|8,0:0|0:0,0:0:0
256,120,81765,1,0,0:0:0
416,192,81945,2,0,B|440:280|440:280|384:320|320:264,1,215.999993408203,0|8,0:0|0:0,0:0:0
256,120,82485,1,0,0:0:0
156,348,82665,2,0,B|192:244,1,107.999996704102
356,348,83025,2,0,B|320:244,1,107.999996704102,8|0,0:0|0:0,0:0:0
176,56,83385,5,0,0:0:0
132,56,83475,1,0,0:0:0
96,80,83565,1,0,0:0:0
68,184,83745,1,8,0:0:0
112,184,83835,1,0,0:0:0
148,160,83925,1,0,0:0:0
328,56,84105,6,0,B|412:28|472:116|416:184,1,215.999993408203,0|8,0:0|0:0,0:0:0
288,180,84645,1,0,0:0:0
364,128,84825,2,0,B|452:64,1,107.999996704102
408,188,85185,2,0,B|320:252,1,107.999996704102,8|0,0:0|0:0,0:0:0
288,180,85545,2,0,B|372:152|432:240|376:308,1,215.999993408203,0|8,0:0|0:0,0:0:0
212,304,86085,2,0,B|128:332|68:244|124:176,1,215.999993408203
200,44,86625,1,8,0:0:0
200,44,86805,1,0,0:0:0
416,176,86985,5,0,0:0:0
312,44,87165,1,0,0:0:0
192,292,87345,1,8,0:0:0
296,160,87525,1,0,0:0:0
320,292,87705,1,0,0:0:0
216,160,87885,1,0,0:0:0
96,176,88065,1,8,0:0:0
200,44,88245,1,0,0:0:0
428,144,88425,6,0,B|452:196|440:252,1,107.999996704102
240,252,88785,2,0,B|216:200|228:144,1,107.999996704102,8|0,0:0|0:0,0:0:0
332,192,89145,6,0,B|356:244|344:300,1,107.999996704102
144,300,89505,2,0,B|120:248|132:192,1,107.999996704102,8|0,0:0|0:0,0:0:0
212,48,89865,5,0,0:0:0
212,48,90045,1,0,0:0:0
344,96,90225,2,0,B|388:132|416:176,1,107.999996704102,8|0,0:0|0:0,0:0:0
384,312,90585,2,0,B|348:360|288:368,2,107.999996704102,0|0|8,0:0|0:0|0:0,0:0:0
444,192,91125,1,0,0:0:0
312,116,91305,5,0,0:0:0
276,112,91395,1,0,0:0:0
244,136,91485,1,0,0:0:0
232,256,91665,1,8,0:0:0
132,324,91845,1,0,0:0:0
96,308,91935,1,0,0:0:0
84,272,92025,1,0,0:0:0
72,152,92205,1,0,0:0:0
140,52,92385,2,0,B|208:40,2,53.9999983520508,8|0|0,0:0|0:0|0:0,0:0:0
32,252,92745,5,0,0:0:0
452,124,93105,5,8,0:0:0
60,124,93465,5,0,0:0:0
480,252,93825,5,8,0:0:0
256,192,94185,5,0,0:0:0
252,176,94275,1,0,0:0:0
260,164,94365,1,0,0:0:0
252,148,94455,1,0,0:0:0
260,132,94545,1,0,0:0:0
252,120,94635,1,0,0:0:0
260,104,94725,1,0,0:0:0
252,92,94815,1,0,0:0:0
268,60,94905,2,0,B|288:40,7,26.9999991760254
236,60,95265,2,0,B|216:40,7,26.9999991760254
164,36,95625,6,0,B|88:44|48:164|108:220,1,233.999989288331,0|8,0:0|0:0,0:0:0
240,308,96165,1,0,0:0:0
408,240,96345,2,0,B|464:208|456:132,2,116.999994644165,0|0|8,0:0|0:0|0:0,0:0:0
232,180,96885,1,0,0:0:0
344,64,97065,2,0,B|408:80|420:148,1,116.999994644165
344,304,97425,1,8,0:0:0
160,304,97605,1,0,0:0:0
128,280,97695,1,0,0:0:0
112,244,97785,1,0,0:0:0
104,72,97965,2,0,B|64:20|8:12,2,116.999994644165,0|8|0,0:0|0:0|0:0,0:0:0
256,156,98505,5,0,0:0:0
340,268,98685,2,0,B|384:328,1,58.4999973220826
172,268,98955,2,0,B|128:328,1,58.4999973220826
120,120,99225,1,8,0:0:0
256,36,99405,1,0,0:0:0
392,120,99585,1,8,0:0:0
256,204,99765,1,0,0:0:0
256,344,99945,5,0,0:0:0
120,120,100125,2,0,B|152:168,1,58.4999973220826
392,120,100395,2,0,B|360:168,1,58.4999973220826
168,328,100665,1,8,0:0:0
328,196,100845,1,0,0:0:0
344,328,101025,1,8,0:0:0
184,196,101205,1,0,0:0:0
384,48,101385,6,0,B|352:140|432:204,1,175.499991966248
452,224,101745,2,0,B|424:280|348:284,1,116.999994644165,8|0,0:0|0:0,0:0:0
184,296,102105,1,0,0:0:0
56,236,102285,1,0,0:0:0
184,180,102465,1,8,0:0:0
56,120,102645,1,0,0:0:0
356,136,102825,6,0,B|452:68,1,116.999994644165
156,136,103185,2,0,B|60:68,1,116.999994644165,8|0,0:0|0:0,0:0:0
256,292,103545,1,0,0:0:0
256,132,103725,2,0,B|256:12,2,116.999994644165,0|8|0,0:0|0:0|0:0,0:0:0
364,312,104265,5,0,0:0:0
468,188,104445,1,0,0:0:0
468,188,104535,1,0,0:0:0
308,164,104715,1,0,0:0:0
308,164,104805,1,0,0:0:0
284,324,104985,5,8,0:0:0
444,348,105165,1,0,0:0:0
468,188,105345,1,8,0:0:0
308,164,105525,1,0,0:0:0
148,72,105705,5,0,0:0:0
44,196,105885,1,0,0:0:0
44,196,105975,1,0,0:0:0
204,220,106155,1,0,0:0:0
204,220,106245,1,0,0:0:0
228,60,106425,5,8,0:0:0
68,36,106605,1,0,0:0:0
128,188,106785,1,8,0:0:0
356,336,107145,6,0,B|408:320|408:320|440:264,1,107.999996704102
348,160,107505,2,0,B|296:176|296:176|264:232,1,107.999996704102,8|0,0:0|0:0,0:0:0
352,248,107865,1,0,0:0:0
352,248,108045,2,0,B|436:180,2,107.999996704102,0|8|0,0:0|0:0|0:0,0:0:0
224,336,108585,5,0,0:0:0
104,288,108765,1,0,0:0:0
56,168,108945,2,0,B|48:88|116:24|204:28,1,215.999993408203,8|0,0:0|0:0,0:0:0
200,100,109485,2,0,B|132:100|124:168,2,107.999996704102,0|8|0,0:0|0:0|0:0,0:0:0
344,192,110025,6,0,B|452:192,1,107.999996704102
432,236,110295,2,0,B|324:236,1,107.999996704102
316,260,110565,1,0,0:0:0
304,284,110655,1,0,0:0:0
292,308,110745,2,0,B|400:308,2,107.999996704102,8|0|8,0:0|0:0|0:0,0:0:0
168,308,111285,1,0,0:0:0
129,172,111465,6,0,B|125:118|125:118|147:68,1,107.999996704102
228,136,111735,2,0,B|183:165|183:165|129:171,1,107.999996704102
148,68,112005,2,0,B|196:92|196:92|228:136,1,107.999996704102,0|8,0:0|0:0,0:0:0
256,344,112365,2,0,B|256:236,2,107.999996704102,0|8|0,0:0|0:0|0:0,0:0:0
116,276,112905,6,0,B|92:248|92:248|148:200|132:128,1,161.999995056153
144,96,113265,2,0,B|184:44|240:40,1,107.999996704102,8|0,0:0|0:0,0:0:0
452,156,113625,2,0,B|500:196|476:272|412:276,1,161.999995056153
372,260,113985,2,0,B|344:204|280:208,1,107.999996704102,8|0,0:0|0:0,0:0:0
100,136,114345,2,0,B|52:100|52:40,2,107.999996704102,0|0|8,0:0|0:0|0:0,0:0:0
208,260,114885,1,0,0:0:0
240,288,114975,1,0,0:0:0
284,296,115065,1,0,0:0:0
452,252,115245,1,0,0:0:0
424,80,115425,2,0,B|408:24,2,53.9999983520508,8|0|0,0:0|0:0|0:0,0:0:0
256,56,115785,5,0,0:0:0
90,96,115965,1,0,0:0:0
115,130,116055,1,0,0:0:0
273,177,116235,1,0,0:0:0
232,180,116325,1,0,0:0:0
88,256,116505,1,8,0:0:0
220,332,116685,1,0,0:0:0
80,274,116865,1,8,0:0:0
227,313,117045,1,0,0:0:0
408,288,117225,5,0,0:0:0
464,156,117405,1,0,0:0:0
424,152,117495,1,0,0:0:0
280,212,117675,1,0,0:0:0
309,185,117765,1,0,0:0:0
424,40,117945,2,0,B|312:56|312:56|224:116,2,215.999993408203,8|8|4,0:0|0:0|0:0,0:0:0
256,284,121545,5,0,0:0:0
360,116,121725,1,0,0:0:0
360,116,121815,1,0,0:0:0
152,116,121995,1,0,0:0:0
152,116,122085,1,0,0:0:0
156,300,122265,2,0,B|256:344|368:300,1,215.999993408203,8|8,0:0|0:0,0:0:0
256,100,122985,5,0,0:0:0
152,268,123165,1,0,0:0:0
152,268,123255,1,0,0:0:0
360,268,123435,1,0,0:0:0
360,268,123525,1,0,0:0:0
356,84,123705,2,0,B|256:40|144:84,1,215.999993408203,8|8,0:0|0:0,0:0:0
256,332,127305,5,0,0:0:0
144,240,127485,2,0,B|100:208,1,53.9999983520508
368,240,127755,2,0,B|412:208,1,53.9999983520508
256,124,128025,1,0,0:0:0
256,124,128385,1,0,0:0:0
256,124,128745,1,4,0:0:0
240,308,129465,6,0,B|212:308,7,26.9999991760254
272,308,129825,2,0,B|300:308,7,26.9999991760254,0|0|0|0|0|0|0|0,0:0|0:0|0:0|0:0|0:0|0:0|0:0|0:0,0:0:0
328,308,130185,6,0,B|380:272|416:216,1,125.999996154785
184,308,130545,2,0,B|132:272|96:216,1,125.999996154785,8|0,0:0|0:0,0:0:0
192,48,130905,2,0,B|256:36|320:48,2,125.999996154785,0|0|8,0:0|0:0|0:0,0:0:0
156,64,131355,1,0,0:0:0
132,92,131445,1,0,0:0:0
128,124,131535,1,0,0:0:0
132,160,131625,6,0,B|148:220,1,62.9999980773926
256,276,131805,2,0,B|240:216,1,62.9999980773926
316,140,131985,2,0,B|356:280,2,125.999996154785,8|0|0,0:0|0:0|0:0,0:0:0
256,24,132525,1,0,0:0:0
256,24,132705,1,8,0:0:0
256,192,133065,5,0,0:0:0
200,96,133245,1,0,0:0:0
236,80,133335,1,0,0:0:0
312,288,133515,1,0,0:0:0
276,304,133605,1,0,0:0:0
64,288,133785,2,0,B|124:184|124:184|256:192,1,251.999992309571,8|8,0:0|0:0,0:0:0
256,192,134505,5,0,0:0:0
312,288,134685,1,0,0:0:0
276,304,134775,1,0,0:0:0
200,96,134955,1,0,0:0:0
236,80,135045,1,0,0:0:0
448,96,135225,2,0,B|388:200|388:200|256:192,1,251.999992309571,8|8,0:0|0:0,0:0:0
68,320,135945,6,0,B|164:340|248:276,1,188.999994232178
284,244,136305,2,0,B|336:200|304:128,1,125.999996154785,8|0,0:0|0:0,0:0:0
96,56,136665,1,0,0:0:0
52,176,136845,1,0,0:0:0
180,180,137025,1,8,0:0:0
224,60,137205,1,0,0:0:0
296,200,137385,6,0,B|336:248|396:276,1,125.999996154785
472,160,137745,1,8,0:0:0
348,64,137925,1,0,0:0:0
348,64,138015,1,0,0:0:0
348,64,138105,2,0,B|287:47|222:59,1,125.999996154785
92,252,138465,2,0,B|88:188|124:132,1,125.999996154785,8|0,0:0|0:0,0:0:0
328,148,138825,6,0,B|368:188|384:260,1,125.999996154785
364,300,139095,2,0,B|308:332|244:336,1,125.999996154785
208,328,139365,1,0,0:0:0
172,316,139455,1,0,0:0:0
140,300,139545,2,0,B|52:244|40:140,1,188.999994232178,8|0,0:0|0:0,0:0:0
52,104,139905,2,0,B|116:88|176:120,1,125.999996154785,8|0,0:0|0:0,0:0:0
256,248,140265,5,0,0:0:0
132,288,140445,2,0,B|72:308,1,62.9999980773926
380,288,140715,2,0,B|440:308,1,62.9999980773926
116,112,140985,1,8,0:0:0
116,112,141165,1,0,0:0:0
396,112,141345,1,8,0:0:0
396,112,141525,1,0,0:0:0
88,232,141705,6,0,B|104:356|240:348,1,215.999993408203,0|8,0:0|0:0,0:0:0
424,152,142425,2,0,B|408:28|272:36,1,215.999993408203,0|8,0:0|0:0,0:0:0
88,248,143145,5,0,0:0:0
216,224,143325,1,0,0:0:0
136,128,143505,1,8,0:0:0
88,248,143685,1,0,0:0:0
104,284,143775,1,0,0:0:0
136,304,143865,1,0,0:0:0
268,324,144045,1,0,0:0:0
404,256,144225,1,8,0:0:0
420,224,144315,1,0,0:0:0
428,188,144405,1,0,0:0:0
416,152,144495,1,0,0:0:0
396,120,144585,6,0,B|352:80|296:80,1,107.999996704102
264,88,144855,1,0,0:0:0
291,218,145035,1,0,0:0:0
272,248,145125,2,0,B|234:285|174:288,1,107.999996704102,0|8,0:0|0:0,0:0:0
84,140,145485,2,0,B|52:96,2,53.9999983520508,0|0|8,0:0|0:0|0:0,0:0:0
240,148,145845,1,0,0:0:0
240,148,145935,1,0,0:0:0
240,148,146025,5,0,0:0:0
372,56,146205,1,0,0:0:0
412,68,146295,2,0,B|464:104|452:160,1,107.999996704102
436,196,146565,1,0,0:0:0
344,328,146745,2,0,B|320:336|320:336|252:256|140:280,1,215.999993408203,8|8,0:0|0:0,0:0:0
132,48,147465,6,0,B|76:140,1,107.999996704102
380,48,147825,2,0,B|436:140,1,107.999996704102,8|0,0:0|0:0,0:0:0
256,296,148185,1,0,0:0:0
256,144,148365,2,0,B|256:36,2,107.999996704102,0|8|0,0:0|0:0|0:0,0:0:0
156,260,148905,1,0,0:0:0
144,268,148995,1,0,0:0:0
136,280,149085,2,0,B|108:332|52:340,2,107.999996704102,0|8|0,0:0|0:0|0:0,0:0:0
356,260,149625,1,0,0:0:0
368,268,149715,1,0,0:0:0
376,280,149805,2,0,B|404:332|460:340,2,107.999996704102,0|8|0,0:0|0:0|0:0,0:0:0
256,192,150345,5,0,0:0:0
148,192,150525,1,0,0:0:0
148,192,150615,1,0,0:0:0
364,192,150795,1,0,0:0:0
364,192,150885,1,0,0:0:0
188,48,151065,2,0,B|108:16|32:72|48:160,1,215.999993408203,8|8,0:0|0:0,0:0:0
256,192,151785,5,0,0:0:0
256,300,151965,1,0,0:0:0
256,300,152055,1,0,0:0:0
256,84,152235,1,0,0:0:0
256,84,152325,1,0,0:0:0
465,231,152505,2,0,B|480:312|404:368|324:336,2,215.999993408203,8|8|4,0:0|0:0|0:0,0:0:0
