osu file format v14

[General]
AudioFilename: 04 - The Obsidian Crown Unbound.mp3
AudioLeadIn: 1800
PreviewTime: 195159
Countdown: 0
SampleSet: Normal
StackLeniency: 0.7
Mode: 0
LetterboxInBreaks: 0
WidescreenStoryboard: 0

[Editor]
Bookmarks: 186167,195310,204453,209024,213596,218167,222739,227310,231882,241024,245596,247882,250167,254739,273024,291310,301596,308453,322167,325596,332453,339310,341024,342739,344453,346167,347882,349596,351310
DistanceSpacing: 1.5
BeatDivisor: 4
GridSize: 4
TimelineZoom: 2.1

[Metadata]
Title:The Obsidian Crown Unbound (Episode: IX)
TitleUnicode:The Obsidian Crown Unbound (Episode: IX)
Artist:Bal-Sagoth
ArtistUnicode:Bal-Sagoth
Creator:Mazzerin
Version:Onslaught
Source:
Tags:The Chthonic Chronicles pishifat symphonic black metal
BeatmapID:592113
BeatmapSetID:258961

[Difficulty]
HPDrainRate:5.7
CircleSize:4.2
OverallDifficulty:9.2
ApproachRate:9.7
SliderMultiplier:1.8
SliderTickRate:1

[Events]
//Background and Video events
0,0,"pishisupgradedbgXXX.jpg",0,0
//Break Periods
2,128759,167379
//Storyboard Layer 0 (Background)
//Storyboard Layer 1 (Fail)
//Storyboard Layer 2 (Pass)
//Storyboard Layer 3 (Foreground)
//Storyboard Sound Samples

[TimingPoints]
204,273.972602739726,3,1,5,60,1,0
204,-133.333333333333,3,1,5,60,0,0
1025,-111.111111111111,3,1,5,60,0,0
1847,-133.333333333333,3,1,5,60,0,0
2669,-111.111111111111,3,1,5,60,0,0
2943,-100,3,1,5,60,0,0
3491,-133.333333333333,3,1,5,60,0,0
4313,-111.111111111111,3,1,5,60,0,0
5135,-133.333333333333,3,1,5,60,0,0
5957,-111.111111111111,3,1,5,60,0,0
6779,-133.333333333333,3,1,5,60,0,0
7601,-111.111111111111,3,1,5,60,0,0
8423,-133.333333333333,3,1,5,60,0,0
9245,-111.111111111111,3,1,5,60,0,0
9519,-100,3,1,5,60,0,0
10067,-133.333333333333,3,1,5,60,0,0
10888,-111.111111111111,3,1,5,60,0,0
11710,-133.333333333333,3,1,5,60,0,0
11847,-133.333333333333,3,2,5,60,0,0
12532,-111.111111111111,3,1,5,60,0,0
13354,410.958904109589,4,1,5,60,1,0
13354,-90.9090909090909,4,1,5,60,0,0
14175,-71.4285714285714,4,1,5,60,0,0
14997,-90.9090909090909,4,1,5,60,0,0
15408,-76.9230769230769,4,1,5,60,0,0
16641,-90.9090909090909,4,1,5,60,0,0
17463,-71.4285714285714,4,1,5,60,0,0
18285,-76.9230769230769,4,1,5,60,0,0
19929,-90.9090909090909,4,1,5,60,0,0
20751,-71.4285714285714,4,1,5,60,0,0
21573,-90.9090909090909,4,1,5,60,0,0
22395,-71.4285714285714,4,1,5,60,0,0
23217,-90.9090909090909,4,1,5,60,0,0
24038,-71.4285714285714,4,1,5,60,0,0
24860,-76.9230769230769,4,1,5,60,0,0
26504,-90.9090909090909,4,1,5,60,0,0
27326,-71.4285714285714,4,1,5,60,0,0
28148,-90.9090909090909,4,1,5,60,0,0
28559,-76.9230769230769,4,1,5,60,0,0
29792,-90.9090909090909,4,1,5,60,0,0
30614,-71.4285714285714,4,1,5,60,0,0
31436,-76.9230769230769,4,1,5,60,0,0
33080,-90.9090909090909,4,1,5,60,0,0
33901,-71.4285714285714,4,1,5,60,0,0
34723,-90.9090909090909,4,1,5,60,0,0
35545,-71.4285714285714,4,1,5,60,0,0
36367,-90.9090909090909,4,1,5,60,0,0
37189,-71.4285714285714,4,1,5,60,0,0
38011,-76.9230769230769,4,1,5,60,0,0
39929,-90.9090909090909,4,1,5,60,0,0
42121,-71.4285714285714,4,1,5,60,0,0
43354,-90.9090909090909,4,1,5,60,0,0
45408,-71.4285714285714,4,1,5,60,0,0
46641,-90.9090909090909,4,1,5,60,0,0
48696,-71.4285714285714,4,1,5,60,0,0
51573,-90.9090909090909,4,1,5,60,0,0
51984,-80,4,1,5,60,0,0
58970,-80,4,1,5,80,0,0
59381,-90.9090909090909,4,1,5,60,0,0
62395,-76.9230769230769,4,1,5,60,0,0
62669,-90.9090909090909,4,1,5,60,0,0
74175,-71.4285714285714,4,1,5,60,0,0
82395,-83.3333333333333,4,1,5,60,0,0
92258,-76.9230769230769,4,1,5,60,0,0
95545,-83.3333333333333,4,1,5,60,0,0
113627,-90.9090909090909,4,1,5,60,0,0
115271,-76.9230769230769,4,1,5,60,0,0
128422,-76.9230769230769,4,3,5,60,0,0
128525,-76.9230769230769,4,3,5,45,0,0
167874,285.714285714286,4,1,5,60,1,1
186159,-100,4,1,5,60,0,0
195302,-100,4,1,5,60,0,1
204445,-100,4,1,5,60,0,0
213588,-100,4,1,5,60,0,1
218159,-100,4,1,5,60,0,0
222731,-100,4,1,5,60,0,1
227302,-100,4,1,5,60,0,0
231874,-100,4,1,5,60,0,1
241016,-100,4,1,5,60,0,0
254445,-133.333333333333,4,1,5,60,0,0
254731,-80,4,1,5,60,0,0
255016,-100,4,1,5,60,0,0
259016,-133.333333333333,4,1,5,60,0,0
259302,-80,4,1,5,60,0,0
259588,-100,4,1,5,60,0,0
263302,-133.333333333333,4,1,5,60,0,0
263874,-66.6666666666667,4,1,5,60,0,0
264159,-100,4,1,5,60,0,0
268159,-133.333333333333,4,1,5,60,0,0
268445,-80,4,1,5,60,0,0
268731,-100,4,1,5,60,0,0
274731,-83.3333333333333,4,1,5,60,0,0
275016,-100,4,1,5,60,0,0
279302,-83.3333333333333,4,1,5,60,0,0
279588,-100,4,1,5,60,0,0
280731,-133.333333333333,4,1,5,60,0,0
282159,-100,4,1,5,60,0,0
283874,-83.3333333333333,4,1,5,60,0,0
284159,-100,4,1,5,60,0,0
288445,-83.3333333333333,4,1,5,60,0,0
288731,-100,4,1,5,60,0,0
289874,-133.333333333333,4,1,5,60,0,0
291302,-200,4,1,5,60,0,0
297874,-100,4,1,5,60,0,0
298159,-200,4,1,5,60,0,0
301588,-200,4,1,5,45,0,0
308088,-200,4,2,5,80,0,0
308445,-100,4,1,5,60,0,1
325588,-100,4,1,5,60,0,0
339302,-100,4,1,5,60,0,1
352731,-200,4,2,5,60,0,0
352945,-100,4,2,5,30,0,0

[Colours]
Combo1 : 88,140,143
Combo2 : 71,119,171
Combo3 : 37,124,139
Combo4 : 100,170,221

[HitObjects]
395,352,204,6,0,L|385:262,1,67.5000025749208,4|0,0:0|2:0,0:0:0:0:
412,175,477,1,8,0:0:0:0:
412,175,614,1,8,0:0:0:0:
412,175,751,1,8,0:0:0:0:
412,175,888,1,8,0:0:0:0:
302,193,1025,6,0,B|263:180|263:180|200:144,1,80.9999975280763,2|0,0:0|2:0,0:0:0:0:
0,140,1299,2,0,B|40:131|40:131|97:107,1,80.9999975280763,2|0,0:0|2:0,0:0:0:0:
171,314,1573,2,0,B|165:276|165:276|170:222,1,80.9999975280763,2|0,0:0|2:0,0:0:0:0:
339,81,1847,6,0,L|252:75,1,67.5000025749208,4|0,0:0|0:0,0:0:0:0:
159,49,2121,1,8,0:0:0:0:
159,49,2258,1,8,0:0:0:0:
159,49,2395,1,8,0:0:0:0:
159,49,2532,1,8,0:0:0:0:
135,201,2669,6,0,B|93:194|93:194|49:177,1,80.9999975280763,2|0,0:0|2:0,0:0:0:0:
236,283,2943,2,0,B|242:340|242:340|260:399,2,90,2|0|0,0:0|0:0|0:0,0:0:0:0:
251,129,3354,1,0,0:0:0:0:
317,318,3491,6,0,L|397:326,1,67.5000025749208,4|0,0:0|2:0,0:0:0:0:
505,354,3765,1,8,0:0:0:0:
505,354,3902,1,8,0:0:0:0:
505,354,4039,1,8,0:0:0:0:
505,354,4176,1,8,0:0:0:0:
420,201,4313,6,0,B|442:169|442:169|476:135,1,80.9999975280763,2|0,0:0|2:0,0:0:0:0:
302,130,4587,2,0,B|262:126|262:126|212:116,1,80.9999975280763,2|0,0:0|2:0,0:0:0:0:
101,19,4861,2,0,B|113:60|113:60|122:131,1,80.9999975280763,2|0,0:0|2:0,0:0:0:0:
103,267,5135,6,0,L|31:256,1,67.5000025749208,4|0,0:0|2:0,0:0:0:0:
202,221,5409,2,0,L|276:218,1,67.5000025749208,0|0,2:0|0:0,0:0:0:0:
118,98,5683,2,0,L|109:178,1,67.5000025749208
82,368,5957,6,0,B|120:359|120:359|180:354,1,80.9999975280763,10|0,0:0|2:0,0:0:0:0:
348,347,6231,2,0,B|387:332|387:332|435:302,1,80.9999975280763,2|0,0:0|2:0,0:0:0:0:
216,190,6505,2,0,B|255:204|255:204|298:212,1,80.9999975280763,2|0,0:0|2:0,0:0:0:0:
457,225,6779,6,0,L|464:154,1,67.5000025749208,4|0,0:0|2:0,0:0:0:0:
493,54,7053,1,8,0:0:0:0:
493,54,7190,1,8,0:0:0:0:
493,54,7327,1,8,0:0:0:0:
493,54,7464,1,8,0:0:0:0:
373,120,7601,6,0,B|334:120|334:120|268:108,1,80.9999975280763,2|0,0:0|2:0,0:0:0:0:
54,124,7875,2,0,B|93:144|93:144|159:161,1,80.9999975280763,2|0,0:0|2:0,0:0:0:0:
298,197,8149,2,0,B|258:206|258:206|211:225,1,80.9999975280763,2|0,0:0|2:0,0:0:0:0:
198,343,8423,6,0,L|272:338,1,67.5000025749208,4|0,0:0|2:0,0:0:0:0:
377,359,8697,1,8,0:0:0:0:
377,359,8834,1,8,0:0:0:0:
377,359,8971,1,8,0:0:0:0:
377,359,9108,1,8,0:0:0:0:
312,277,9245,6,0,B|301:239|301:239|297:179,1,80.9999975280763,2|0,0:0|2:0,0:0:0:0:
367,70,9519,2,0,B|419:67|419:67|485:52,2,90,2|0|0,0:0|0:0|0:0,0:0:0:0:
272,31,9930,1,0,0:0:0:0:
221,172,10067,6,0,L|142:162,1,67.5000025749208,4|0,0:0|2:0,0:0:0:0:
53,180,10340,1,8,0:0:0:0:
53,180,10477,1,8,0:0:0:0:
53,180,10614,1,8,0:0:0:0:
53,180,10751,1,8,0:0:0:0:
137,78,10888,6,0,B|121:42|121:42|96:5,1,80.9999975280763,2|0,0:0|2:0,0:0:0:0:
258,91,11162,2,0,B|297:85|297:85|368:64,1,80.9999975280763,2|0,0:0|2:0,0:0:0:0:
466,199,11436,2,0,B|425:186|425:186|364:179,1,80.9999975280763,2|0,0:0|2:0,0:0:0:0:
205,264,11710,6,0,L|285:248,1,67.5000025749208,4|0,0:0|0:0,0:0:0:0:
132,348,11984,2,0,L|223:359,1,67.5000025749208
36,232,12258,2,0,L|124:230,1,67.5000025749208
292,340,12532,6,0,B|332:349|332:349|397:354,1,80.9999975280763,2|0,0:0|2:0,0:0:0:0:
304,224,12806,2,0,B|313:181|313:181|336:129,1,80.9999975280763,2|2,0:0|2:0,0:0:0:0:
484,63,13080,2,0,L|382:66,1,80.9999975280763,10|0,0:0|2:0,0:0:0:0:
288,46,13354,6,0,P|209:38|150:91,1,132.00000402832,4|0,0:0|0:0,0:0:0:0:
162,178,13764,2,0,L|234:173,2,66.0000020141602,8|0|0,0:0|0:0|0:0,0:0:0:0:
25,271,14175,6,0,B|66:284|66:284|172:297,1,83.9999974365235,4|0,0:0|0:0,0:0:0:0:
310,245,14449,2,0,B|269:251|269:251|228:262,1,83.9999974365235,0|8,0:0|0:0,0:0:0:0:
430,334,14723,2,0,B|436:291|436:291|441:235,1,83.9999974365235
370,155,14997,2,0,P|332:97|352:26,1,132.00000402832,4|0,0:0|0:0,0:0:0:0:
358,168,15408,6,0,L|271:160,1,77.9999964294435,8|0,0:0|0:0,0:0:0:0:
164,111,15682,1,0,0:0:0:0:
63,237,15819,2,0,L|162:230,1,77.9999964294435
265,171,16093,1,0,0:0:0:0:
53,64,16230,2,0,B|61:93|61:93|65:141,1,77.9999964294435,8|0,0:0|0:0,0:0:0:0:
6,295,16504,1,0,3:0:0:0:
55,155,16641,5,4,0:0:0:0:
149,245,16778,2,0,L|244:256,1,66.0000020141602,0|0,3:0|0:0,0:0:0:0:
319,332,17052,1,8,0:0:0:0:
319,332,17189,1,0,0:0:0:0:
319,332,17326,1,0,0:0:0:0:
405,202,17463,6,0,B|446:192|446:192|508:188,1,83.9999974365235,4|0,0:0|0:0,0:0:0:0:
297,102,17737,2,0,B|288:57|288:57|286:7,1,83.9999974365235,0|8,0:0|0:0,0:0:0:0:
141,166,18011,2,0,B|97:172|97:172|35:167,1,83.9999974365235
54,360,18285,6,0,P|92:348|135:317,1,77.9999964294435,4|0,0:0|0:0,0:0:0:0:
208,242,18559,1,0,0:0:0:0:
36,223,18696,2,0,P|15:176|9:143,1,77.9999964294435,8|0,0:0|0:0,0:0:0:0:
18,38,18970,1,0,0:0:0:0:
183,161,19107,2,0,P|260:152|272:147,1,77.9999964294435
359,86,19381,1,0,0:0:0:0:
472,200,19518,2,0,P|432:192|384:192,1,77.9999964294435,8|0,0:0|0:0,0:0:0:0:
228,315,19792,1,0,3:0:0:0:
340,307,19929,6,0,P|396:294|468:344,1,132.00000402832,4|0,0:0|0:0,0:0:0:0:
468,184,20340,2,0,L|474:113,2,66.0000020141602,8|0|0,0:0|0:0|0:0,0:0:0:0:
368,192,20751,6,0,B|336:172|336:172|280:148,1,83.9999974365235,4|0,0:0|0:0,0:0:0:0:
89,208,21025,2,0,L|189:205,1,83.9999974365235,0|8,0:0|0:0,0:0:0:0:
340,307,21299,2,0,B|311:273|311:273|267:236,1,83.9999974365235
126,279,21573,6,0,P|53:279|5:219,1,132.00000402832,4|0,0:0|0:0,0:0:0:0:
103,104,21984,2,0,L|194:100,2,66.0000020141602,8|0|0,0:0|0:0|0:0,0:0:0:0:
137,290,22395,6,0,B|177:302|177:302|245:310,1,83.9999974365235,4|0,0:0|0:0,0:0:0:0:
428,333,22669,2,0,B|392:309|392:309|350:271,1,83.9999974365235,0|8,0:0|0:0,0:0:0:0:
316,85,22943,1,4,3:1:0:0:
292,214,23080,1,4,3:1:0:0:
330,74,23217,6,0,P|387:43|451:54,1,132.00000402832,4|0,0:0|0:0,0:0:0:0:
245,29,23627,2,0,L|172:22,2,66.0000020141602,8|0|0,0:0|0:0|0:0,0:0:0:0:
402,121,24038,6,0,B|437:146|437:146|490:165,1,83.9999974365235,4|0,0:0|0:0,0:0:0:0:
302,175,24312,2,0,B|264:196|264:196|208:240,1,83.9999974365235,0|8,0:0|0:0,0:0:0:0:
33,199,24586,2,0,B|77:205|77:205|128:223,1,83.9999974365235
292,350,24860,6,0,P|344:349|377:337,1,77.9999964294435,4|0,0:0|0:0,0:0:0:0:
471,288,25134,1,0,0:0:0:0:
302,174,25271,2,0,P|315:126|347:94,1,77.9999964294435,8|0,0:0|0:0,0:0:0:0:
414,25,25545,1,0,0:0:0:0:
191,102,25682,2,0,P|154:100|99:80,1,77.9999964294435
1,43,25956,1,0,0:0:0:0:
114,176,26093,2,0,P|123:212|124:263,1,77.9999964294435,8|0,0:0|0:0,0:0:0:0:
94,370,26367,1,0,0:0:0:0:
125,185,26504,6,0,P|77:152|-3:162,1,132.00000402832,4|0,0:0|0:0,0:0:0:0:
205,223,26915,1,8,0:0:0:0:
279,168,27052,1,0,0:0:0:0:
312,82,27189,1,0,0:0:0:0:
386,204,27326,6,0,B|429:209|429:209|490:210,1,83.9999974365235,4|0,0:0|0:0,0:0:0:0:
285,277,27600,2,0,B|241:300|241:300|187:315,1,83.9999974365235,0|8,0:0|0:0,0:0:0:0:
154,118,27874,2,0,B|113:108|113:108|48:104,1,83.9999974365235
36,224,28080,1,0,2:0:0:0:
58,253,28148,2,0,P|133:255|183:198,1,132.00000402832,2|0,0:0|0:0,0:0:0:0:
220,59,28559,6,0,P|290:47|321:54,1,77.9999964294435,12|0,0:0|0:0,0:0:0:0:
412,87,28833,1,0,0:0:0:0:
297,202,28970,2,0,P|283:244|296:302,1,77.9999964294435
333,372,29244,1,0,0:0:0:0:
174,217,29381,1,8,0:0:0:0:
163,168,29449,1,8,0:0:0:0:
154,118,29518,1,12,3:1:0:0:
59,252,29655,1,4,3:1:0:0:
220,59,29792,6,0,P|266:44|344:82,1,132.00000402832,4|0,0:0|0:0,0:0:0:0:
365,298,30203,2,0,L|370:376,2,66.0000020141602,8|0|0,0:0|0:0|0:0,0:0:0:0:
386,142,30614,6,0,B|413:112|413:112|471:72,1,83.9999974365235,4|0,0:0|0:0,0:0:0:0:
297,202,30888,2,0,L|212:191,1,83.9999974365235,0|8,0:0|0:0,0:0:0:0:
17,99,31162,2,0,B|54:124|54:124|93:165,1,83.9999974365235
150,323,31436,6,0,P|160:279|159:233,1,77.9999964294435,4|0,0:0|0:0,0:0:0:0:
150,117,31710,1,0,0:0:0:0:
297,202,31847,2,0,P|358:219|399:219,1,77.9999964294435,8|0,0:0|0:0,0:0:0:0:
484,207,32121,1,0,0:0:0:0:
299,286,32258,2,0,P|246:261|223:238,1,77.9999964294435
155,132,32532,1,0,0:0:0:0:
23,182,32669,2,0,P|87:195|122:191,1,77.9999964294435,8|0,0:0|0:0,0:0:0:0:
248,143,32943,1,0,0:0:0:0:
394,286,33080,6,0,P|434:237|408:155,1,132.00000402832,4|0,0:0|0:0,0:0:0:0:
305,305,33490,2,0,L|310:372,2,66.0000020141602,8|0|0,0:0|0:0|0:0,0:0:0:0:
203,216,33901,6,0,B|165:202|165:202|89:190,1,83.9999974365235,4|0,0:0|0:0,0:0:0:0:
323,116,34175,2,0,B|336:77|336:77|348:23,1,83.9999974365235,0|8,0:0|0:0,0:0:0:0:
214,229,34449,2,0,L|219:319,1,83.9999974365235
173,92,34723,6,0,P|130:62|49:72,1,132.00000402832,4|0,0:0|0:0,0:0:0:0:
15,248,35134,2,0,L|23:178,2,66.0000020141602,8|0|0,0:0|0:0|0:0,0:0:0:0:
212,357,35545,6,0,B|245:331|245:331|270:296,1,83.9999974365235,4|0,0:0|0:0,0:0:0:0:
251,76,35819,2,0,B|291:92|291:92|327:119,1,83.9999974365235,0|8,0:0|0:0,0:0:0:0:
364,238,36093,1,4,3:1:0:0:
409,80,36230,1,4,3:1:0:0:
354,253,36367,6,0,P|290:264|229:219,1,132.00000402832,4|0,0:0|0:0,0:0:0:0:
148,69,36778,2,0,L|64:60,2,66.0000020141602,8|0|0,0:0|0:0|0:0,0:0:0:0:
306,192,37189,6,0,B|347:174|347:174|388:144,1,83.9999974365235,4|0,0:0|0:0,0:0:0:0:
155,224,37463,2,0,L|61:217,1,83.9999974365235,0|8,0:0|0:0,0:0:0:0:
348,266,37737,2,0,B|390:273|390:273|451:299,1,83.9999974365235
207,155,38011,6,0,P|214:104|243:67,1,77.9999964294435,4|0,0:0|0:0,0:0:0:0:
320,13,38285,1,0,0:0:0:0:
193,162,38422,2,0,P|125:166|100:158,1,77.9999964294435,8|0,0:0|0:0,0:0:0:0:
15,110,38696,1,0,0:0:0:0:
164,250,38833,2,0,P|145:281|106:314,1,77.9999964294435
0,335,39107,1,0,0:0:0:0:
223,322,39244,2,0,L|325:329,1,77.9999964294435,8|0,0:0|0:0,0:0:0:0:
412,258,39518,1,0,0:0:0:0:
484,360,39655,5,4,0:0:0:0:
484,360,39929,1,4,0:0:0:0:
433,177,40066,2,0,L|510:169,2,66.0000020141602,4|4|4,0:0|0:0|0:0,0:0:0:0:
216,111,40477,5,8,0:0:0:0:
178,216,40614,1,0,0:0:0:0:
65,218,40751,1,8,0:0:0:0:
194,209,40888,1,0,0:0:0:0:
2,342,41025,1,8,0:0:0:0:
53,228,41162,1,0,0:0:0:0:
221,301,41299,5,4,0:0:0:0:
221,301,41573,1,4,0:0:0:0:
308,155,41710,2,0,L|320:74,2,66.0000020141602,4|4|4,0:0|0:0|0:0,0:0:0:0:
388,313,42121,6,0,B|428:318|428:318|497:307,1,83.9999974365235,8|0,0:0|0:0,0:0:0:0:
281,236,42395,1,0,0:0:0:0:
376,326,42532,1,0,0:0:0:0:
405,113,42669,1,0,0:0:0:0:
441,237,42806,1,0,0:0:0:0:
488,54,42943,5,4,0:0:0:0:
488,54,43217,1,4,0:0:0:0:
245,106,43354,2,0,L|154:97,2,66.0000020141602,4|4|4,0:0|0:0|0:0,0:0:0:0:
369,252,43764,5,8,0:0:0:0:
287,174,43901,1,0,0:0:0:0:
269,346,44038,1,8,0:0:0:0:
221,238,44175,1,0,0:0:0:0:
106,358,44312,1,8,0:0:0:0:
127,251,44449,1,0,0:0:0:0:
273,350,44586,5,4,0:0:0:0:
273,350,44860,1,4,0:0:0:0:
181,155,44997,2,0,L|190:81,2,66.0000020141602,4|4|4,0:0|0:0|0:0,0:0:0:0:
55,299,45408,6,0,B|44:265|44:265|39:212,1,83.9999974365235,8|0,0:0|0:0,0:0:0:0:
110,19,45682,1,0,3:0:0:0:
18,85,45819,1,8,0:0:0:0:
165,165,45956,1,8,0:0:0:0:
29,97,46093,1,8,0:0:0:0:
191,259,46230,5,4,0:0:0:0:
191,259,46504,1,4,0:0:0:0:
339,195,46641,2,0,L|428:189,2,66.0000020141602,4|4|4,0:0|0:0|0:0,0:0:0:0:
112,370,47052,5,8,0:0:0:0:
179,265,47189,1,0,0:0:0:0:
316,348,47326,1,8,0:0:0:0:
193,256,47463,1,0,0:0:0:0:
331,207,47600,1,8,0:0:0:0:
204,248,47737,1,0,0:0:0:0:
391,305,47874,5,12,0:0:0:0:
391,305,48148,1,4,0:0:0:0:
264,151,48285,2,0,L|180:142,2,66.0000020141602,4|4|4,0:0|0:0|0:0,0:0:0:0:
456,101,48696,6,0,B|420:78|420:78|379:65,1,83.9999974365235,0|8,0:0|0:0,0:0:0:0:
171,57,48970,1,8,0:0:0:0:
276,9,49107,1,0,0:0:0:0:
54,60,49244,1,2,0:0:0:0:
182,70,49381,1,0,0:0:0:0:
76,237,49518,5,4,0:0:0:0:
76,237,49792,1,4,0:0:0:0:
145,351,49929,1,4,0:0:0:0:
271,304,50066,1,4,0:0:0:0:
404,318,50203,1,4,0:0:0:0:
185,234,50340,6,0,B|168:195|168:195|156:138,1,83.9999974365235,4|0,0:0|0:0,0:0:0:0:
408,101,50614,2,0,B|399:141|399:141|380:180,1,83.9999974365235,8|0,0:0|0:0,0:0:0:0:
182,70,50888,2,0,B|224:77|224:77|296:81,1,83.9999974365235,8|0,0:0|0:0,0:0:0:0:
458,29,51162,5,4,0:0:0:0:
458,29,51436,1,4,0:0:0:0:
394,187,51573,2,0,L|397:265,2,66.0000020141602,4|4|4,0:0|0:0|0:0,0:0:0:0:
283,295,51984,2,0,P|211:305|150:248,1,150,4|0,0:0|0:0,0:0:0:0:
128,175,52395,2,0,L|114:330,1,150,4|0,0:0|0:0,0:0:0:0:
86,60,52806,5,4,0:0:0:0:
86,60,53080,1,4,0:0:0:0:
337,118,53217,1,4,0:0:0:0:
346,107,53627,5,4,0:0:0:0:
200,136,53764,1,4,0:0:0:0:
446,158,53901,1,4,0:0:0:0:
277,10,54038,1,4,0:0:0:0:
294,17,54449,5,4,0:0:0:0:
155,89,54586,1,4,0:0:0:0:
283,188,54723,1,4,0:0:0:0:
285,33,54860,5,4,0:0:0:0:
294,201,54997,1,4,0:0:0:0:
409,257,55134,1,4,0:0:0:0:
277,51,55271,5,4,0:0:0:0:
385,107,55408,1,4,0:0:0:0:
187,180,55545,1,4,0:0:0:0:
400,271,55682,1,4,0:0:0:0:
394,293,56093,5,4,0:0:0:0:
394,293,56367,1,4,0:0:0:0:
160,348,56504,1,4,0:0:0:0:
176,333,56915,5,4,0:0:0:0:
46,263,57052,1,4,0:0:0:0:
304,252,57189,1,4,0:0:0:0:
52,249,57326,1,4,0:0:0:0:
58,235,57737,5,4,0:0:0:0:
159,95,57874,1,4,0:0:0:0:
142,198,58011,1,4,0:0:0:0:
404,76,58148,5,4,0:0:0:0:
169,109,58285,1,4,0:0:0:0:
272,132,58422,1,4,0:0:0:0:
152,209,58559,5,4,0:0:0:0:
268,264,58696,1,4,0:0:0:0:
324,372,58833,1,4,0:0:0:0:
376,156,58970,1,4,0:0:0:0:
396,276,59381,6,0,L|488:280,1,66.0000020141602,4|0,0:0|2:0,0:0:0:0:
309,371,59655,1,8,0:0:0:0:
232,233,59792,2,0,B|196:238|196:238|153:248,1,66.0000020141602
82,301,60066,1,8,0:0:0:0:
187,158,60203,2,0,L|194:64,1,66.0000020141602
106,182,60477,1,8,0:0:0:0:
258,62,60614,2,0,P|211:19|148:30,1,132.00000402832,4|8,0:0|0:0,0:0:0:0:
352,159,61025,6,0,B|386:154|386:154|431:143,1,66.0000020141602,4|0,0:0|2:0,0:0:0:0:
507,96,61299,1,8,0:0:0:0:
465,275,61436,2,0,L|460:352,2,66.0000020141602,0|0|8,0:0|0:0|0:0,0:0:0:0:
297,286,61847,1,0,0:0:0:0:
265,315,61916,1,0,0:0:0:0:
223,325,61984,1,0,0:0:0:0:
181,336,62053,1,0,0:0:0:0:
139,345,62121,1,8,0:0:0:0:
365,354,62258,1,0,0:0:0:0:
249,150,62395,2,0,L|257:64,1,77.9999964294435,4|8,0:0|0:0,0:0:0:0:
166,231,62669,6,0,P|137:251|84:268,1,66.0000020141602,4|0,0:0|2:0,0:0:0:0:
243,81,62943,1,8,0:0:0:0:
134,107,63080,2,0,B|101:102|101:102|51:85,2,66.0000020141602,0|0|8,0:0|0:0|0:0,0:0:0:0:
319,40,63490,2,0,L|419:36,1,66.0000020141602
227,91,63764,1,8,0:0:0:0:
366,148,63901,1,4,0:0:0:0:
310,217,64038,1,0,0:0:0:0:
299,306,64175,1,8,0:0:0:0:
125,240,64312,6,0,L|41:249,1,66.0000020141602,4|0,0:0|0:0,0:0:0:0:
212,100,64586,1,8,0:0:0:0:
137,256,64723,2,0,P|196:300|259:286,1,132.00000402832,0|8,0:0|0:0,0:0:0:0:
355,165,65134,1,0,0:0:0:0:
373,260,65271,1,0,0:0:0:0:
395,350,65408,1,0,0:0:0:0:
212,228,65545,1,8,0:0:0:0:
366,148,65682,1,8,0:0:0:0:
125,44,65819,1,8,0:0:0:0:
273,101,65956,6,0,B|305:90|305:90|359:60,1,66.0000020141602,12|0,0:0|2:0,0:0:0:0:
166,169,66230,1,8,0:0:0:0:
75,116,66367,2,0,L|-1:111,2,66.0000020141602,0|0|8,0:0|0:0|0:0,0:0:0:0:
226,237,66778,2,0,B|256:248|256:248|314:257,1,66.0000020141602
394,244,67052,1,8,0:0:0:0:
150,162,67189,2,0,P|133:105|177:43,1,132.00000402832,4|8,0:0|0:0,0:0:0:0:
104,238,67600,6,0,L|18:245,1,66.0000020141602,4|0,0:0|2:0,0:0:0:0:
241,247,67874,1,8,0:0:0:0:
136,336,68011,2,0,B|171:344|171:344|214:348,1,66.0000020141602
301,323,68285,1,8,0:0:0:0:
312,184,68422,1,0,0:0:0:0:
353,175,68490,1,0,0:0:0:0:
395,169,68559,1,0,0:0:0:0:
437,163,68627,1,0,0:0:0:0:
479,156,68696,1,8,0:0:0:0:
310,96,68833,1,0,0:0:0:0:
446,246,68970,2,0,L|535:252,1,66.0000020141602,4|8,0:0|0:0,0:0:0:0:
299,195,69244,6,0,B|264:189|264:189|211:169,1,66.0000020141602,4|0,0:0|2:0,0:0:0:0:
375,26,69518,1,8,0:0:0:0:
232,47,69655,2,0,L|154:38,1,66.0000020141602
59,64,69929,1,8,0:0:0:0:
152,187,70066,2,0,B|118:178|118:178|78:158,1,66.0000020141602
49,50,70340,1,8,0:0:0:0:
84,241,70477,2,0,L|228:231,1,132.00000402832,0|8,0:0|0:0,0:0:0:0:
404,336,70888,6,0,P|438:343|488:348,1,66.0000020141602,4|0,0:0|2:0,0:0:0:0:
302,159,71162,1,8,0:0:0:0:
240,312,71299,2,0,L|168:318,2,66.0000020141602,0|0|8,0:0|0:0|0:0,0:0:0:0:
362,259,71710,1,0,0:0:0:0:
220,166,71847,1,0,0:0:0:0:
457,234,71984,1,8,0:0:0:0:
332,80,72121,1,8,0:0:0:0:
289,77,72189,1,8,0:0:0:0:
248,90,72258,1,8,0:0:0:0:
224,54,72326,1,8,0:0:0:0:
188,29,72395,1,8,0:0:0:0:
145,25,72463,1,8,0:0:0:0:
105,42,72532,5,4,0:0:0:0:
119,49,72806,1,4,0:0:0:0:
64,200,72943,1,4,0:0:0:0:
160,104,73080,1,4,0:0:0:0:
184,292,73217,1,4,0:0:0:0:
80,212,73354,1,4,0:0:0:0:
96,224,73627,5,4,0:0:0:0:
204,172,73764,1,4,0:0:0:0:
168,304,73901,1,4,0:0:0:0:
284,204,74038,1,4,0:0:0:0:
348,344,74175,6,0,P|396:364|460:352,1,83.9999974365235,6|0,0:0|0:0,0:0:0:0:
512,332,74449,1,0,0:0:0:0:
388,220,74586,2,0,L|392:132,1,83.9999974365235,10|0,0:0|0:0,0:0:0:0:
420,44,74860,1,0,0:0:0:0:
284,84,74997,2,0,P|232:64|176:76,1,83.9999974365235,2|0,0:0|0:0,0:0:0:0:
116,100,75271,1,0,0:0:0:0:
208,320,75408,2,0,L|199:230,1,83.9999974365235,10|0,0:0|0:0,0:0:0:0:
229,146,75682,1,0,0:0:0:0:
93,290,75819,5,4,0:0:0:0:
84,306,76093,1,4,0:0:0:0:
285,291,76230,1,4,0:0:0:0:
191,224,76367,1,4,0:0:0:0:
338,159,76504,1,4,0:0:0:0:
192,84,76641,1,4,0:0:0:0:
175,92,76915,5,4,0:0:0:0:
374,67,77052,1,4,0:0:0:0:
320,161,77189,1,4,0:0:0:0:
442,244,77326,1,4,0:0:0:0:
374,357,77463,6,0,P|332:356|293:339,1,83.9999974365235,6|0,0:0|0:0,0:0:0:0:
431,255,77737,1,0,0:0:0:0:
187,342,77874,2,0,L|97:348,1,83.9999974365235,10|0,0:0|0:0,0:0:0:0:
0,373,78148,1,0,0:0:0:0:
159,250,78285,2,0,P|176:201|166:155,1,83.9999974365235,2|0,0:0|0:0,0:0:0:0:
105,94,78559,1,0,0:0:0:0:
297,185,78696,2,0,P|325:154|380:138,1,83.9999974365235,10|0,0:0|0:0,0:0:0:0:
471,146,78970,1,0,0:0:0:0:
225,73,79107,5,4,0:0:0:0:
241,68,79381,1,4,0:0:0:0:
123,211,79518,1,4,0:0:0:0:
308,158,79655,1,4,0:0:0:0:
225,292,79792,1,4,0:0:0:0:
258,64,79929,1,4,0:0:0:0:
274,60,80203,5,4,0:0:0:0:
109,18,80340,1,4,0:0:0:0:
221,154,80477,1,4,0:0:0:0:
104,34,80614,1,4,0:0:0:0:
39,173,80751,6,0,L|51:287,1,83.9999974365235,6|0,0:0|0:0,0:0:0:0:
18,348,81025,1,0,0:0:0:0:
150,159,81162,2,0,P|209:135|263:152,1,83.9999974365235,10|0,0:0|0:0,0:0:0:0:
312,194,81436,1,0,0:0:0:0:
428,10,81573,2,0,P|408:46|422:111,1,83.9999974365235,2|0,0:0|0:0,0:0:0:0:
447,181,81847,1,0,0:0:0:0:
308,294,81984,2,0,L|203:305,1,83.9999974365235,10|0,0:0|0:0,0:0:0:0:
133,256,82258,1,0,0:0:0:0:
366,345,82395,6,0,P|383:293|312:218,1,143.999995605469,4|8,0:0|0:0,0:0:0:0:
239,210,82806,1,0,0:0:0:0:
384,140,82943,1,0,0:0:0:0:
215,80,83080,1,8,0:0:0:0:
102,327,83217,2,0,B|99:267|99:267|107:236|107:236|103:170,1,143.999995605469,4|8,0:0|0:0,0:0:0:0:
275,345,83627,2,0,B|320:360|320:360|439:375,1,143.999995605469,4|8,0:0|0:0,0:0:0:0:
427,368,83970,1,0,0:0:0:0:
438,364,84038,1,4,0:0:0:0:
286,77,84312,5,8,0:0:0:0:
294,84,84380,1,8,0:0:0:0:
304,93,84449,1,8,0:0:0:0:
444,23,84586,1,8,0:0:0:0:
307,202,84723,1,8,0:0:0:0:
204,14,84860,1,4,0:0:0:0:
195,98,85134,6,0,L|63:104,1,107.999996704102
76,108,85408,1,0,0:0:0:0:
294,216,85545,1,0,0:0:0:0:
43,240,85682,1,4,0:0:0:0:
270,336,85956,5,8,0:0:0:0:
258,333,86025,1,8,0:0:0:0:
246,331,86093,1,8,0:0:0:0:
417,175,86230,1,8,0:0:0:0:
361,347,86367,1,8,0:0:0:0:
245,204,86504,1,12,0:0:0:0:
408,28,86778,5,8,0:0:0:0:
406,41,86847,1,8,0:0:0:0:
404,54,86915,1,8,0:0:0:0:
186,47,87052,1,8,0:0:0:0:
315,121,87189,1,8,0:0:0:0:
146,235,87326,1,4,0:0:0:0:
416,141,87600,5,0,0:0:0:0:
407,149,87668,1,0,0:0:0:0:
397,158,87737,1,0,0:0:0:0:
363,254,87874,1,0,0:0:0:0:
236,150,88011,1,0,0:0:0:0:
297,317,88148,5,0,0:0:0:0:
137,159,88285,1,0,0:0:0:0:
284,220,88422,1,0,0:0:0:0:
41,366,88559,1,8,0:0:0:0:
182,313,88696,1,0,0:0:0:0:
61,268,88833,1,0,0:0:0:0:
258,362,88970,6,0,L|353:355,1,71.9999978027344,4|0,0:0|0:0,0:0:0:0:
417,318,89244,1,8,0:0:0:0:
182,313,89381,2,0,P|147:277|137:242,1,71.9999978027344
126,167,89655,1,8,0:0:0:0:
348,268,89792,2,0,P|403:224|391:146,1,143.999995605469,0|8,0:0|0:0,0:0:0:0:
169,322,90203,2,0,B|109:318|109:318|22:329,1,143.999995605469,0|8,0:0|0:0,0:0:0:0:
252,264,90614,6,0,L|265:176,1,71.9999978027344
234,109,90888,1,8,0:0:0:0:
234,109,91025,1,0,0:0:0:0:
269,272,91162,1,0,0:0:0:0:
415,306,91299,1,8,0:0:0:0:
175,203,91436,2,0,P|124:215|88:233,1,71.9999978027344
34,303,91710,1,8,0:0:0:0:
30,101,91847,2,0,B|62:60|113:66|113:66|129:50|129:50|167:36,1,143.999995605469,0|8,0:0|0:0,0:0:0:0:
300,157,92258,6,0,B|344:154|344:154|394:148,1,77.9999964294435,4|0,0:0|0:0,0:0:0:0:
461,99,92532,1,8,0:0:0:0:
306,235,92669,2,0,P|276:199|170:207,1,155.999992858887,0|8,0:0|0:0,0:0:0:0:
231,259,93080,2,0,B|216:221|225:193|225:193|219:179|219:179|223:134|192:96,1,155.999992858887,4|8,0:0|0:0,0:0:0:0:
8,184,93490,1,0,0:0:0:0:
42,158,93559,1,0,0:0:0:0:
84,151,93627,1,0,0:0:0:0:
123,166,93696,1,0,0:0:0:0:
88,189,93764,1,0,0:0:0:0:
75,229,93833,1,0,0:0:0:0:
88,269,93901,6,0,L|96:372,1,77.9999964294435,4|0,0:0|0:0,0:0:0:0:
1,326,94175,1,8,0:0:0:0:
184,365,94312,2,0,B|241:368|241:368|267:359|267:359|351:363,1,155.999992858887,0|8,0:0|0:0,0:0:0:0:
293,210,94723,2,0,B|313:183|332:176|332:176|341:160|341:160|393:165|437:129,1,155.999992858887,4|8,0:0|0:0,0:0:0:0:
207,82,95134,1,4,0:0:0:0:
143,235,95271,1,8,0:0:0:0:
147,223,95340,1,8,0:0:0:0:
150,213,95408,2,0,L|154:151,1,38.9999982147218,8|0,0:0|2:0,0:0:0:0:
65,270,95545,6,0,P|187:271|237:286,1,143.999995605469,4|8,0:0|0:0,0:0:0:0:
364,351,95956,2,0,L|277:347,1,71.9999978027344
214,286,96230,1,8,0:0:0:0:
395,235,96367,2,0,P|412:161|366:115,1,143.999995605469,0|8,0:0|0:0,0:0:0:0:
221,300,96778,2,0,B|133:261|133:261|85:254,1,143.999995605469,0|8,0:0|0:0,0:0:0:0:
231,311,97189,6,0,L|245:234,1,71.9999978027344
217,144,97463,1,8,0:0:0:0:
328,319,97600,2,0,P|379:332|418:327,1,71.9999978027344
475,275,97874,1,8,0:0:0:0:
324,171,98011,2,0,P|309:114|324:73,1,71.9999978027344
337,16,98285,1,8,0:0:0:0:
142,226,98422,2,0,P|107:224|46:203,1,71.9999978027344
12,133,98696,1,8,0:0:0:0:
18,125,98764,1,0,0:0:0:0:
25,115,98833,6,0,B|91:109|91:109|112:99|112:99|187:91,1,143.999995605469,4|8,0:0|0:0,0:0:0:0:
246,180,99244,2,0,P|287:190|345:176,1,71.9999978027344
408,154,99518,1,8,0:0:0:0:
339,314,99655,2,0,P|288:259|325:182,1,143.999995605469,0|8,0:0|0:0,0:0:0:0:
259,295,100066,2,0,L|174:301,1,71.9999978027344
74,352,100340,1,8,0:0:0:0:
65,360,100408,1,0,0:0:0:0:
57,369,100477,6,0,P|35:339|0:312,1,71.9999978027344
128,280,100751,1,8,0:0:0:0:
29,88,100888,2,0,L|121:71,1,71.9999978027344,4|0,0:0|0:0,0:0:0:0:
182,22,101162,1,8,0:0:0:0:
235,211,101299,1,0,0:0:0:0:
274,119,101436,1,4,0:0:0:0:
321,344,101573,1,0,0:0:0:0:
217,204,101710,1,8,0:0:0:0:
172,189,101778,1,8,0:0:0:0:
128,206,101847,1,8,0:0:0:0:
112,249,101915,1,8,0:0:0:0:
129,280,101984,1,8,0:0:0:0:
161,282,102052,1,8,0:0:0:0:
175,265,102121,6,0,L|14:255,1,143.999995605469,4|8,0:0|0:0,0:0:0:0:
31,256,102532,1,0,0:0:0:0:
115,356,102669,1,0,0:0:0:0:
47,156,102806,1,8,0:0:0:0:
254,288,102943,2,0,P|296:288|336:272,1,71.9999978027344,4|0,0:0|0:0,0:0:0:0:
405,222,103217,1,8,0:0:0:0:
345,45,103354,2,0,L|352:124,1,71.9999978027344,4|0,0:0|0:0,0:0:0:0:
411,208,103627,1,8,0:0:0:0:
261,107,103764,6,0,P|188:91|132:155,1,143.999995605469,4|8,0:0|0:0,0:0:0:0:
151,223,104175,1,0,0:0:0:0:
68,55,104312,1,0,0:0:0:0:
53,272,104449,1,8,0:0:0:0:
275,117,104586,2,0,P|336:106|374:120,1,71.9999978027344,4|0,0:0|0:0,0:0:0:0:
434,139,104860,1,8,0:0:0:0:
393,306,104997,2,0,L|400:217,1,71.9999978027344,4|0,0:0|0:0,0:0:0:0:
443,151,105271,1,8,0:0:0:0:
277,295,105408,6,0,L|285:373,2,71.9999978027344,4|0|8,0:0|0:0|0:0,0:0:0:0:
323,131,105819,2,0,P|287:87|194:96,1,143.999995605469,4|8,0:0|0:0,0:0:0:0:
399,218,106230,2,0,B|423:192|426:169|426:169|439:155|439:155|425:111|459:77,1,143.999995605469,4|8,0:0|0:0,0:0:0:0:
314,146,106641,1,8,0:0:0:0:
407,232,106778,1,0,0:0:0:0:
215,280,106915,1,8,0:0:0:0:
168,120,107052,6,0,L|66:129,1,71.9999978027344,4|0,0:0|0:0,0:0:0:0:
7,172,107326,1,8,0:0:0:0:
228,57,107463,2,0,P|304:50|346:116,1,143.999995605469,4|8,0:0|0:0,0:0:0:0:
215,280,107874,2,0,B|190:290|161:285|161:285|150:298|150:298|95:311|73:361,1,143.999995605469,4|8,0:0|0:0,0:0:0:0:
228,268,108285,1,4,0:0:0:0:
372,334,108422,1,0,0:0:0:0:
417,325,108490,1,0,0:0:0:0:
462,314,108559,1,0,0:0:0:0:
507,307,108627,1,0,0:0:0:0:
474,272,108696,6,0,P|459:239|466:185,1,71.9999978027344
488,117,108970,1,8,0:0:0:0:
372,231,109107,2,0,L|282:224,1,71.9999978027344
221,175,109381,1,8,0:0:0:0:
114,346,109518,2,0,B|102:286|102:286|105:260|105:260|96:191,1,143.999995605469,0|8,0:0|0:0,0:0:0:0:
128,355,109929,2,0,L|219:360,2,71.9999978027344,0|0|8,0:0|0:0|0:0,0:0:0:0:
226,257,110340,6,0,P|251:245|319:245,1,71.9999978027344,4|0,0:0|0:0,0:0:0:0:
384,265,110614,1,8,0:0:0:0:
168,151,110751,2,0,L|156:51,1,71.9999978027344,4|0,0:0|0:0,0:0:0:0:
106,2,111025,1,8,0:0:0:0:
303,144,111162,2,0,P|366:155|397:145,1,71.9999978027344,4|0,0:0|0:0,0:0:0:0:
463,120,111436,1,8,0:0:0:0:
253,29,111573,1,4,0:0:0:0:
253,29,111710,1,0,0:0:0:0:
327,239,111847,1,8,0:0:0:0:
319,258,111915,1,0,0:0:0:0:
309,277,111984,6,0,P|269:278|222:298,1,71.9999978027344,4|0,0:0|0:0,0:0:0:0:
168,350,112258,1,8,0:0:0:0:
0,186,112395,2,0,L|102:199,1,71.9999978027344,4|0,0:0|0:0,0:0:0:0:
174,147,112669,1,8,0:0:0:0:
123,255,112806,2,0,P|54:243|3:291,1,143.999995605469,4|0,0:0|0:0,0:0:0:0:
63,53,113217,1,4,0:0:0:0:
174,147,113354,1,8,0:0:0:0:
224,30,113490,1,8,0:0:0:0:
234,36,113559,1,8,0:0:0:0:
244,42,113627,6,0,P|304:43|330:52,1,66.0000020141602,4|0,0:0|0:0,0:0:0:0:
395,101,113901,1,8,0:0:0:0:
174,147,114038,2,0,P|134:151|99:166,1,66.0000020141602,4|0,0:0|0:0,0:0:0:0:
45,225,114312,1,8,0:0:0:0:
266,204,114449,2,0,L|270:111,2,66.0000020141602,4|8|0,0:0|0:0|0:0,0:0:0:0:
313,335,114860,1,0,0:0:0:0:
342,262,114997,1,0,0:0:0:0:
412,225,115134,1,0,0:0:0:0:
297,344,115271,6,0,L|197:351,1,77.9999964294435,4|0,0:0|0:0,0:0:0:0:
118,373,115545,1,0,0:0:0:0:
263,244,115682,2,0,P|277:209|272:146,1,77.9999964294435,8|0,0:0|0:0,0:0:0:0:
240,84,115956,1,8,0:0:0:0:
97,213,116093,2,0,L|3:204,2,77.9999964294435
169,293,116504,1,8,0:0:0:0:
158,129,116641,1,0,0:0:0:0:
182,282,116778,1,0,0:0:0:0:
286,157,116915,6,0,B|346:150|346:150|393:158|393:158|461:152,1,155.999992858887,4|0,0:0|0:0,0:0:0:0:
372,300,117326,2,0,P|361:257|332:210,1,77.9999964294435,8|0,0:0|0:0,0:0:0:0:
276,171,117600,1,8,0:0:0:0:
380,315,117737,2,0,L|465:321,2,77.9999964294435
245,253,118148,1,8,0:0:0:0:
155,330,118285,1,0,0:0:0:0:
32,328,118422,1,0,0:0:0:0:
259,245,118559,6,0,L|272:83,1,155.999992858887,4|0,0:0|0:0,0:0:0:0:
245,253,118970,2,0,P|208:264|161:255,1,77.9999964294435,8|0,0:0|0:0,0:0:0:0:
76,203,119244,1,8,0:0:0:0:
193,89,119381,2,0,P|188:40|182:5,2,77.9999964294435
152,240,119792,1,8,0:0:0:0:
323,211,119929,1,0,0:0:0:0:
276,132,120066,1,0,0:0:0:0:
262,315,120203,6,0,P|328:254|390:274,1,155.999992858887,4|0,0:0|0:0,0:0:0:0:
246,306,120614,2,0,L|233:213,1,77.9999964294435,8|0,0:0|0:0,0:0:0:0:
185,138,120888,1,8,0:0:0:0:
172,343,121025,2,0,P|143:354|87:351,1,77.9999964294435
8,316,121299,1,0,0:0:0:0:
126,242,121436,1,8,0:0:0:0:
12,191,121573,1,0,0:0:0:0:
179,329,121710,1,0,0:0:0:0:
277,186,121847,6,0,L|377:179,1,77.9999964294435,4|0,0:0|0:0,0:0:0:0:
454,202,122121,1,0,0:0:0:0:
285,39,122258,2,0,P|236:37|192:58,1,77.9999964294435,8|0,0:0|0:0,0:0:0:0:
160,152,122532,1,0,0:0:0:0:
392,91,122669,2,0,L|492:98,2,77.9999964294435
258,111,123080,1,8,0:0:0:0:
437,212,123217,1,0,0:0:0:0:
343,274,123354,1,8,0:0:0:0:
227,245,123490,6,0,L|119:237,1,77.9999964294435,4|0,0:0|0:0,0:0:0:0:
56,189,123764,1,0,0:0:0:0:
184,362,123901,2,0,P|235:343|288:350,1,77.9999964294435,8|0,0:0|0:0,0:0:0:0:
270,347,124107,1,0,0:0:0:0:
282,351,124175,1,0,0:0:0:0:
107,312,124312,2,0,L|20:318,2,77.9999964294435
199,157,124723,2,0,P|152:131|105:126,2,77.9999964294435,8|0|8,0:0|0:0|0:0,0:0:0:0:
296,336,125134,5,2,0:0:0:0:
303,227,125271,1,2,0:0:0:0:
376,146,125408,1,2,0:0:0:0:
286,341,125545,5,2,0:0:0:0:
268,233,125682,1,2,0:0:0:0:
321,137,125819,1,2,0:0:0:0:
276,348,125956,5,2,0:0:0:0:
184,281,126093,1,2,0:0:0:0:
76,302,126230,1,2,0:0:0:0:
265,357,126367,5,2,0:0:0:0:
196,185,126504,1,2,0:0:0:0:
367,216,126641,1,2,0:0:0:0:
221,52,126778,5,2,0:0:0:0:
323,97,126915,1,2,0:0:0:0:
359,203,127052,1,2,0:0:0:0:
210,57,127189,5,2,0:0:0:0:
109,71,127326,1,2,0:0:0:0:
5,86,127463,1,2,0:0:0:0:
202,62,127600,5,4,0:0:0:0:
254,159,127737,1,4,0:0:0:0:
224,262,127874,1,4,0:0:0:0:
362,7,128011,5,8,0:0:0:0:
408,283,128148,1,8,0:0:0:0:
150,185,128285,2,0,B|35:177,1,77.9999964294435,8|0,0:0|0:0,0:0:0:0:
261,349,128559,5,2,0:2:0:0:
35,178,167874,6,0,B|72:147|72:147|127:127,1,90,4|8,0:0|0:0,0:0:0:0:
284,80,168159,1,0,0:0:0:0:
284,80,168302,1,8,0:0:0:0:
477,206,168445,6,0,B|439:236|439:236|384:256,1,90,0|8,0:0|0:0,0:0:0:0:
228,304,168731,1,0,0:0:0:0:
228,304,168874,1,8,0:0:0:0:
284,80,169016,5,0,0:0:0:0:
149,72,169159,1,8,0:0:0:0:
316,184,169302,1,0,0:0:0:0:
34,177,169445,1,8,0:0:0:0:
228,304,169588,6,0,L|208:200,1,90,0|8,0:0|0:0,0:0:0:0:
172,32,169874,1,0,0:0:0:0:
172,32,170016,1,8,0:0:0:0:
316,184,170159,5,0,0:0:0:0:
284,80,170302,1,8,0:0:0:0:
360,40,170445,1,0,0:0:0:0:
392,144,170588,1,8,0:0:0:0:
308,200,170731,5,0,0:0:0:0:
280,116,170874,1,8,0:0:0:0:
356,76,171016,1,0,0:0:0:0:
384,160,171159,1,8,0:0:0:0:
480,128,171302,6,0,B|492:184|468:216|468:216|472:264,1,135,4|0,0:0|2:0,0:0:0:0:
400,240,171588,2,0,B|404:299|404:299|323:266,1,135,4|0,0:0|2:0,0:0:0:0:
330,345,171874,2,0,B|269:320|269:320|192:311,1,135,4|0,0:0|2:0,0:0:0:0:
189,303,172159,1,4,0:0:0:0:
180,295,172231,1,0,0:0:0:0:
170,287,172302,1,0,0:0:0:0:
161,278,172374,1,0,0:0:0:0:
151,270,172445,6,0,B|122:239|122:239|96:162,1,90,4|8,0:0|0:0,0:0:0:0:
266,117,172731,1,0,0:0:0:0:
356,75,172874,1,8,0:0:0:0:
434,279,173016,6,0,B|462:248|462:248|488:171,1,90,0|8,0:0|0:0,0:0:0:0:
356,76,173302,1,0,0:0:0:0:
292,8,173445,1,8,0:0:0:0:
324,348,173588,5,0,0:0:0:0:
300,260,173731,1,8,0:0:0:0:
356,76,173874,1,0,0:0:0:0:
392,196,174016,1,8,0:0:0:0:
378,276,174159,5,0,0:0:0:0:
316,182,174302,1,8,0:0:0:0:
229,304,174445,1,0,0:0:0:0:
463,153,174588,1,8,0:0:0:0:
325,365,174731,5,0,0:0:0:0:
300,260,174874,1,8,0:0:0:0:
392,196,175016,1,0,0:0:0:0:
417,301,175159,1,8,0:0:0:0:
324,348,175302,5,0,0:0:0:0:
317,258,175445,1,8,0:0:0:0:
410,194,175588,1,0,0:0:0:0:
417,284,175731,1,8,0:0:0:0:
485,134,175874,6,0,P|477:81|450:131,1,135,4|0,0:0|2:0,0:0:0:0:
365,79,176159,2,0,P|364:146|409:194,1,135,4|0,0:0|2:0,0:0:0:0:
492,227,176445,2,0,P|444:275|375:271,1,135,4|0,0:0|2:0,0:0:0:0:
377,286,176731,1,12,0:0:0:0:
373,298,176802,1,8,0:0:0:0:
369,310,176874,1,8,0:0:0:0:
365,322,176945,1,8,0:0:0:0:
361,334,177016,5,8,0:0:0:0:
281,346,177159,1,8,0:0:0:0:
254,197,177302,1,8,0:0:0:0:
334,209,177445,1,8,0:0:0:0:
97,210,177588,5,8,0:0:0:0:
103,301,177731,1,8,0:0:0:0:
206,343,177874,1,8,0:0:0:0:
200,252,178017,1,8,0:0:0:0:
402,125,178159,5,8,0:0:0:0:
334,209,178302,1,8,0:0:0:0:
479,191,178445,1,8,0:0:0:0:
411,275,178588,1,8,0:0:0:0:
200,252,178731,5,8,0:0:0:0:
104,300,178874,1,8,0:0:0:0:
180,160,179016,1,8,0:0:0:0:
84,208,179159,1,8,0:0:0:0:
64,116,179302,5,8,0:0:0:0:
84,208,179445,1,8,0:0:0:0:
180,160,179588,1,8,0:0:0:0:
160,68,179731,1,8,0:0:0:0:
200,252,179874,5,8,0:0:0:0:
280,240,180016,1,8,0:0:0:0:
180,160,180159,1,8,0:0:0:0:
260,148,180301,1,8,0:0:0:0:
356,224,180445,6,0,B|369:275|369:275|396:300|396:300|411:345,1,135,4|0,0:0|2:0,0:0:0:0:
475,316,180731,2,0,B|453:258|453:258|429:238|429:238|416:184,1,135,4|0,0:0|2:0,0:0:0:0:
492,201,181016,2,0,B|475:138|475:138|487:95|487:95|439:98,1,135,4|0,0:0|2:0,0:0:0:0:
405,51,181302,2,0,B|385:79|392:114|392:114|348:112|319:69,1,135,4|0,0:0|2:0,0:0:0:0:
230,73,181588,5,4,0:0:0:0:
143,96,181731,1,8,0:0:0:0:
14,48,181874,1,0,0:0:0:0:
50,168,182016,1,8,0:0:0:0:
32,296,182159,6,0,B|80:283|80:283|117:259,1,90,0|8,0:0|0:0,0:0:0:0:
296,144,182445,1,0,0:0:0:0:
296,144,182588,1,8,0:0:0:0:
437,147,182731,5,0,0:0:0:0:
456,253,182874,1,8,0:0:0:0:
296,144,183016,1,0,0:0:0:0:
316,300,183159,1,8,0:0:0:0:
152,268,183302,5,0,0:0:0:0:
32,296,183445,1,8,0:0:0:0:
119,168,183588,1,0,0:0:0:0:
35,184,183731,1,8,0:0:0:0:
183,54,183874,5,0,0:0:0:0:
103,73,184016,1,8,0:0:0:0:
328,23,184159,1,0,0:0:0:0:
328,23,184231,1,0,0:0:0:0:
328,23,184302,1,0,0:0:0:0:
328,23,184374,1,0,0:0:0:0:
328,23,184445,1,0,0:0:0:0:
336,67,184516,1,0,0:0:0:0:
328,111,184588,1,0,0:0:0:0:
296,143,184659,1,0,0:0:0:0:
272,183,184731,5,0,0:0:0:0:
264,223,184802,1,0,0:0:0:0:
280,260,184874,1,0,0:0:0:0:
316,282,184945,1,0,0:0:0:0:
355,286,185016,1,0,0:0:0:0:
390,274,185088,1,0,0:0:0:0:
415,249,185159,1,0,0:0:0:0:
426,217,185231,1,0,0:0:0:0:
427,182,185302,5,0,0:0:0:0:
413,153,185374,1,0,0:0:0:0:
390,132,185445,1,0,0:0:0:0:
361,120,185516,1,0,0:0:0:0:
329,113,185588,1,0,0:0:0:0:
10,83,185731,1,0,0:0:0:0:
30,123,185802,1,0,0:0:0:0:
80,144,185874,5,4,0:0:0:0:
244,52,186159,5,12,0:0:0:0:
240,74,186231,1,8,0:0:0:0:
236,96,186302,1,8,0:0:0:0:
232,118,186374,1,8,0:0:0:0:
228,140,186445,1,8,0:0:0:0:
140,180,186588,5,8,0:0:0:0:
100,250,186731,1,8,0:0:0:0:
100,250,186874,1,8,0:0:0:0:
180,252,187016,1,8,0:0:0:0:
254,216,187159,5,8,0:0:0:0:
228,140,187302,1,8,0:0:0:0:
228,140,187445,1,8,0:0:0:0:
307,152,187587,1,8,0:0:0:0:
377,111,187731,5,8,0:0:0:0:
307,152,187874,1,8,0:0:0:0:
307,152,188016,1,8,0:0:0:0:
308,69,188159,1,8,0:0:0:0:
378,29,188302,1,8,0:0:0:0:
466,42,188445,5,12,0:0:0:0:
464,64,188517,1,8,0:0:0:0:
462,86,188588,1,8,0:0:0:0:
460,108,188660,1,8,0:0:0:0:
458,130,188731,1,8,0:0:0:0:
377,111,188874,5,8,0:0:0:0:
308,69,189016,1,8,0:0:0:0:
308,69,189159,1,8,0:0:0:0:
308,152,189302,1,8,0:0:0:0:
377,193,189445,5,8,0:0:0:0:
307,236,189588,1,8,0:0:0:0:
307,236,189731,1,8,0:0:0:0:
236,200,189874,1,8,0:0:0:0:
377,111,190016,5,8,0:0:0:0:
308,69,190159,1,8,0:0:0:0:
308,152,190302,1,8,0:0:0:0:
286,144,190374,1,8,0:0:0:0:
266,133,190445,1,8,0:0:0:0:
249,117,190517,1,8,0:0:0:0:
238,97,190588,1,8,0:0:0:0:
235,74,190660,1,8,0:0:0:0:
237,51,190731,5,12,0:0:0:0:
218,64,190803,1,8,0:0:0:0:
202,80,190874,1,8,0:0:0:0:
190,99,190945,1,8,0:0:0:0:
183,120,191016,1,8,0:0:0:0:
120,51,191159,5,8,0:0:0:0:
98,129,191302,1,8,0:0:0:0:
98,129,191445,1,8,0:0:0:0:
147,193,191588,1,8,0:0:0:0:
272,262,191731,5,8,0:0:0:0:
228,196,191874,1,8,0:0:0:0:
228,196,192016,1,8,0:0:0:0:
147,193,192159,1,8,0:0:0:0:
90,324,192302,5,8,0:0:0:0:
85,245,192445,1,8,0:0:0:0:
85,245,192587,1,8,0:0:0:0:
147,193,192730,1,8,0:0:0:0:
98,129,192874,1,8,0:0:0:0:
176,112,193016,5,12,0:0:0:0:
198,107,193088,1,8,0:0:0:0:
220,103,193159,1,8,0:0:0:0:
242,99,193231,1,8,0:0:0:0:
264,95,193302,1,8,0:0:0:0:
337,32,193445,5,8,0:0:0:0:
361,109,193588,1,8,0:0:0:0:
361,109,193731,1,8,0:0:0:0:
384,186,193874,1,8,0:0:0:0:
443,131,194016,5,8,0:0:0:0:
384,186,194159,1,8,0:0:0:0:
384,186,194302,1,8,0:0:0:0:
323,239,194445,1,8,0:0:0:0:
379,298,194588,5,8,0:0:0:0:
324,239,194731,1,8,0:0:0:0:
324,239,194874,1,8,0:0:0:0:
271,178,195016,1,0,0:0:0:0:
264,171,195088,1,0,0:0:0:0:
257,164,195159,1,0,0:0:0:0:
250,157,195231,1,0,0:0:0:0:
244,150,195302,6,0,B|210:121|210:121|131:88,1,90,4|8,0:0|0:0,0:0:0:0:
48,298,195588,1,0,0:0:0:0:
48,298,195731,1,8,0:0:0:0:
150,224,195874,5,0,0:0:0:0:
103,147,196016,1,8,0:0:0:0:
132,311,196159,1,0,0:0:0:0:
148,74,196302,1,8,0:0:0:0:
337,20,196445,6,0,P|353:73|330:127,1,90,0|8,0:0|0:0,0:0:0:0:
262,281,196731,1,0,0:0:0:0:
262,281,196874,1,8,0:0:0:0:
264,102,197016,6,0,P|282:154|332:184,1,90,0|8,0:0|0:0,0:0:0:0:
469,271,197302,1,0,0:0:0:0:
469,271,197445,1,8,0:0:0:0:
380,89,197588,5,0,0:0:0:0:
362,195,197731,1,8,0:0:0:0:
457,187,197874,1,0,0:0:0:0:
474,81,198017,1,8,0:0:0:0:
389,101,198159,5,0,0:0:0:0:
375,190,198302,1,8,0:0:0:0:
469,179,198445,1,0,0:0:0:0:
483,90,198588,1,8,0:0:0:0:
315,13,198731,6,0,B|322:40|322:40|281:85|311:146,1,135,4|0,0:0|2:0,0:0:0:0:
380,126,199016,2,0,P|367:191|287:209,1,135,4|0,0:0|2:0,0:0:0:0:
230,218,199302,2,0,B|183:222|158:198|158:198|121:188|121:188|96:130,1,135,4|0,0:0|2:0,0:0:0:0:
108,157,199588,1,4,0:0:0:0:
103,144,199659,1,0,0:0:0:0:
98,131,199731,1,8,0:0:0:0:
92,118,199802,1,0,0:0:0:0:
87,105,199874,6,0,B|115:68|115:68|178:33,1,90,4|8,0:0|0:0,0:0:0:0:
406,166,200159,1,0,0:0:0:0:
324,127,200302,1,8,0:0:0:0:
455,249,200445,6,0,P|413:263|351:244,1,90,0|8,0:0|0:0,0:0:0:0:
167,113,200730,1,0,0:0:0:0:
285,195,200873,1,8,0:0:0:0:
324,126,201016,5,0,0:0:0:0:
406,166,201159,1,8,0:0:0:0:
246,84,201302,1,0,0:0:0:0:
487,208,201445,1,8,0:0:0:0:
409,60,201588,5,0,0:0:0:0:
319,238,201731,1,8,0:0:0:0:
325,126,201874,1,0,0:0:0:0:
406,166,202016,1,8,0:0:0:0:
353,315,202159,6,0,L|232:322,1,90,0|8,0:0|0:0,0:0:0:0:
82,333,202445,1,0,0:0:0:0:
82,333,202588,1,8,0:0:0:0:
319,238,202731,6,0,L|223:243,1,90,0|8,0:0|0:0,0:0:0:0:
105,251,203017,1,0,0:0:0:0:
105,251,203160,1,8,0:0:0:0:
120,122,203302,6,0,P|109:80|133:123,1,135,4|0,0:0|2:0,0:0:0:0:
141,189,203588,2,0,P|194:169|223:90,1,135,4|0,0:0|2:0,0:0:0:0:
196,17,203874,2,0,B|210:31|210:31|274:25|298:93,1,135,4|0,0:0|2:0,0:0:0:0:
303,160,204159,2,0,P|328:154|352:50,1,135,4|0,0:0|2:0,0:0:0:0:
432,61,204445,5,4,0:0:0:0:
435,83,204516,1,0,0:0:0:0:
437,105,204588,1,0,0:0:0:0:
439,127,204659,1,0,0:0:0:0:
441,149,204731,1,0,0:0:0:0:
485,250,204874,5,0,0:0:0:0:
407,272,205016,1,8,0:0:0:0:
407,272,205159,1,8,0:0:0:0:
329,295,205302,1,8,0:0:0:0:
387,354,205445,5,8,0:0:0:0:
330,295,205587,1,8,0:0:0:0:
330,295,205730,1,8,0:0:0:0:
274,237,205873,1,8,0:0:0:0:
214,291,206016,5,8,0:0:0:0:
275,238,206158,1,8,0:0:0:0:
275,238,206301,1,8,0:0:0:0:
335,183,206444,1,8,0:0:0:0:
412,208,206588,1,8,0:0:0:0:
396,129,206731,5,12,0:0:0:0:
375,120,206802,1,8,0:0:0:0:
353,111,206874,1,8,0:0:0:0:
331,102,206945,1,8,0:0:0:0:
309,95,207016,1,8,0:0:0:0:
260,30,207159,5,0,0:0:0:0:
181,49,207302,1,8,0:0:0:0:
181,49,207445,1,8,0:0:0:0:
150,123,207588,1,8,0:0:0:0:
72,105,207731,5,8,0:0:0:0:
150,123,207874,1,8,0:0:0:0:
150,123,208016,1,8,0:0:0:0:
182,198,208160,1,8,0:0:0:0:
340,196,208302,5,8,0:0:0:0:
261,180,208445,1,0,0:0:0:0:
182,198,208588,1,8,0:0:0:0:
191,218,208659,1,8,0:0:0:0:
204,235,208731,1,8,0:0:0:0:
222,247,208802,1,8,0:0:0:0:
243,255,208874,1,8,0:0:0:0:
265,258,208945,1,8,0:0:0:0:
286,253,209016,5,4,0:0:0:0:
297,272,209088,1,0,0:0:0:0:
305,292,209159,1,8,0:0:0:0:
314,312,209231,1,0,0:0:0:0:
322,332,209302,1,0,0:0:0:0:
403,319,209445,5,8,0:0:0:0:
457,258,209588,1,0,0:0:0:0:
457,258,209731,1,8,0:0:0:0:
376,246,209874,1,0,0:0:0:0:
424,181,210016,5,8,0:0:0:0:
343,169,210159,1,0,0:0:0:0:
343,169,210302,1,8,0:0:0:0:
392,104,210445,1,0,0:0:0:0:
311,93,210588,5,8,0:0:0:0:
265,160,210731,1,0,0:0:0:0:
265,160,210874,1,8,0:0:0:0:
293,235,211016,1,0,0:0:0:0:
284,315,211159,1,8,0:0:0:0:
204,313,211302,5,4,0:0:0:0:
193,293,211374,1,0,0:0:0:0:
182,273,211445,1,8,0:0:0:0:
170,253,211516,1,0,0:0:0:0:
158,233,211588,1,0,0:0:0:0:
86,296,211731,5,8,0:0:0:0:
61,219,211874,1,0,0:0:0:0:
61,219,212016,1,8,0:0:0:0:
88,142,212159,1,0,0:0:0:0:
65,65,212302,5,8,0:0:0:0:
89,142,212445,1,0,0:0:0:0:
89,142,212588,1,8,0:0:0:0:
159,181,212731,1,8,0:0:0:0:
167,182,212802,1,8,0:0:0:0:
175,183,212874,1,8,0:0:0:0:
183,184,212945,1,8,0:0:0:0:
194,208,213016,5,8,0:0:0:0:
202,209,213088,1,8,0:0:0:0:
210,210,213159,1,8,0:0:0:0:
218,211,213231,1,8,0:0:0:0:
229,235,213302,5,8,0:0:0:0:
237,236,213373,1,8,0:0:0:0:
245,237,213445,1,8,0:0:0:0:
253,238,213516,1,8,0:0:0:0:
262,263,213588,6,0,B|338:269|338:269|354:243,1,90,4|8,0:0|0:0,0:0:0:0:
403,146,213874,1,0,0:0:0:0:
269,130,214016,1,8,0:0:0:0:
65,64,214159,6,0,B|80:111|80:111|108:147,1,90,0|8,0:0|0:0,0:0:0:0:
114,276,214445,1,0,0:0:0:0:
226,350,214588,1,8,0:0:0:0:
425,341,214731,6,0,B|381:317|381:317|337:263,1,90,0|8,0:0|0:0,0:0:0:0:
439,43,215016,1,0,0:0:0:0:
403,146,215159,1,8,0:0:0:0:
247,57,215302,6,0,B|196:56|196:56|146:76,1,90,0|8,0:0|0:0,0:0:0:0:
87,317,215587,1,0,0:0:0:0:
117,213,215730,1,8,0:0:0:0:
224,283,215874,5,0,0:0:0:0:
200,178,216016,1,8,0:0:0:0:
288,177,216159,1,0,0:0:0:0:
312,282,216301,1,8,0:0:0:0:
207,278,216445,5,0,0:0:0:0:
187,190,216587,1,8,0:0:0:0:
279,193,216731,1,0,0:0:0:0:
299,281,216873,1,8,0:0:0:0:
388,176,217016,6,0,B|366:167|366:167|346:93|256:100,1,135,4|0,0:0|2:0,0:0:0:0:
259,32,217302,2,0,B|225:52|218:79|218:79|176:73|186:16,1,135,4|0,0:0|2:0,0:0:0:0:
114,39,217588,2,0,B|116:72|124:88|124:88|106:143,1,90,4|0,0:0|2:0,0:0:0:0:
105,137,217802,1,8,0:0:0:0:
96,147,217874,2,0,L|91:207,3,45,8|8|8|8,0:0|0:0|0:0|0:0,0:0:0:0:
27,273,218159,5,4,0:0:0:0:
47,282,218231,1,0,0:0:0:0:
67,291,218302,1,8,0:0:0:0:
87,300,218374,1,0,0:0:0:0:
108,308,218445,1,0,0:0:0:0:
177,249,218588,5,8,0:0:0:0:
230,188,218731,1,0,0:0:0:0:
230,188,218874,1,8,0:0:0:0:
252,265,219016,1,0,0:0:0:0:
280,93,219159,5,8,0:0:0:0:
324,161,219302,1,0,0:0:0:0:
324,161,219445,1,8,0:0:0:0:
359,88,219588,5,0,0:0:0:0:
400,157,219731,1,8,0:0:0:0:
436,86,219874,1,0,0:0:0:0:
367,231,220016,1,8,0:0:0:0:
396,16,220159,1,0,0:0:0:0:
448,229,220302,1,8,0:0:0:0:
371,330,220445,5,0,0:0:0:0:
372,334,220516,1,0,0:0:0:0:
374,337,220588,2,0,L|417:355,2,45,8|0|0,0:0|0:0|0:0,0:0:0:0:
280,344,220874,5,8,0:0:0:0:
225,284,221016,1,0,0:0:0:0:
225,284,221159,1,8,0:0:0:0:
249,206,221302,1,0,0:0:0:0:
204,138,221445,5,8,0:0:0:0:
249,206,221588,2,0,P|289:238|267:187,1,135,4|0,0:0|2:0,0:0:0:0:
204,138,221874,5,0,0:0:0:0:
295,107,222016,1,8,0:0:0:0:
364,148,222159,2,0,L|416:188,1,45,8|8,0:0|0:0,0:0:0:0:
224,64,222302,2,0,L|188:36,1,45
346,229,222445,1,12,0:0:0:0:
294,24,222588,1,0,0:0:0:0:
440,27,222731,6,0,L|452:127,1,90,8|8,0:0|0:0,0:0:0:0:
460,205,223016,1,8,0:0:0:0:
470,294,223159,1,8,0:0:0:0:
346,229,223302,5,8,0:0:0:0:
371,315,223445,1,8,0:0:0:0:
239,248,223588,1,8,0:0:0:0:
264,334,223731,1,8,0:0:0:0:
173,139,223874,5,8,0:0:0:0:
273,101,224016,1,8,0:0:0:0:
203,70,224159,1,8,0:0:0:0:
242,169,224301,1,8,0:0:0:0:
273,101,224445,5,8,0:0:0:0:
373,63,224587,1,8,0:0:0:0:
303,32,224730,1,8,0:0:0:0:
342,131,224874,1,8,0:0:0:0:
459,136,225016,5,8,0:0:0:0:
476,224,225159,1,8,0:0:0:0:
407,324,225302,1,8,0:0:0:0:
390,236,225445,1,8,0:0:0:0:
299,292,225588,5,8,0:0:0:0:
229,333,225731,1,8,0:0:0:0:
155,210,225874,1,8,0:0:0:0:
225,251,226017,1,8,0:0:0:0:
295,194,226159,6,0,B|292:159|292:159|326:103|271:49,1,135,12|0,0:0|2:0,0:0:0:0:
234,116,226445,2,0,B|207:88|217:44|217:44|189:33|189:33|135:42,1,135,6|0,0:0|2:0,0:0:0:0:
86,53,226731,2,0,B|49:61|49:61|31:90|31:90|45:126|50:163,1,135,4|0,0:0|2:0,0:0:0:0:
51,167,227016,1,8,0:0:0:0:
51,180,227088,2,0,P|57:209|68:240,2,45,8|8|8,0:0|0:0|0:0,0:0:0:0:
131,125,227302,5,0,0:0:0:0:
137,147,227374,1,0,0:0:0:0:
143,168,227445,1,8,0:0:0:0:
150,189,227516,1,0,0:0:0:0:
156,208,227588,1,0,0:0:0:0:
248,252,227731,1,8,0:0:0:0:
328,371,227874,1,2,0:0:0:0:
335,228,228016,1,8,0:0:0:0:
407,263,228159,1,0,0:0:0:0:
403,344,228302,1,8,0:0:0:0:
400,167,228445,5,0,0:0:0:0:
386,149,228517,1,0,0:0:0:0:
374,131,228588,1,8,0:0:0:0:
360,113,228659,1,0,0:0:0:0:
347,95,228731,1,0,0:0:0:0:
266,98,228874,1,8,0:0:0:0:
144,23,229016,1,2,0:0:0:0:
201,155,229159,1,8,0:0:0:0:
120,159,229302,1,0,0:0:0:0:
84,86,229445,1,8,0:0:0:0:
168,248,229588,5,4,0:0:0:0:
164,268,229660,1,0,0:0:0:0:
160,290,229731,1,8,0:0:0:0:
156,311,229802,1,0,0:0:0:0:
152,333,229874,1,0,0:0:0:0:
243,344,230016,1,8,0:0:0:0:
284,206,230159,1,2,0:0:0:0:
328,343,230302,1,8,0:0:0:0:
394,296,230445,1,0,0:0:0:0:
367,219,230588,1,8,0:0:0:0:
240,83,230731,5,6,0:0:0:0:
98,108,230874,1,8,0:0:0:0:
56,38,231016,1,0,0:0:0:0:
136,25,231159,1,8,0:0:0:0:
54,318,231302,5,6,0:0:0:0:
154,215,231445,1,8,0:0:0:0:
234,226,231588,2,0,L|281:197,1,45,8|8,0:0|0:0,0:0:0:0:
181,292,231731,2,0,L|204:336,1,45,8|8,0:0|0:0,0:0:0:0:
282,292,231874,6,0,L|332:276,1,45,6|0,0:0|0:0,0:0:0:0:
396,212,232016,1,8,0:0:0:0:
376,193,232088,1,0,0:0:0:0:
360,171,232159,1,0,0:0:0:0:
346,147,232231,1,0,0:0:0:0:
337,121,232302,1,8,0:0:0:0:
338,93,232374,1,0,0:0:0:0:
348,68,232445,6,0,P|361:52|384:33,1,45,6|0,0:0|0:0,0:0:0:0:
231,51,232588,1,8,0:0:0:0:
212,70,232659,1,0,0:0:0:0:
189,84,232731,1,0,0:0:0:0:
165,97,232802,1,0,0:0:0:0:
141,110,232874,1,8,0:0:0:0:
115,119,232945,1,0,0:0:0:0:
89,125,233016,6,0,P|62:125|37:119,1,45,6|0,0:0|0:0,0:0:0:0:
54,211,233159,1,8,0:0:0:0:
61,235,233231,1,0,0:0:0:0:
74,261,233302,1,0,0:0:0:0:
90,283,233374,1,0,0:0:0:0:
110,299,233445,1,8,0:0:0:0:
137,309,233516,1,0,0:0:0:0:
163,313,233588,6,0,P|189:309|215:297,1,45,6|0,0:0|0:0,0:0:0:0:
167,200,233731,1,8,0:0:0:0:
195,192,233802,1,0,0:0:0:0:
223,189,233874,1,0,0:0:0:0:
248,190,233945,1,0,0:0:0:0:
274,190,234016,1,8,0:0:0:0:
303,193,234088,1,0,0:0:0:0:
329,200,234159,6,0,P|353:214|371:235,1,45,6|0,0:0|0:0,0:0:0:0:
388,340,234302,1,8,0:0:0:0:
422,327,234374,1,0,0:0:0:0:
449,304,234445,1,0,0:0:0:0:
466,272,234516,1,0,0:0:0:0:
477,237,234588,1,8,0:0:0:0:
471,201,234659,1,0,0:0:0:0:
458,166,234731,6,0,P|441:144|407:119,1,45,6|0,0:0|0:0,0:0:0:0:
361,61,234874,1,8,0:0:0:0:
327,73,234945,1,0,0:0:0:0:
291,78,235016,1,0,0:0:0:0:
254,77,235088,1,0,0:0:0:0:
218,72,235159,1,8,0:0:0:0:
182,78,235231,1,0,0:0:0:0:
149,92,235302,6,0,P|133:108|121:128,1,45,6|0,0:0|0:0,0:0:0:0:
53,58,235445,1,8,0:0:0:0:
30,86,235516,1,0,0:0:0:0:
21,121,235588,1,0,0:0:0:0:
24,156,235659,1,0,0:0:0:0:
41,187,235731,1,8,0:0:0:0:
68,210,235802,1,0,0:0:0:0:
102,222,235874,6,0,P|129:224|151:219,1,45,6|0,0:0|0:0,0:0:0:0:
204,158,236016,1,8,0:0:0:0:
224,188,236088,1,0,0:0:0:0:
230,223,236159,1,0,0:0:0:0:
222,258,236231,1,0,0:0:0:0:
201,286,236302,1,8,0:0:0:0:
169,304,236374,1,0,0:0:0:0:
133,308,236445,6,0,P|109:307|89:299,1,45,6|0,0:0|0:0,0:0:0:0:
247,348,236588,1,8,0:0:0:0:
289,332,236659,1,0,0:0:0:0:
334,333,236731,1,0,0:0:0:0:
377,343,236802,1,0,0:0:0:0:
422,344,236874,1,8,0:0:0:0:
463,326,236945,1,0,0:0:0:0:
489,289,237016,6,0,P|495:261|491:234,1,45,6|0,0:0|0:0,0:0:0:0:
403,249,237159,1,8,0:0:0:0:
380,209,237231,1,0,0:0:0:0:
382,164,237302,1,0,0:0:0:0:
405,125,237374,1,0,0:0:0:0:
405,80,237445,1,8,0:0:0:0:
377,44,237516,1,0,0:0:0:0:
336,24,237588,6,0,P|306:16|279:26,1,45,6|0,0:0|0:0,0:0:0:0:
312,109,237731,1,8,0:0:0:0:
273,130,237802,1,0,0:0:0:0:
227,131,237874,1,0,0:0:0:0:
183,122,237945,1,0,0:0:0:0:
138,122,238016,1,8,0:0:0:0:
95,138,238088,1,0,0:0:0:0:
59,165,238159,6,0,P|37:189|31:215,1,45,6|0,0:0|0:0,0:0:0:0:
21,316,238302,1,8,0:0:0:0:
63,301,238374,1,0,0:0:0:0:
106,309,238445,1,0,0:0:0:0:
144,332,238516,1,0,0:0:0:0:
187,346,238588,1,8,0:0:0:0:
231,340,238659,1,0,0:0:0:0:
273,323,238731,6,0,P|294:318|323:325,1,45,6|0,0:0|0:0,0:0:0:0:
449,336,238874,1,8,0:0:0:0:
426,307,238945,1,0,0:0:0:0:
408,276,239016,1,0,0:0:0:0:
399,240,239088,1,0,0:0:0:0:
401,203,239159,1,8,0:0:0:0:
414,170,239231,1,0,0:0:0:0:
434,140,239302,6,0,P|451:125|477:114,1,45,6|0,0:0|0:0,0:0:0:0:
316,37,239445,1,8,0:0:0:0:
328,70,239516,1,0,0:0:0:0:
332,105,239588,1,0,0:0:0:0:
334,140,239659,1,0,0:0:0:0:
326,175,239731,1,8,0:0:0:0:
319,210,239802,1,0,0:0:0:0:
306,244,239874,6,0,P|304:276|309:304,1,45,6|0,0:0|0:0,0:0:0:0:
235,337,240016,1,8,0:0:0:0:
212,309,240088,1,0,0:0:0:0:
174,306,240159,1,0,0:0:0:0:
138,296,240231,1,0,0:0:0:0:
111,271,240302,1,8,0:0:0:0:
93,239,240374,1,0,0:0:0:0:
91,203,240445,6,0,B|98:156|98:156|125:128|125:128|136:69,1,135,4|0,0:0|2:0,0:0:0:0:
202,96,240731,2,0,B|189:162|189:162|164:188|164:188|217:215,1,135,4|0,0:0|2:0,0:0:0:0:
307,248,241016,5,12,0:0:0:0:
379,328,241159,1,8,0:0:0:0:
409,224,241302,1,8,0:0:0:0:
481,144,241445,1,8,0:0:0:0:
373,129,241588,1,8,0:0:0:0:
301,49,241731,1,8,0:0:0:0:
263,150,241874,1,8,0:0:0:0:
191,230,242017,1,8,0:0:0:0:
156,36,242159,5,8,0:0:0:0:
146,143,242302,1,8,0:0:0:0:
50,93,242445,1,8,0:0:0:0:
40,200,242588,1,8,0:0:0:0:
130,258,242731,1,8,0:0:0:0:
236,268,242874,1,8,0:0:0:0:
164,348,243016,1,8,0:0:0:0:
270,358,243159,1,8,0:0:0:0:
482,305,243302,5,0,0:0:0:0:
385,256,243445,1,0,0:0:0:0:
473,193,243588,1,0,0:0:0:0:
376,144,243731,1,0,0:0:0:0:
287,206,243874,1,0,0:0:0:0:
278,94,244016,1,0,0:0:0:0:
371,38,244160,1,0,0:0:0:0:
468,87,244302,1,0,0:0:0:0:
385,256,244445,5,0,0:0:0:0:
287,206,244588,1,0,0:0:0:0:
376,144,244731,1,0,0:0:0:0:
474,193,244874,1,0,0:0:0:0:
493,299,245017,1,0,0:0:0:0:
385,256,245159,1,0,0:0:0:0:
393,363,245302,1,0,0:0:0:0:
376,144,245445,1,0,0:0:0:0:
303,226,245588,5,12,0:0:0:0:
295,251,245659,1,0,0:0:0:0:
278,272,245731,1,8,0:0:0:0:
256,287,245802,1,0,0:0:0:0:
230,296,245874,1,8,0:0:0:0:
203,298,245945,1,0,0:0:0:0:
176,291,246016,1,8,0:0:0:0:
157,271,246088,1,0,0:0:0:0:
134,243,246159,5,8,0:0:0:0:
162,220,246231,1,0,0:0:0:0:
179,188,246302,1,8,0:0:0:0:
169,152,246374,1,0,0:0:0:0:
131,127,246445,5,8,0:0:0:0:
128,82,246516,1,0,0:0:0:0:
156,47,246588,1,8,0:0:0:0:
200,45,246659,1,0,0:0:0:0:
236,85,246731,5,8,0:0:0:0:
226,137,246802,1,0,0:0:0:0:
264,175,246874,1,8,0:0:0:0:
274,227,246945,1,0,0:0:0:0:
307,269,247016,6,0,B|316:297|316:297|319:329,1,45,8|0,0:0|0:0,0:0:0:0:
446,200,247159,2,0,B|436:171|436:171|434:140,1,45,8|0,0:0|0:0,0:0:0:0:
406,344,247302,5,8,0:0:0:0:
405,348,247374,1,0,0:0:0:0:
403,352,247445,1,8,0:0:0:0:
401,356,247516,1,0,0:0:0:0:
398,358,247588,6,0,B|320:364|320:364|259:360,1,135,10|0,0:0|2:0,0:0:0:0:
193,355,247874,6,0,B|161:350|161:350|109:292,1,90,4|8,0:0|0:0,0:0:0:0:
104,286,248088,1,0,0:0:0:0:
87,264,248159,1,0,0:0:0:0:
264,285,248302,1,8,0:0:0:0:
249,264,248373,1,0,0:0:0:0:
232,242,248445,2,0,L|180:166,1,90,4|8,0:0|0:0,0:0:0:0:
166,145,248659,1,0,0:0:0:0:
150,123,248730,1,0,0:0:0:0:
311,39,248874,1,8,0:0:0:0:
335,49,248945,1,0,0:0:0:0:
360,61,249016,6,0,B|394:81|394:81|424:125,1,90,4|8,0:0|0:0,0:0:0:0:
439,144,249231,1,0,0:0:0:0:
453,166,249302,1,0,0:0:0:0:
415,343,249445,1,8,0:0:0:0:
401,321,249516,1,0,0:0:0:0:
384,299,249588,2,0,L|332:223,1,90,4|8,0:0|0:0,0:0:0:0:
318,202,249802,1,0,0:0:0:0:
301,180,249873,1,0,0:0:0:0:
29,54,250016,1,8,0:0:0:0:
9,94,250087,1,0,0:0:0:0:
23,146,250159,5,4,0:0:0:0:
256,192,250231,12,0,253874,2:0:0:0:
72,48,254159,5,8,0:0:0:0:
104,76,254231,1,8,0:0:0:0:
116,112,254302,2,0,L|133:169,1,45
33,127,254445,6,0,B|49:178|49:178|57:253,1,101.250003862381,0|0,0:0|2:0,0:0:0:0:
34,319,254731,6,0,B|73:294|73:294|118:291|118:291|191:243,1,168.75,4|0,0:0|2:0,0:0:0:0:
203,341,255016,1,0,0:0:0:0:
275,287,255159,1,0,0:0:0:0:
193,249,255302,1,8,0:0:0:0:
269,295,255445,1,0,0:0:0:0:
264,205,255588,1,0,0:0:0:0:
348,237,255731,1,0,0:0:0:0:
334,147,255874,1,0,0:0:0:0:
257,192,256016,1,0,0:0:0:0:
251,179,256088,1,0,0:0:0:0:
246,166,256159,6,0,P|194:161|155:134,1,90
105,211,256445,1,8,0:0:0:0:
31,262,256588,1,0,0:0:0:0:
27,275,256660,1,0,0:0:0:0:
23,289,256731,2,0,P|60:325|73:371,1,90
151,316,257016,1,0,0:0:0:0:
194,328,257088,1,0,0:0:0:0:
238,330,257159,1,0,0:0:0:0:
283,324,257231,1,0,0:0:0:0:
324,307,257302,2,0,B|346:282|346:282|369:273|369:273|388:245,1,90
442,174,257588,5,8,0:0:0:0:
407,162,257659,1,0,0:0:0:0:
370,166,257731,1,0,0:0:0:0:
396,251,257874,1,0,0:0:0:0:
483,271,258016,1,0,0:0:0:0:
417,332,258159,1,0,0:0:0:0:
367,155,258302,1,0,0:0:0:0:
438,97,258445,5,0,0:0:0:0:
190,185,258588,1,0,0:0:0:0:
447,108,258731,2,0,L|468:57,1,45,8|0,0:0|0:0,0:0:0:0:
281,53,258874,2,0,L|263:94,1,45
184,196,259016,6,0,B|128:202|128:202|68:224,1,101.250003862381,0|0,0:0|2:0,0:0:0:0:
78,229,259302,6,0,B|7:253|7:253|44:289|110:292,1,168.75,4|0,0:0|2:0,0:0:0:0:
220,364,259588,1,0,0:0:0:0:
203,275,259731,1,0,0:0:0:0:
288,304,259874,1,8,0:0:0:0:
270,216,260016,1,0,0:0:0:0:
134,349,260159,1,0,0:0:0:0:
312,384,260302,1,0,0:0:0:0:
280,204,260445,1,0,0:0:0:0:
222,135,260588,1,0,0:0:0:0:
234,129,260659,1,0,0:0:0:0:
246,124,260731,6,0,B|292:123|292:123|363:102,1,90
262,227,261016,1,8,0:0:0:0:
381,219,261159,1,0,0:0:0:0:
390,228,261230,1,0,0:0:0:0:
399,237,261302,2,0,B|415:279|415:279|459:339,1,90
330,309,261588,1,0,0:0:0:0:
287,323,261659,1,0,0:0:0:0:
241,319,261731,1,0,0:0:0:0:
199,302,261802,1,0,0:0:0:0:
166,269,261874,2,0,B|122:282|122:282|78:304,1,90
76,112,262159,5,8,0:0:0:0:
68,92,262230,1,0,0:0:0:0:
60,72,262302,1,0,0:0:0:0:
158,51,262445,2,0,B|194:77|194:77|227:114,1,90,4|0,0:0|0:0,0:0:0:0:
166,269,262731,1,0,0:0:0:0:
287,323,262874,1,0,0:0:0:0:
245,133,263016,1,8,0:0:0:0:
178,363,263159,1,0,0:0:0:0:
249,115,263302,6,0,B|303:118|351:165,1,101.250003862381,8|0,0:0|2:0,0:0:0:0:
431,242,263588,2,0,B|449:295|497:322,1,101.250003862381,0|0,0:0|2:0,0:0:0:0:
484,334,263874,6,0,B|440:310|424:270|424:270|360:258|300:306,1,202.500007724762,4|0,0:0|2:0,0:0:0:0:
178,363,264159,1,0,0:0:0:0:
74,336,264302,1,0,0:0:0:0:
35,215,264445,1,8,0:0:0:0:
259,360,264588,1,0,0:0:0:0:
106,261,264731,1,0,0:0:0:0:
143,130,264874,1,0,0:0:0:0:
302,222,265016,1,0,0:0:0:0:
216,172,265159,1,0,0:0:0:0:
208,208,265231,1,0,0:0:0:0:
204,244,265302,6,0,B|211:294|211:294|234:341,1,90
74,337,265588,1,8,0:0:0:0:
106,260,265731,1,0,0:0:0:0:
100,224,265802,1,0,0:0:0:0:
81,192,265874,2,0,B|62:152|62:152|60:72,1,90
216,172,266159,1,0,0:0:0:0:
208,208,266231,1,0,0:0:0:0:
204,244,266302,1,0,0:0:0:0:
208,280,266374,1,0,0:0:0:0:
220,312,266445,2,0,B|175:327|175:327|104:326,1,90
436,272,266731,5,8,0:0:0:0:
408,292,266803,1,0,0:0:0:0:
384,320,266874,1,0,0:0:0:0:
316,260,267016,1,0,0:0:0:0:
292,172,267159,1,0,0:0:0:0:
304,84,267302,1,0,0:0:0:0:
368,20,267445,1,0,0:0:0:0:
372,18,267516,1,0,0:0:0:0:
376,16,267588,1,0,0:0:0:0:
292,172,267731,6,0,L|224:212,1,45,8|0,0:0|0:0,0:0:0:0:
100,152,267874,2,0,L|138:129,1,45,8|0,0:0|0:0,0:0:0:0:
140,320,268016,1,0,0:0:0:0:
176,332,268088,1,0,0:0:0:0:
212,336,268159,6,0,B|256:308|256:308|321:288,1,101.250003862381,8|0,0:0|2:0,0:0:0:0:
298,308,268445,6,0,B|358:288|358:288|381:255|381:255|450:233,1,168.75,4|0,0:0|2:0,0:0:0:0:
373,197,268731,1,0,0:0:0:0:
352,104,268874,1,0,0:0:0:0:
293,172,269016,1,8,0:0:0:0:
432,131,269159,1,0,0:0:0:0:
268,91,269302,1,0,0:0:0:0:
266,87,269374,1,0,0:0:0:0:
264,83,269445,1,0,0:0:0:0:
100,72,269588,1,0,0:0:0:0:
56,248,269731,1,0,0:0:0:0:
140,56,269874,6,0,L|172:168,1,90
224,24,270159,1,8,0:0:0:0:
48,256,270302,1,0,0:0:0:0:
184,40,270445,2,0,L|216:152,1,90
40,264,270731,1,0,0:0:0:0:
208,332,270874,1,0,0:0:0:0:
376,272,271016,2,0,L|344:160,1,90
184,40,271302,6,0,B|172:84|172:84|134:145,1,90,8|0,0:0|0:0,0:0:0:0:
192,216,271588,1,0,0:0:0:0:
260,272,271731,1,0,0:0:0:0:
272,184,271874,1,0,0:0:0:0:
269,180,271945,1,0,0:0:0:0:
266,176,272016,1,0,0:0:0:0:
324,112,272159,1,0,0:0:0:0:
360,192,272302,1,0,0:0:0:0:
444,164,272445,6,0,B|476:208|456:220|456:220|420:240|419:279,1,135,0|0,0:0|2:0,0:0:0:0:
488,281,272731,2,0,P|421:347|367:326,1,135,0|0,0:0|2:0,0:0:0:0:
344,274,273016,6,0,B|303:305|311:351|311:351|262:311|190:338,1,180,4|8,0:0|0:0,0:0:0:0:
222,331,273374,1,0,0:0:0:0:
219,334,273445,1,0,0:0:0:0:
85,278,273588,1,0,0:0:0:0:
82,281,273659,1,0,0:0:0:0:
79,285,273731,1,0,0:0:0:0:
168,172,273874,1,8,0:0:0:0:
167,167,273945,1,0,0:0:0:0:
165,162,274017,1,0,0:0:0:0:
106,52,274159,6,0,B|184:74|184:74|315:85,1,180,0|8,0:0|0:0,0:0:0:0:
290,168,274516,1,0,0:0:0:0:
317,203,274588,1,0,0:0:0:0:
355,226,274659,1,0,0:0:0:0:
405,246,274731,6,0,B|440:255|477:253|477:253|438:319|377:303|377:303|318:318,1,215.999993408203,0|8,0:0|0:0,0:0:0:0:
281,373,275088,5,0,0:0:0:0:
240,337,275159,1,0,0:0:0:0:
186,329,275231,1,0,0:0:0:0:
135,348,275302,2,0,B|82:272|82:272|45:166,1,180,0|8,0:0|0:0,0:0:0:0:
38,146,275659,1,0,0:0:0:0:
23,102,275731,1,0,0:0:0:0:
143,28,275874,1,0,0:0:0:0:
144,74,275945,1,0,0:0:0:0:
146,120,276016,1,0,0:0:0:0:
237,215,276159,1,8,0:0:0:0:
249,172,276230,1,0,0:0:0:0:
233,129,276301,1,0,0:0:0:0:
248,18,276445,5,0,0:0:0:0:
289,35,276516,1,0,0:0:0:0:
333,37,276587,1,0,0:0:0:0:
432,124,276731,1,0,0:0:0:0:
452,164,276802,1,0,0:0:0:0:
420,196,276874,1,0,0:0:0:0:
379,175,276945,1,0,0:0:0:0:
387,131,277016,2,0,B|346:186|346:186|313:265,1,135,0|0,0:0|2:0,0:0:0:0:
367,305,277302,2,0,B|327:332|283:313|283:313|215:321,1,135,8|0,0:0|2:0,0:0:0:0:
157,367,277588,6,0,B|124:276|197:238|197:238|157:226,1,180,0|8,0:0|0:0,0:0:0:0:
125,215,277945,1,0,0:0:0:0:
82,202,278016,1,0,0:0:0:0:
122,114,278159,1,0,0:0:0:0:
117,68,278231,1,0,0:0:0:0:
130,25,278302,1,0,0:0:0:0:
234,72,278445,1,8,0:0:0:0:
278,80,278516,1,0,0:0:0:0:
322,76,278588,1,0,0:0:0:0:
396,20,278731,6,0,B|428:64|408:112|408:112|443:143|426:200,1,180,0|8,0:0|0:0,0:0:0:0:
348,176,279088,1,0,0:0:0:0:
315,206,279159,1,0,0:0:0:0:
281,236,279231,1,0,0:0:0:0:
254,270,279302,6,0,B|160:274|160:274|33:248,1,215.999993408203,0|8,0:0|0:0,0:0:0:0:
83,175,279659,5,0,0:0:0:0:
50,131,279731,1,0,0:0:0:0:
63,79,279802,1,0,0:0:0:0:
116,67,279874,2,0,B|172:79|202:58|202:58|241:35|297:57,1,180,0|8,0:0|0:0,0:0:0:0:
326,81,280231,1,0,0:0:0:0:
350,118,280302,1,0,0:0:0:0:
446,130,280445,1,0,0:0:0:0:
436,174,280517,1,0,0:0:0:0:
406,207,280588,1,0,0:0:0:0:
481,255,280731,6,0,P|439:295|372:287,1,101.250003862381,8|0,0:0|2:0,0:0:0:0:
324,265,281016,2,0,B|277:223|207:263,1,101.250003862381,0|0,0:0|2:0,0:0:0:0:
184,321,281302,2,0,B|143:362|63:342,1,101.250003862381,8|0,0:0|2:0,0:0:0:0:
26,296,281588,2,0,B|-1:245|27:184,1,101.250003862381,0|0,0:0|2:0,0:0:0:0:
47,120,281874,2,0,P|64:66|31:0,1,101.250003862381,8|0,0:0|2:0,0:0:0:0:
129,23,282159,6,0,B|139:60|135:85|135:85|195:47|268:85,1,180,0|8,0:0|0:0,0:0:0:0:
288,94,282516,1,0,0:0:0:0:
325,120,282588,1,0,0:0:0:0:
376,32,282731,1,0,0:0:0:0:
417,48,282802,1,0,0:0:0:0:
462,48,282874,1,0,0:0:0:0:
479,154,283016,1,8,0:0:0:0:
462,195,283087,1,0,0:0:0:0:
432,229,283159,1,0,0:0:0:0:
428,318,283302,6,0,B|370:314|348:255|348:255|312:278|316:323,1,180,0|8,0:0|0:0,0:0:0:0:
222,328,283659,1,0,0:0:0:0:
193,292,283731,1,0,0:0:0:0:
150,277,283802,1,0,0:0:0:0:
106,283,283874,6,0,B|120:193|120:193|155:154|155:154|171:78,1,215.999993408203,0|8,0:0|0:0,0:0:0:0:
254,131,284231,5,0,0:0:0:0:
276,77,284302,1,0,0:0:0:0:
330,54,284374,1,0,0:0:0:0:
388,56,284445,2,0,B|398:117|398:117|388:171|388:171|399:238,1,180,0|8,0:0|0:0,0:0:0:0:
353,228,284802,1,0,0:0:0:0:
307,223,284874,1,0,0:0:0:0:
232,346,285016,1,0,0:0:0:0:
277,339,285088,1,0,0:0:0:0:
321,333,285159,1,0,0:0:0:0:
441,364,285302,1,8,0:0:0:0:
447,319,285374,1,0,0:0:0:0:
452,275,285445,1,0,0:0:0:0:
461,150,285588,5,0,0:0:0:0:
419,131,285660,1,0,0:0:0:0:
379,113,285731,1,0,0:0:0:0:
338,95,285802,1,0,0:0:0:0:
295,77,285874,2,0,B|233:54|233:54|219:94|152:99,1,135,8|0,0:0|2:0,0:0:0:0:
164,21,286159,2,0,B|108:35|104:95|104:95|61:56,1,135,0|0,0:0|2:0,0:0:0:0:
153,160,286445,2,0,B|127:201|127:201|143:243|143:243|114:285,1,135,8|0,0:0|2:0,0:0:0:0:
246,335,286731,6,0,P|320:347|421:302,1,180,0|8,0:0|0:0,0:0:0:0:
443,272,287088,1,0,0:0:0:0:
461,231,287159,1,0,0:0:0:0:
420,132,287302,1,0,0:0:0:0:
382,157,287374,1,0,0:0:0:0:
362,197,287445,1,0,0:0:0:0:
338,83,287588,1,8,0:0:0:0:
317,43,287659,1,0,0:0:0:0:
279,17,287731,1,0,0:0:0:0:
242,101,287874,6,0,B|179:164|179:164|125:239,1,180,0|8,0:0|0:0,0:0:0:0:
36,190,288231,1,0,0:0:0:0:
20,232,288302,1,0,0:0:0:0:
23,277,288374,1,0,0:0:0:0:
43,314,288445,6,0,B|118:323|118:323|169:306|169:306|273:317,1,215.999993408203,0|8,0:0|0:0,0:0:0:0:
341,270,288802,5,0,0:0:0:0:
392,286,288874,1,0,0:0:0:0:
431,322,288945,1,0,0:0:0:0:
458,368,289016,2,0,L|492:175,1,180,0|8,0:0|0:0,0:0:0:0:
456,158,289374,1,0,0:0:0:0:
424,126,289445,1,0,0:0:0:0:
391,39,289588,1,0,0:0:0:0:
351,60,289659,1,0,0:0:0:0:
327,98,289730,1,0,0:0:0:0:
263,37,289874,6,0,B|218:43|218:43|200:78|147:83,1,101.250003862381,8|0,0:0|2:0,0:0:0:0:
93,78,290159,2,0,P|58:99|43:162,1,101.250003862381,0|0,0:0|2:0,0:0:0:0:
122,171,290445,2,0,B|123:231|45:243,1,101.250003862381,0|0,0:0|2:0,0:0:0:0:
112,306,290731,2,0,B|149:296|173:309|173:309|231:308,1,101.250003862381,0|0,0:0|2:0,0:0:0:0:
295,300,291016,2,0,B|339:252|404:252,1,101.250003862381,0|0,0:0|2:0,0:0:0:0:
414,177,291302,6,0,B|455:115|394:46|394:46|405:110|383:152|333:199|268:160,1,360,4|8,0:0|0:0,0:0:0:0:
84,167,293016,6,0,B|147:209|194:169|194:169|260:155|304:210|304:210|253:204|181:223,1,360,4|8,0:0|0:0,0:0:0:0:
410,79,294731,6,0,B|356:135|271:107|271:107|261:148|229:166|229:166|144:150|99:211,1,360,4|0,0:0|0:0,0:0:0:0:
74,78,296159,5,8,0:0:0:0:
76,81,296302,1,8,0:0:0:0:
77,85,296445,2,0,B|149:51|201:95|201:95|113:93|84:158,1,270,8|0,0:0|0:0,0:0:0:0:
85,158,297445,1,0,0:0:0:0:
82,161,297588,2,0,P|76:198|89:236,1,67.5,8|0,0:0|2:0,0:0:0:0:
86,229,297874,6,0,P|128:276|200:282,1,135,0|0,0:0|2:0,0:0:0:0:
198,282,298159,6,0,B|234:263|274:284|274:284|276:226|217:222|217:222|193:241|153:112|241:104|251:202,1,360,4|8,0:0|0:0,0:0:0:0:
251,203,299874,6,0,B|205:171|216:127|216:127|282:138|294:190|294:190|377:153|447:226,1,360,4|8,0:0|0:0,0:0:0:0:
448,228,301302,1,4,0:0:0:0:
393,379,301588,5,4,0:0:0:0:
401,371,301659,1,0,0:0:0:0:
408,361,301731,1,0,0:0:0:0:
413,350,301802,1,0,0:0:0:0:
416,338,301874,1,0,0:0:0:0:
418,326,301945,1,0,0:0:0:0:
416,315,302016,1,0,0:0:0:0:
413,304,302088,1,0,0:0:0:0:
407,294,302159,2,0,P|393:283|377:276,7,22.5
296,316,302731,5,8,0:0:0:0:
290,306,302802,1,0,0:0:0:0:
285,295,302874,1,0,0:0:0:0:
281,284,302945,1,0,0:0:0:0:
280,272,303016,1,0,0:0:0:0:
281,260,303088,1,0,0:0:0:0:
283,249,303159,1,0,0:0:0:0:
287,238,303231,1,0,0:0:0:0:
291,227,303302,2,0,P|305:215|327:208,7,22.5,4|0|0|0|0|0|0|0,0:0|0:0|0:0|0:0|0:0|0:0|0:0|0:0,0:0:0:0:
414,172,303874,6,0,P|394:184|375:184,7,22.5,2|0|0|0|0|0|0|0,0:0|0:0|0:0|0:0|0:0|0:0|0:0|0:0,0:0:0:0:
309,128,304445,6,0,P|289:116|270:116,7,22.5,8|0|0|0|0|0|0|0,0:0|0:0|0:0|0:0|0:0|0:0|0:0|0:0,0:0:0:0:
189,69,305016,5,4,0:0:0:0:
180,76,305088,1,0,0:0:0:0:
172,84,305159,1,0,0:0:0:0:
165,93,305231,1,0,0:0:0:0:
160,103,305302,1,0,0:0:0:0:
157,113,305374,1,0,0:0:0:0:
156,124,305445,1,0,0:0:0:0:
157,135,305516,1,0,0:0:0:0:
160,145,305588,2,0,P|167:160|183:175,7,22.5
275,305,306159,5,8,0:0:0:0:
284,299,306231,1,0,0:0:0:0:
294,295,306302,1,0,0:0:0:0:
305,293,306374,1,0,0:0:0:0:
316,294,306445,1,8,0:0:0:0:
310,272,306516,1,8,0:0:0:0:
312,249,306588,1,8,0:0:0:0:
322,229,306659,1,8,0:0:0:0:
339,214,306731,2,0,P|349:204|377:199,7,22.5,8|0|0|0|0|0|0|0,0:0|0:0|0:0|0:0|0:0|0:0|0:0|0:0,0:0:0:0:
368,198,307302,5,0,0:0:0:0:
377,192,307374,1,0,0:0:0:0:
382,182,307445,1,0,0:0:0:0:
387,172,307516,1,0,0:0:0:0:
390,161,307588,1,0,0:0:0:0:
391,149,307659,1,0,0:0:0:0:
389,137,307731,1,0,0:0:0:0:
384,126,307802,1,0,0:0:0:0:
377,116,307874,1,8,0:0:0:0:
220,29,308088,5,0,0:0:0:0:
190,22,308159,1,0,0:0:0:0:
158,24,308231,1,0,0:0:0:0:
128,34,308302,1,0,0:0:0:0:
102,53,308374,1,0,0:0:0:0:
83,77,308445,5,0,0:0:0:0:
72,106,308516,1,8,0:0:0:0:
79,287,308659,1,8,0:0:0:0:
184,141,308802,1,8,0:0:0:0:
199,320,308945,1,8,0:0:0:0:
362,245,309088,5,8,0:0:0:0:
204,330,309230,1,8,0:0:0:0:
191,150,309373,1,8,0:0:0:0:
67,281,309516,1,8,0:0:0:0:
211,341,309659,5,8,0:0:0:0:
371,258,309802,1,8,0:0:0:0:
489,122,309945,1,8,0:0:0:0:
321,55,310088,1,8,0:0:0:0:
318,61,310159,6,0,B|272:34|238:46|238:46|214:20|179:21,1,135,0|8,0:0|0:0,0:0:0:0:
20,91,310516,1,8,0:0:0:0:
189,211,310659,1,8,0:0:0:0:
385,273,310802,5,8,0:0:0:0:
189,326,310945,1,8,0:0:0:0:
110,136,311088,1,8,0:0:0:0:
313,69,311231,1,8,0:0:0:0:
180,224,311374,5,8,0:0:0:0:
324,368,311516,1,8,0:0:0:0:
364,184,311659,1,8,0:0:0:0:
367,181,311731,1,0,0:0:0:0:
370,178,311802,1,8,0:0:0:0:
373,176,311874,6,0,P|413:126|396:41,1,135,0|8,0:0|0:0,0:0:0:0:
227,72,312231,1,8,0:0:0:0:
47,85,312374,1,8,0:0:0:0:
169,214,312516,5,8,0:0:0:0:
300,337,312659,1,8,0:0:0:0:
124,296,312802,1,8,0:0:0:0:
299,256,312945,1,8,0:0:0:0:
359,86,313088,5,8,0:0:0:0:
464,230,313230,1,8,0:0:0:0:
288,270,313373,1,8,0:0:0:0:
188,105,313516,1,8,0:0:0:0:
185,110,313588,6,0,P|124:133|88:200,1,135,0|8,0:0|0:0,0:0:0:0:
279,282,313945,1,8,0:0:0:0:
455,241,314088,1,8,0:0:0:0:
371,101,314231,5,8,0:0:0:0:
231,183,314374,1,8,0:0:0:0:
292,34,314516,1,8,0:0:0:0:
325,192,314659,1,8,0:0:0:0:
393,339,314802,5,8,0:0:0:0:
231,349,314945,1,8,0:0:0:0:
133,219,315088,1,8,0:0:0:0:
56,75,315231,1,8,0:0:0:0:
53,80,315302,6,0,B|43:152|43:152|47:218,1,135,0|8,0:0|0:0,0:0:0:0:
145,347,315659,1,8,0:0:0:0:
230,188,315802,1,8,0:0:0:0:
134,35,315945,5,8,0:0:0:0:
314,37,316088,1,8,0:0:0:0:
153,119,316231,1,8,0:0:0:0:
333,116,316374,1,8,0:0:0:0:
508,81,316516,5,8,0:0:0:0:
499,260,316659,1,8,0:0:0:0:
322,298,316802,1,8,0:0:0:0:
336,118,316945,1,8,0:0:0:0:
330,114,317016,6,0,B|296:82|296:82|257:73|257:73|222:38,1,135,0|8,0:0|0:0,0:0:0:0:
44,125,317374,1,8,0:0:0:0:
214,241,317516,1,8,0:0:0:0:
412,180,317659,5,8,0:0:0:0:
215,113,317802,1,8,0:0:0:0:
122,295,317945,1,8,0:0:0:0:
318,363,318088,1,8,0:0:0:0:
486,242,318231,5,8,0:0:0:0:
287,279,318374,1,8,0:0:0:0:
121,153,318516,1,8,0:0:0:0:
118,149,318588,1,0,0:0:0:0:
116,144,318659,1,8,0:0:0:0:
113,139,318731,6,0,B|85:88|85:88|127:101|178:97,1,135,0|8,0:0|0:0,0:0:0:0:
339,76,319088,1,8,0:0:0:0:
232,221,319231,1,8,0:0:0:0:
407,181,319374,5,8,0:0:0:0:
465,350,319516,1,8,0:0:0:0:
285,361,319659,1,8,0:0:0:0:
308,183,319801,1,8,0:0:0:0:
143,105,319945,5,8,0:0:0:0:
41,253,320088,1,8,0:0:0:0:
199,338,320231,1,8,0:0:0:0:
310,183,320374,1,8,0:0:0:0:
315,179,320445,6,0,B|407:125|407:125|381:107,1,135,0|8,0:0|0:0,0:0:0:0:
242,29,320802,1,8,0:0:0:0:
180,179,320945,1,8,0:0:0:0:
42,93,321088,5,8,0:0:0:0:
40,255,321231,1,8,0:0:0:0:
201,265,321374,1,8,0:0:0:0:
221,104,321517,1,8,0:0:0:0:
59,104,321659,5,8,0:0:0:0:
28,268,321802,1,8,0:0:0:0:
236,92,321945,1,8,0:0:0:0:
172,308,322088,1,8,0:0:0:0:
176,313,322159,5,4,0:0:0:0:
209,336,322231,1,8,0:0:0:0:
248,343,322302,1,0,0:0:0:0:
288,338,322374,1,8,0:0:0:0:
325,323,322445,1,0,0:0:0:0:
362,307,322516,1,8,0:0:0:0:
402,309,322588,1,0,0:0:0:0:
435,330,322659,1,8,0:0:0:0:
470,349,322731,5,0,0:0:0:0:
450,313,322802,1,8,0:0:0:0:
440,273,322874,1,0,0:0:0:0:
441,232,322945,1,8,0:0:0:0:
456,194,323016,1,0,0:0:0:0:
472,156,323087,1,8,0:0:0:0:
470,116,323159,1,0,0:0:0:0:
446,82,323230,1,8,0:0:0:0:
410,66,323302,5,0,0:0:0:0:
369,70,323373,1,8,0:0:0:0:
335,92,323444,1,0,0:0:0:0:
319,130,323516,1,8,0:0:0:0:
323,169,323587,1,0,0:0:0:0:
310,207,323659,1,8,0:0:0:0:
271,218,323730,1,0,0:0:0:0:
231,207,323802,1,8,0:0:0:0:
212,160,323874,5,2,0:0:0:0:
169,184,323945,1,8,0:0:0:0:
120,176,324016,1,0,0:0:0:0:
88,138,324088,1,8,0:0:0:0:
88,88,324159,1,0,0:0:0:0:
120,50,324231,1,8,0:0:0:0:
169,42,324302,1,0,0:0:0:0:
212,67,324374,1,8,0:0:0:0:
229,113,324445,5,0,0:0:0:0:
251,156,324516,1,8,0:0:0:0:
294,180,324587,1,0,0:0:0:0:
343,172,324658,1,8,0:0:0:0:
375,134,324730,1,0,0:0:0:0:
422,119,324802,1,8,0:0:0:0:
470,132,324874,1,0,0:0:0:0:
498,173,324945,1,8,0:0:0:0:
495,222,325016,6,0,L|471:269,1,45,8|8,0:0|0:0,0:0:0:0:
251,156,325159,2,0,L|271:115,1,45,8|8,0:0|0:0,0:0:0:0:
340,311,325302,2,0,L|293:287,1,45,8|8,0:0|0:0,0:0:0:0:
406,67,325445,2,0,L|446:87,1,45,8|8,0:0|0:0,0:0:0:0:
484,319,325588,6,0,B|433:315|433:315|381:303,1,90,4|8,0:0|0:0,0:0:0:0:
294,180,325874,1,0,0:0:0:0:
406,66,326016,1,8,0:0:0:0:
420,200,326159,1,0,0:0:0:0:
423,222,326231,1,0,0:0:0:0:
426,243,326302,1,8,0:0:0:0:
313,333,326445,1,0,0:0:0:0:
484,319,326588,1,8,0:0:0:0:
346,243,326731,6,0,B|296:248|296:248|240:244,1,90,0|8,0:0|0:0,0:0:0:0:
190,133,327016,1,0,0:0:0:0:
116,8,327159,1,8,0:0:0:0:
30,134,327302,1,4,0:0:0:0:
61,178,327374,1,0,0:0:0:0:
92,221,327445,1,8,0:0:0:0:
91,365,327588,1,0,0:0:0:0:
205,276,327731,1,8,0:0:0:0:
337,332,327874,6,0,L|327:375,2,45,0|0|8,0:0|0:0|0:0,0:0:0:0:
456,258,328159,1,0,0:0:0:0:
312,249,328302,1,8,0:0:0:0:
423,158,328445,1,0,0:0:0:0:
279,149,328588,1,8,0:0:0:0:
398,67,328731,1,0,0:0:0:0:
254,58,328874,1,8,0:0:0:0:
456,258,329016,5,4,0:0:0:0:
401,255,329088,1,0,0:0:0:0:
347,250,329159,1,8,0:0:0:0:
279,150,329302,1,0,0:0:0:0:
424,158,329445,1,8,0:0:0:0:
299,63,329588,1,0,0:0:0:0:
277,61,329659,1,0,0:0:0:0:
254,58,329731,1,8,0:0:0:0:
115,97,329874,1,0,0:0:0:0:
49,225,330017,1,8,0:0:0:0:
144,333,330159,6,0,B|156:292|156:292|192:232,1,90,0|8,0:0|0:0,0:0:0:0:
291,369,330445,1,0,0:0:0:0:
402,255,330588,1,8,0:0:0:0:
308,104,330731,1,4,0:0:0:0:
280,150,330802,1,0,0:0:0:0:
250,195,330874,1,8,0:0:0:0:
49,225,331016,1,0,0:0:0:0:
143,333,331159,1,8,0:0:0:0:
133,189,331302,6,0,L|131:138,2,45,0|0|8,0:0|0:0|0:0,0:0:0:0:
251,273,331588,1,0,0:0:0:0:
361,180,331731,1,8,0:0:0:0:
317,317,331874,5,4,3:1:0:0:
281,150,332016,1,4,3:1:0:0:
143,333,332159,1,4,3:1:0:0:
498,136,332302,1,4,3:1:0:0:
201,54,332445,5,4,0:0:0:0:
198,50,332516,1,0,0:0:0:0:
194,46,332588,1,8,0:0:0:0:
64,128,332731,1,0,0:0:0:0:
61,131,332802,1,0,0:0:0:0:
58,134,332874,1,8,0:0:0:0:
148,256,333016,1,0,0:0:0:0:
150,259,333087,1,0,0:0:0:0:
152,262,333159,1,8,0:0:0:0:
282,182,333302,1,0,0:0:0:0:
285,179,333373,1,0,0:0:0:0:
288,175,333445,1,8,0:0:0:0:
406,74,333588,5,0,0:0:0:0:
446,270,333731,1,8,0:0:0:0:
483,28,333874,1,0,0:0:0:0:
380,330,334016,1,8,0:0:0:0:
247,319,334159,5,4,0:0:0:0:
220,325,334231,1,0,0:0:0:0:
194,332,334302,1,8,0:0:0:0:
70,227,334445,1,0,0:0:0:0:
97,233,334517,1,0,0:0:0:0:
123,240,334588,1,8,0:0:0:0:
274,182,334731,1,0,0:0:0:0:
247,188,334803,1,0,0:0:0:0:
221,195,334874,1,8,0:0:0:0:
95,94,335016,1,0,0:0:0:0:
122,100,335088,1,0,0:0:0:0:
148,107,335159,1,8,0:0:0:0:
274,182,335302,5,0,0:0:0:0:
70,227,335445,1,8,0:0:0:0:
318,95,335588,1,0,0:0:0:0:
32,314,335731,1,8,0:0:0:0:
204,331,335874,5,4,0:0:0:0:
237,319,335945,1,0,0:0:0:0:
272,311,336016,1,8,0:0:0:0:
439,275,336159,1,0,0:0:0:0:
406,263,336230,1,0,0:0:0:0:
371,255,336301,1,8,0:0:0:0:
206,202,336445,1,0,0:0:0:0:
239,190,336516,1,0,0:0:0:0:
274,182,336587,1,8,0:0:0:0:
441,146,336730,1,0,0:0:0:0:
408,134,336801,1,0,0:0:0:0:
373,126,336874,1,8,0:0:0:0:
272,311,337016,5,0,0:0:0:0:
374,125,337159,1,8,0:0:0:0:
194,344,337302,1,0,0:0:0:0:
437,72,337445,1,8,0:0:0:0:
235,52,337588,5,4,0:0:0:0:
242,96,337659,1,0,0:0:0:0:
247,141,337731,1,8,0:0:0:0:
194,343,337874,1,0,0:0:0:0:
189,298,337946,1,0,0:0:0:0:
182,254,338017,1,8,0:0:0:0:
78,76,338160,1,0,0:0:0:0:
85,120,338231,1,0,0:0:0:0:
90,165,338303,1,8,0:0:0:0:
38,362,338445,1,0,0:0:0:0:
33,317,338517,1,0,0:0:0:0:
26,273,338588,1,8,0:0:0:0:
186,355,338731,5,0,0:0:0:0:
243,44,338874,1,8,0:0:0:0:
369,347,339016,1,8,0:0:0:0:
317,330,339088,1,8,0:0:0:0:
317,276,339159,1,8,0:0:0:0:
369,260,339231,1,8,0:0:0:0:
401,304,339302,5,4,0:0:0:0:
414,300,339373,1,0,0:0:0:0:
426,295,339444,1,0,0:0:0:0:
437,288,339516,1,0,0:0:0:0:
447,279,339587,1,0,0:0:0:0:
456,268,339659,1,0,0:0:0:0:
463,257,339731,1,0,0:0:0:0:
468,244,339802,1,0,0:0:0:0:
471,231,339873,1,0,0:0:0:0:
472,218,339944,1,0,0:0:0:0:
471,204,340016,1,0,0:0:0:0:
468,191,340087,1,0,0:0:0:0:
463,179,340159,5,0,0:0:0:0:
456,167,340230,1,0,0:0:0:0:
447,157,340302,1,0,0:0:0:0:
437,148,340373,1,0,0:0:0:0:
425,141,340444,1,0,0:0:0:0:
413,136,340516,1,0,0:0:0:0:
400,132,340587,1,0,0:0:0:0:
386,131,340659,1,0,0:0:0:0:
373,132,340730,1,0,0:0:0:0:
360,135,340802,1,0,0:0:0:0:
347,140,340873,1,0,0:0:0:0:
263,92,341016,5,4,0:0:0:0:
256,103,341088,1,0,0:0:0:0:
250,115,341159,1,0,0:0:0:0:
247,128,341231,1,0,0:0:0:0:
245,141,341302,1,0,0:0:0:0:
244,154,341374,1,0,0:0:0:0:
247,166,341445,1,0,0:0:0:0:
252,178,341516,1,0,0:0:0:0:
257,190,341588,1,0,0:0:0:0:
265,200,341659,1,0,0:0:0:0:
274,209,341731,1,0,0:0:0:0:
284,217,341802,1,0,0:0:0:0:
294,226,341874,5,0,0:0:0:0:
301,237,341946,1,0,0:0:0:0:
307,249,342017,1,0,0:0:0:0:
310,262,342089,1,0,0:0:0:0:
312,275,342160,1,0,0:0:0:0:
313,288,342232,1,0,0:0:0:0:
310,300,342303,1,0,0:0:0:0:
305,312,342374,1,0,0:0:0:0:
300,324,342446,1,0,0:0:0:0:
292,334,342517,1,0,0:0:0:0:
283,344,342588,1,0,0:0:0:0:
208,278,342731,5,4,0:0:0:0:
194,281,342802,1,0,0:0:0:0:
181,286,342874,1,0,0:0:0:0:
172,296,342945,1,0,0:0:0:0:
165,308,343016,1,0,0:0:0:0:
156,317,343088,1,0,0:0:0:0:
144,323,343159,1,0,0:0:0:0:
130,325,343230,1,0,0:0:0:0:
117,323,343302,1,0,0:0:0:0:
105,317,343373,1,0,0:0:0:0:
96,308,343445,1,0,0:0:0:0:
89,295,343516,1,0,0:0:0:0:
87,282,343588,5,0,0:0:0:0:
89,269,343659,1,0,0:0:0:0:
96,257,343730,1,0,0:0:0:0:
105,247,343802,1,0,0:0:0:0:
117,241,343873,1,0,0:0:0:0:
130,239,343945,1,0,0:0:0:0:
144,241,344016,1,0,0:0:0:0:
156,247,344088,1,0,0:0:0:0:
165,257,344159,1,0,0:0:0:0:
172,269,344230,1,0,0:0:0:0:
174,282,344302,1,0,0:0:0:0:
269,321,344445,5,4,0:0:0:0:
277,332,344516,1,0,0:0:0:0:
289,339,344587,1,0,0:0:0:0:
301,344,344659,1,0,0:0:0:0:
314,344,344730,1,0,0:0:0:0:
328,341,344802,1,0,0:0:0:0:
340,334,344873,1,0,0:0:0:0:
350,325,344945,1,0,0:0:0:0:
356,313,345016,1,0,0:0:0:0:
359,300,345087,1,0,0:0:0:0:
359,287,345159,1,0,0:0:0:0:
355,274,345230,1,0,0:0:0:0:
352,260,345302,5,0,0:0:0:0:
352,247,345374,1,0,0:0:0:0:
355,234,345445,1,0,0:0:0:0:
361,222,345516,1,0,0:0:0:0:
371,213,345588,1,0,0:0:0:0:
383,206,345659,1,0,0:0:0:0:
397,203,345731,1,0,0:0:0:0:
410,203,345802,1,0,0:0:0:0:
422,208,345874,1,0,0:0:0:0:
434,215,345945,1,0,0:0:0:0:
442,226,346016,1,0,0:0:0:0:
452,102,346159,5,4,0:0:0:0:
439,97,346231,1,0,0:0:0:0:
425,95,346302,1,0,0:0:0:0:
411,94,346374,1,0,0:0:0:0:
397,94,346445,1,0,0:0:0:0:
383,95,346516,1,0,0:0:0:0:
369,98,346588,1,0,0:0:0:0:
356,104,346659,1,0,0:0:0:0:
343,110,346731,1,0,0:0:0:0:
330,114,346802,1,0,0:0:0:0:
316,115,346874,1,0,0:0:0:0:
303,112,346945,1,0,0:0:0:0:
291,105,347016,5,0,0:0:0:0:
281,96,347088,1,0,0:0:0:0:
268,94,347159,1,0,0:0:0:0:
255,100,347231,1,0,0:0:0:0:
248,111,347302,1,0,0:0:0:0:
248,125,347374,1,0,0:0:0:0:
255,136,347445,1,0,0:0:0:0:
268,142,347516,1,0,0:0:0:0:
281,140,347588,1,0,0:0:0:0:
291,131,347659,1,0,0:0:0:0:
295,118,347731,1,0,0:0:0:0:
147,67,347874,5,4,0:0:0:0:
140,78,347946,1,0,0:0:0:0:
134,90,348017,1,0,0:0:0:0:
131,103,348089,1,0,0:0:0:0:
129,116,348160,1,0,0:0:0:0:
128,129,348232,1,0,0:0:0:0:
131,141,348303,1,0,0:0:0:0:
136,153,348374,1,0,0:0:0:0:
141,165,348446,1,0,0:0:0:0:
149,175,348517,1,0,0:0:0:0:
158,184,348589,1,0,0:0:0:0:
168,192,348660,1,0,0:0:0:0:
178,201,348732,5,0,0:0:0:0:
185,212,348802,1,0,0:0:0:0:
191,224,348875,1,0,0:0:0:0:
194,237,348945,1,0,0:0:0:0:
196,250,349016,1,0,0:0:0:0:
197,263,349088,1,0,0:0:0:0:
194,275,349159,1,0,0:0:0:0:
189,287,349232,1,0,0:0:0:0:
184,299,349302,1,0,0:0:0:0:
176,309,349375,1,0,0:0:0:0:
167,319,349445,1,0,0:0:0:0:
293,335,349588,5,4,0:0:0:0:
299,323,349659,1,0,0:0:0:0:
305,311,349730,1,0,0:0:0:0:
310,298,349802,1,0,0:0:0:0:
313,285,349873,1,0,0:0:0:0:
315,272,349945,1,0,0:0:0:0:
316,258,350016,1,0,0:0:0:0:
315,245,350088,1,0,0:0:0:0:
312,231,350159,1,0,0:0:0:0:
309,218,350230,1,0,0:0:0:0:
304,206,350302,1,0,0:0:0:0:
306,199,350373,5,0,0:0:0:0:
319,200,350445,1,0,0:0:0:0:
333,200,350516,1,0,0:0:0:0:
346,197,350588,1,0,0:0:0:0:
359,193,350659,1,0,0:0:0:0:
371,187,350730,1,0,0:0:0:0:
382,179,350802,1,0,0:0:0:0:
392,170,350873,1,0,0:0:0:0:
401,160,350945,1,0,0:0:0:0:
409,149,351016,1,0,0:0:0:0:
416,138,351088,1,0,0:0:0:0:
420,125,351159,1,0,0:0:0:0:
502,97,351302,5,4,0:0:0:0:
499,84,351373,1,0,0:0:0:0:
494,72,351445,1,0,0:0:0:0:
486,61,351516,1,0,0:0:0:0:
477,51,351588,1,0,0:0:0:0:
467,43,351659,1,0,0:0:0:0:
455,36,351731,1,0,0:0:0:0:
442,32,351802,1,0,0:0:0:0:
429,29,351873,1,0,0:0:0:0:
415,29,351945,1,0,0:0:0:0:
402,32,352016,1,0,0:0:0:0:
389,36,352088,1,0,0:0:0:0:
377,42,352159,5,0,0:0:0:0:
366,51,352231,1,0,0:0:0:0:
357,61,352302,1,0,0:0:0:0:
350,72,352373,1,0,0:0:0:0:
344,84,352445,1,0,0:0:0:0:
341,97,352516,1,0,0:0:0:0:
338,110,352588,1,0,0:0:0:0:
338,123,352659,1,0,0:0:0:0:
340,136,352731,6,0,P|343:167|327:208,1,67.5,0|0,1:0|2:0,0:0:0:0:
